VA - Весенний марафон № 163 / Видеоклипы (Зарубежный Коктейль Новинок) (2015) WEBRip [H.264/1080p-LQ]

 
 Статистика раздачи 
Размер: 3.12 ГБ   |  Зарегистрирован: 07 апр 2015, 09:51   |   .torrent скачан: 0 раз
Сидеров: 1  [ 0 байт/сек ]     Личеров: 0  [ 0 байт/сек ]  
  

VA - Весенний марафон № 163 / Видеоклипы (Зарубежный Коктейль Новинок) (2015) WEBRip [H.264/1080p-LQ]

Сообщение Thistoll » 07 апр 2015, 09:51

VA - Весенний марафон № 163 / (Зарубежный Коктейль Новинок) (2015) WEBRip

Год выпуска: 2015
Жанр: Pop, Dance, Latino, Country, House, Chill Out, Rock
Контейнер: MP4
Кол-во клипов: 25
Продолжительность: 01.35.30

Описание:
Весенние (06.04.2015) поп. новинки зарубежной эстрады. Не пропустите, держите новые треки.

Видеокодек: AVC/H.264
Битрейт видео: 4.496 ~ 2.094 kbps avg, 0.087 - 0.042 bit.pixel
Размер кадра: 1920x1080 (16:9), 23.976 ~ 25.000 fps
Качество видео: WEBRip
Аудиокодек: AAC, 2 ch
Битрейт аудио: 111 - 254 Kbps avg
1. A.M.R feat. Ai Takekawa - Beyond The Moon (Original Mix) (00:09:04)
2. Aerosmith - Girs of summer (00:04:02)
3. ATC - Thinking Of You (Official Video) (00:03:29)
4. Blake Shelton - Sangria (Official Video) (00:03:56)
5. Cimorelli - All My Friends Say (Official Video) (00:03:04)
6. Ed Sheeran ft. Rudimental ­ Bloodstream (Official Video) (00:04:12)
7. Enigma - Between Mind & Heart (Official Video) (00:04:45)
8. Enigma - Je T'aime Till My Dying Day (Official Video) (00:04:16)
9. Freemasons ft. Solah - True Love Survivor (Official Video) (00:03:47)
10. Genealogy - Face The Shadow (Official Video) (00:03:04)
11. Lindsey Stirling - Take Flight (Official Video) (00:05:16)
12. Marcus Schossow ft. The Royalties Sthlm - Lionheart (Official Video) (00:03:35)
13. Martin Garrix ft. Usher - Don't Look Down (Official Video) (00:03:53)
14. Melanie C - I Turn To You (Hex Hector Club Mix) (00:04:11)
15. Michael Patrick Kelly - Shake Away (Official Video) (00:03:33)
16. Nicky Jam ft. Enrique Iglesias - El Perdon (Official Video) (00:03:52)
17. Nikki Kavanagh - Memories (Official Video) (00:03:05)
18. Noa Neal - Graffiti (Official Video) (00:03:06)
19. R.I.O. - Thinking Of You (Official Video) (00:03:30)
20. Shahzoda - Mon Cheri (Official Video) (00:03:35)
21. Shayne Ward - My Heart Would Take You Back (Official Video) (00:03:36)
22. Sonny Flame - All We Had Is Gone (Official Video) (00:03:22)
23. Take That - Let In The Sun (Official Video) (00:03:42)
24. Wilkinson ft. Thabo - Hopelessly Coping (Official Video) (00:03:59)
25. Yelawolf - American You (Official Video) (00:03:37)
Код:
Код: Выделить всё
Общее
Полное имя                               : E:\VA - Весенний марафон № 163 (Зарубежная Клиповсячина)\A.M.R feat. Ai Takekawa - Beyond The Moon (Original Mix).mp4
Формат                                   : MPEG-4
Профиль формата                          : Base Media
Идентификатор кодека                     : isom
Размер файла                             : 295 Мбайт
Продолжительность                        : 9 м. 4 с.
Режим общего битрейта                    : Переменный
Общий поток                              : 4548 Кбит/сек
Дата кодирования                         : UTC 2014-02-06 17:58:45
Дата пометки                             : UTC 2014-02-06 17:58:45
Программа кодирования                    : Lavf54.63.104

Видео
Идентификатор                            : 1
Формат                                   : AVC
Формат/Информация                        : Advanced Video Codec
Профиль формата                          :
Параметр CABAC формата                   : Да
Параметр ReFrames формата                : 1 кадр
Идентификатор кодека                     : avc1
Идентификатор кодека/Информация          : Advanced Video Coding
Продолжительность                        : 9 м. 4 с.
Битрейт                                  : 4496 Кбит/сек
Ширина                                   : 1920 пикселей
Высота                                   : 1080 пикселей
Соотношение сторон                       : 16:9
Режим частоты кадров                     : Постоянный
Частота кадров                           : 25,000 кадров/сек
Цветовое пространство                    : YUV
Субдискретизация насыщенности            : 4:2:0
Битовая глубина                          : 8 бит
Тип развёртки                            : Прогрессивная
Бит/(Пиксели*Кадры)                      : 0.087
Размер потока                            : 285 Мбайт (97%)
Библиотека кодирования                   : x264 core 129
Настройки программы                      : cabac=1 / ref=1 / deblock=1:0:0 / analyse=0x1:0x131 / me=dia / subme=2 / psy=1 / psy_rd=1.00:0.00 / mixed_ref=0 / me_range=16 / chroma_me=1 / trellis=0 / 8x8dct=0 / cqm=0 / deadzone=21,11 / fast_pskip=1 / chroma_qp_offset=0 / threads=2 / lookahead_threads=1 / sliced_threads=0 / nr=0 / decimate=1 / interlaced=0 / bluray_compat=0 / constrained_intra=0 / bframes=0 / weightp=2 / keyint=250 / keyint_min=25 / scenecut=40 / intra_refresh=0 / rc_lookahead=40 / rc=abr / mbtree=1 / bitrate=4496 / ratetol=1.0 / qcomp=0.60 / qpmin=10 / qpmax=51 / qpstep=4 / ip_ratio=1.41 / aq=1:1.00
Дата кодирования                         : UTC 2014-02-06 17:58:45
Дата пометки                             : UTC 2014-02-06 17:58:45

Аудио
Идентификатор                            : 2
Формат                                   : AAC
Формат/Информация                        : Advanced Audio Codec
Профиль формата                          : LC
Идентификатор кодека                     : 40
Продолжительность                        : 9 м. 4 с.
Duration_FirstFrame                      : 70 мс.
Вид битрейта                             : Переменный
Битрейт                                  : 151 Кбит/сек
Максимальный битрейт                     : 176 Кбит/сек
Каналы                                   : 2 канала
Расположение каналов                     : Front: L R
Частота                                  : 44,1 КГц
Метод сжатия                             : С потерями
Размер потока                            : 9,84 Мбайт (3%)
Дата кодирования                         : UTC 2014-02-06 17:58:45
Дата пометки                             : UTC 2014-02-06 17:58:45
Общее
Полное имя                               : E:\VA - Весенний марафон № 163 (Зарубежная Клиповсячина)\Aerosmith - Girs of summer.mp4
Формат                                   : MPEG-4
Профиль формата                          : Base Media
Идентификатор кодека                     : isom
Размер файла                             : 133 Мбайт
Продолжительность                        : 4 м. 2 с.
Режим общего битрейта                    : Переменный
Общий поток                              : 4591 Кбит/сек
Дата кодирования                         : UTC 2014-06-17 09:36:36
Дата пометки                             : UTC 2014-06-17 09:36:36
Программа кодирования                    : Lavf54.63.104

Видео
Идентификатор                            : 1
Формат                                   : AVC
Формат/Информация                        : Advanced Video Codec
Профиль формата                          :
Параметр CABAC формата                   : Да
Параметр ReFrames формата                : 1 кадр
Идентификатор кодека                     : avc1
Идентификатор кодека/Информация          : Advanced Video Coding
Продолжительность                        : 4 м. 2 с.
Битрейт                                  : 4496 Кбит/сек
Ширина                                   : 1920 пикселей
Высота                                   : 1080 пикселей
Соотношение сторон                       : 16:9
Режим частоты кадров                     : Постоянный
Частота кадров                           : 25,000 кадров/сек
Цветовое пространство                    : YUV
Субдискретизация насыщенности            : 4:2:0
Битовая глубина                          : 8 бит
Тип развёртки                            : Прогрессивная
Бит/(Пиксели*Кадры)                      : 0.087
Размер потока                            : 128 Мбайт (97%)
Библиотека кодирования                   : x264 core 129
Настройки программы                      : cabac=1 / ref=1 / deblock=1:0:0 / analyse=0x1:0x131 / me=dia / subme=2 / psy=1 / psy_rd=1.00:0.00 / mixed_ref=0 / me_range=16 / chroma_me=1 / trellis=0 / 8x8dct=0 / cqm=0 / deadzone=21,11 / fast_pskip=1 / chroma_qp_offset=0 / threads=2 / lookahead_threads=1 / sliced_threads=0 / nr=0 / decimate=1 / interlaced=0 / bluray_compat=0 / constrained_intra=0 / bframes=0 / weightp=2 / keyint=250 / keyint_min=25 / scenecut=40 / intra_refresh=0 / rc_lookahead=40 / rc=abr / mbtree=1 / bitrate=4496 / ratetol=1.0 / qcomp=0.60 / qpmin=10 / qpmax=51 / qpstep=4 / ip_ratio=1.41 / aq=1:1.00
Дата кодирования                         : UTC 2014-06-17 09:36:36
Дата пометки                             : UTC 2014-06-17 09:36:36

Аудио
Идентификатор                            : 2
Формат                                   : AAC
Формат/Информация                        : Advanced Audio Codec
Профиль формата                          : LC
Идентификатор кодека                     : 40
Продолжительность                        : 4 м. 2 с.
Duration_FirstFrame                      : 70 мс.
Вид битрейта                             : Переменный
Битрейт                                  : 152 Кбит/сек
Максимальный битрейт                     : 176 Кбит/сек
Каналы                                   : 2 канала
Расположение каналов                     : Front: L R
Частота                                  : 44,1 КГц
Метод сжатия                             : С потерями
Размер потока                            : 4,40 Мбайт (3%)
Дата кодирования                         : UTC 2014-06-17 09:36:36
Дата пометки                             : UTC 2014-06-17 09:36:36
Общее
Полное имя                               : E:\VA - Весенний марафон № 163 (Зарубежная Клиповсячина)\ATC - Thinking Of You (Official Video).mp4
Формат                                   : MPEG-4
Профиль формата                          : Base Media
Идентификатор кодека                     : isom
Размер файла                             : 117 Мбайт
Продолжительность                        : 3 м. 29 с.
Режим общего битрейта                    : Переменный
Общий поток                              : 4683 Кбит/сек
Дата кодирования                         : UTC 2014-02-07 01:19:55
Дата пометки                             : UTC 2014-02-07 01:19:55
Программа кодирования                    : Lavf54.63.104

Видео
Идентификатор                            : 1
Формат                                   : AVC
Формат/Информация                        : Advanced Video Codec
Профиль формата                          :
Параметр CABAC формата                   : Да
Параметр ReFrames формата                : 1 кадр
Идентификатор кодека                     : avc1
Идентификатор кодека/Информация          : Advanced Video Coding
Продолжительность                        : 3 м. 29 с.
Битрейт                                  : 4496 Кбит/сек
Ширина                                   : 1920 пикселей
Высота                                   : 1080 пикселей
Соотношение сторон                       : 16:9
Режим частоты кадров                     : Постоянный
Частота кадров                           : 25,000 кадров/сек
Цветовое пространство                    : YUV
Субдискретизация насыщенности            : 4:2:0
Битовая глубина                          : 8 бит
Тип развёртки                            : Прогрессивная
Бит/(Пиксели*Кадры)                      : 0.087
Размер потока                            : 113 Мбайт (97%)
Библиотека кодирования                   : x264 core 129
Настройки программы                      : cabac=1 / ref=1 / deblock=1:0:0 / analyse=0x1:0x131 / me=dia / subme=2 / psy=1 / psy_rd=1.00:0.00 / mixed_ref=0 / me_range=16 / chroma_me=1 / trellis=0 / 8x8dct=0 / cqm=0 / deadzone=21,11 / fast_pskip=1 / chroma_qp_offset=0 / threads=2 / lookahead_threads=1 / sliced_threads=0 / nr=0 / decimate=1 / interlaced=0 / bluray_compat=0 / constrained_intra=0 / bframes=0 / weightp=2 / keyint=250 / keyint_min=25 / scenecut=40 / intra_refresh=0 / rc_lookahead=40 / rc=abr / mbtree=1 / bitrate=4496 / ratetol=1.0 / qcomp=0.60 / qpmin=10 / qpmax=51 / qpstep=4 / ip_ratio=1.41 / aq=1:1.00
Дата кодирования                         : UTC 2014-02-07 01:19:55
Дата пометки                             : UTC 2014-02-07 01:19:55

Аудио
Идентификатор                            : 2
Формат                                   : AAC
Формат/Информация                        : Advanced Audio Codec
Профиль формата                          : LC
Идентификатор кодека                     : 40
Продолжительность                        : 3 м. 29 с.
Duration_FirstFrame                      : 70 мс.
Вид битрейта                             : Переменный
Битрейт                                  : 152 Кбит/сек
Максимальный битрейт                     : 176 Кбит/сек
Каналы                                   : 2 канала
Расположение каналов                     : Front: L R
Частота                                  : 44,1 КГц
Метод сжатия                             : С потерями
Размер потока                            : 3,78 Мбайт (3%)
Дата кодирования                         : UTC 2014-02-07 01:19:55
Дата пометки                             : UTC 2014-02-07 01:19:55
Общее
Полное имя                               : E:\VA - Весенний марафон № 163 (Зарубежная Клиповсячина)\Blake Shelton - Sangria (Official Video).mp4
Формат                                   : MPEG-4
Профиль формата                          : Base Media
Идентификатор кодека                     : isom
Размер файла                             : 126 Мбайт
Продолжительность                        : 3 м. 56 с.
Режим общего битрейта                    : Переменный
Общий поток                              : 4467 Кбит/сек
Дата кодирования                         : UTC 2015-03-26 20:36:49
Дата пометки                             : UTC 2015-03-26 20:36:49
Программа кодирования                    : Lavf54.63.104

Видео
Идентификатор                            : 1
Формат                                   : AVC
Формат/Информация                        : Advanced Video Codec
Профиль формата                          :
Параметр CABAC формата                   : Да
Параметр ReFrames формата                : 1 кадр
Идентификатор кодека                     : avc1
Идентификатор кодека/Информация          : Advanced Video Coding
Продолжительность                        : 3 м. 56 с.
Битрейт                                  : 4496 Кбит/сек
Ширина                                   : 1920 пикселей
Высота                                   : 1080 пикселей
Соотношение сторон                       : 16:9
Режим частоты кадров                     : Постоянный
Частота кадров                           : 25,000 кадров/сек
Цветовое пространство                    : YUV
Субдискретизация насыщенности            : 4:2:0
Битовая глубина                          : 8 бит
Тип развёртки                            : Прогрессивная
Бит/(Пиксели*Кадры)                      : 0.087
Размер потока                            : 121 Мбайт (97%)
Библиотека кодирования                   : x264 core 129
Настройки программы                      : cabac=1 / ref=1 / deblock=1:0:0 / analyse=0x1:0x131 / me=dia / subme=2 / psy=1 / psy_rd=1.00:0.00 / mixed_ref=0 / me_range=16 / chroma_me=1 / trellis=0 / 8x8dct=0 / cqm=0 / deadzone=21,11 / fast_pskip=1 / chroma_qp_offset=0 / threads=2 / lookahead_threads=1 / sliced_threads=0 / nr=0 / decimate=1 / interlaced=0 / bluray_compat=0 / constrained_intra=0 / bframes=0 / weightp=2 / keyint=250 / keyint_min=25 / scenecut=40 / intra_refresh=0 / rc_lookahead=40 / rc=abr / mbtree=1 / bitrate=4496 / ratetol=1.0 / qcomp=0.60 / qpmin=10 / qpmax=51 / qpstep=4 / ip_ratio=1.41 / aq=1:1.00
Дата кодирования                         : UTC 2015-03-26 20:36:49
Дата пометки                             : UTC 2015-03-26 20:36:49

Аудио
Идентификатор                            : 2
Формат                                   : AAC
Формат/Информация                        : Advanced Audio Codec
Профиль формата                          : LC
Идентификатор кодека                     : 40
Продолжительность                        : 3 м. 56 с.
Duration_FirstFrame                      : 70 мс.
Вид битрейта                             : Переменный
Битрейт                                  : 149 Кбит/сек
Максимальный битрейт                     : 176 Кбит/сек
Каналы                                   : 2 канала
Расположение каналов                     : Front: L R
Частота                                  : 44,1 КГц
Метод сжатия                             : С потерями
Размер потока                            : 4,20 Мбайт (3%)
Дата кодирования                         : UTC 2015-03-26 20:36:49
Дата пометки                             : UTC 2015-03-26 20:36:49
Общее
Полное имя                               : E:\VA - Весенний марафон № 163 (Зарубежная Клиповсячина)\Cimorelli - All My Friends Say (Official Video).mp4
Формат                                   : MPEG-4
Профиль формата                          : Base Media
Идентификатор кодека                     : isom
Размер файла                             : 103 Мбайт
Продолжительность                        : 3 м. 4 с.
Режим общего битрейта                    : Переменный
Общий поток                              : 4663 Кбит/сек
Дата кодирования                         : UTC 2015-03-09 16:14:18
Дата пометки                             : UTC 2015-03-09 16:14:18
Программа кодирования                    : Lavf54.63.104

Видео
Идентификатор                            : 1
Формат                                   : AVC
Формат/Информация                        : Advanced Video Codec
Профиль формата                          :
Параметр CABAC формата                   : Да
Параметр ReFrames формата                : 1 кадр
Параметр GOP формата                     : N=1
Идентификатор кодека                     : avc1
Идентификатор кодека/Информация          : Advanced Video Coding
Продолжительность                        : 3 м. 4 с.
Битрейт                                  : 4496 Кбит/сек
Ширина                                   : 1920 пикселей
Высота                                   : 1080 пикселей
Соотношение сторон                       : 16:9
Режим частоты кадров                     : Постоянный
Частота кадров                           : 25,000 кадров/сек
Цветовое пространство                    : YUV
Субдискретизация насыщенности            : 4:2:0
Битовая глубина                          : 8 бит
Тип развёртки                            : Прогрессивная
Бит/(Пиксели*Кадры)                      : 0.087
Размер потока                            : 99,4 Мбайт (97%)
Библиотека кодирования                   : x264 core 129
Настройки программы                      : cabac=1 / ref=1 / deblock=1:0:0 / analyse=0x1:0x131 / me=dia / subme=2 / psy=1 / psy_rd=1.00:0.00 / mixed_ref=0 / me_range=16 / chroma_me=1 / trellis=0 / 8x8dct=0 / cqm=0 / deadzone=21,11 / fast_pskip=1 / chroma_qp_offset=0 / threads=2 / lookahead_threads=1 / sliced_threads=0 / nr=0 / decimate=1 / interlaced=0 / bluray_compat=0 / constrained_intra=0 / bframes=0 / weightp=2 / keyint=250 / keyint_min=25 / scenecut=40 / intra_refresh=0 / rc_lookahead=40 / rc=abr / mbtree=1 / bitrate=4496 / ratetol=1.0 / qcomp=0.60 / qpmin=10 / qpmax=51 / qpstep=4 / ip_ratio=1.41 / aq=1:1.00
Дата кодирования                         : UTC 2015-03-09 16:14:18
Дата пометки                             : UTC 2015-03-09 16:14:18

Аудио
Идентификатор                            : 2
Формат                                   : AAC
Формат/Информация                        : Advanced Audio Codec
Профиль формата                          : LC
Идентификатор кодека                     : 40
Продолжительность                        : 3 м. 4 с.
Duration_FirstFrame                      : 70 мс.
Вид битрейта                             : Переменный
Битрейт                                  : 151 Кбит/сек
Максимальный битрейт                     : 176 Кбит/сек
Каналы                                   : 2 канала
Расположение каналов                     : Front: L R
Частота                                  : 44,1 КГц
Метод сжатия                             : С потерями
Размер потока                            : 3,33 Мбайт (3%)
Дата кодирования                         : UTC 2015-03-09 16:14:18
Дата пометки                             : UTC 2015-03-09 16:14:18
Общее
Полное имя                               : E:\VA - Весенний марафон № 163 (Зарубежная Клиповсячина)\Ed Sheeran ft. Rudimental ­ Bloodstream (Official Video).mp4
Формат                                   : MPEG-4
Профиль формата                          : Base Media
Идентификатор кодека                     : isom
Размер файла                             : 140 Мбайт
Продолжительность                        : 4 м. 12 с.
Режим общего битрейта                    : Переменный
Общий поток                              : 4656 Кбит/сек
Дата кодирования                         : UTC 2015-03-21 00:18:29
Дата пометки                             : UTC 2015-03-21 00:18:29
Программа кодирования                    : Lavf54.63.104

Видео
Идентификатор                            : 1
Формат                                   : AVC
Формат/Информация                        : Advanced Video Codec
Профиль формата                          :
Параметр CABAC формата                   : Да
Параметр ReFrames формата                : 1 кадр
Идентификатор кодека                     : avc1
Идентификатор кодека/Информация          : Advanced Video Coding
Продолжительность                        : 4 м. 12 с.
Битрейт                                  : 4496 Кбит/сек
Ширина                                   : 1920 пикселей
Высота                                   : 1080 пикселей
Соотношение сторон                       : 16:9
Режим частоты кадров                     : Постоянный
Частота кадров                           : 25,000 кадров/сек
Цветовое пространство                    : YUV
Субдискретизация насыщенности            : 4:2:0
Битовая глубина                          : 8 бит
Тип развёртки                            : Прогрессивная
Бит/(Пиксели*Кадры)                      : 0.087
Размер потока                            : 136 Мбайт (97%)
Библиотека кодирования                   : x264 core 129
Настройки программы                      : cabac=1 / ref=1 / deblock=1:0:0 / analyse=0x1:0x131 / me=dia / subme=2 / psy=1 / psy_rd=1.00:0.00 / mixed_ref=0 / me_range=16 / chroma_me=1 / trellis=0 / 8x8dct=0 / cqm=0 / deadzone=21,11 / fast_pskip=1 / chroma_qp_offset=0 / threads=2 / lookahead_threads=1 / sliced_threads=0 / nr=0 / decimate=1 / interlaced=0 / bluray_compat=0 / constrained_intra=0 / bframes=0 / weightp=2 / keyint=250 / keyint_min=25 / scenecut=40 / intra_refresh=0 / rc_lookahead=40 / rc=abr / mbtree=1 / bitrate=4496 / ratetol=1.0 / qcomp=0.60 / qpmin=10 / qpmax=51 / qpstep=4 / ip_ratio=1.41 / aq=1:1.00
Дата кодирования                         : UTC 2015-03-21 00:18:29
Дата пометки                             : UTC 2015-03-21 00:18:29

Аудио
Идентификатор                            : 2
Формат                                   : AAC
Формат/Информация                        : Advanced Audio Codec
Профиль формата                          : LC
Идентификатор кодека                     : 40
Продолжительность                        : 4 м. 12 с.
Duration_FirstFrame                      : 70 мс.
Вид битрейта                             : Переменный
Битрейт                                  : 149 Кбит/сек
Максимальный битрейт                     : 176 Кбит/сек
Каналы                                   : 2 канала
Расположение каналов                     : Front: L R
Частота                                  : 44,1 КГц
Метод сжатия                             : С потерями
Размер потока                            : 4,48 Мбайт (3%)
Дата кодирования                         : UTC 2015-03-21 00:18:29
Дата пометки                             : UTC 2015-03-21 00:18:29
Общее
Полное имя                               : E:\VA - Весенний марафон № 163 (Зарубежная Клиповсячина)\Enigma - Between Mind & Heart (Official Video).mp4
Формат                                   : MPEG-4
Профиль формата                          : Base Media
Идентификатор кодека                     : isom
Размер файла                             : 138 Мбайт
Продолжительность                        : 4 м. 45 с.
Общий поток                              : 4050 Кбит/сек
Программа кодирования                    : Lavf55.37.101

Видео
Идентификатор                            : 1
Формат                                   : AVC
Формат/Информация                        : Advanced Video Codec
Профиль формата                          :
Параметр CABAC формата                   : Да
Параметр ReFrames формата                : 3 кадра
Идентификатор кодека                     : avc1
Идентификатор кодека/Информация          : Advanced Video Coding
Продолжительность                        : 4 м. 45 с.
Битрейт                                  : 3793 Кбит/сек
Ширина                                   : 1920 пикселей
Высота                                   : 1080 пикселей
Соотношение сторон                       : 16:9
Режим частоты кадров                     : Постоянный
Частота кадров                           : 25,000 кадров/сек
Цветовое пространство                    : YUV
Субдискретизация насыщенности            : 4:2:0
Битовая глубина                          : 8 бит
Тип развёртки                            : Прогрессивная
Бит/(Пиксели*Кадры)                      : 0.073
Размер потока                            : 129 Мбайт (94%)

Аудио
Идентификатор                            : 2
Формат                                   : AAC
Формат/Информация                        : Advanced Audio Codec
Профиль формата                          : LC
Идентификатор кодека                     : 40
Продолжительность                        : 4 м. 45 с.
Вид битрейта                             : Постоянный
Битрейт                                  : 254 Кбит/сек
Каналы                                   : 2 канала
Расположение каналов                     : Front: L R
Частота                                  : 44,1 КГц
Метод сжатия                             : С потерями
Размер потока                            : 8,63 Мбайт (6%)
Общее
Полное имя                               : E:\VA - Весенний марафон № 163 (Зарубежная Клиповсячина)\Enigma - Je T'aime Till My Dying Day (Official Video).mp4
Формат                                   : MPEG-4
Профиль формата                          : Base Media
Идентификатор кодека                     : isom
Размер файла                             : 137 Мбайт
Продолжительность                        : 4 м. 16 с.
Режим общего битрейта                    : Переменный
Общий поток                              : 4459 Кбит/сек
Дата кодирования                         : UTC 2014-01-16 09:33:29
Дата пометки                             : UTC 2014-01-16 09:33:29
Программа кодирования                    : Lavf54.63.104

Видео
Идентификатор                            : 1
Формат                                   : AVC
Формат/Информация                        : Advanced Video Codec
Профиль формата                          :
Параметр CABAC формата                   : Да
Параметр ReFrames формата                : 1 кадр
Идентификатор кодека                     : avc1
Идентификатор кодека/Информация          : Advanced Video Coding
Продолжительность                        : 4 м. 16 с.
Битрейт                                  : 4496 Кбит/сек
Ширина                                   : 1920 пикселей
Высота                                   : 1080 пикселей
Соотношение сторон                       : 16:9
Режим частоты кадров                     : Постоянный
Частота кадров                           : 25,000 кадров/сек
Цветовое пространство                    : YUV
Субдискретизация насыщенности            : 4:2:0
Битовая глубина                          : 8 бит
Тип развёртки                            : Прогрессивная
Бит/(Пиксели*Кадры)                      : 0.087
Размер потока                            : 132 Мбайт (96%)
Библиотека кодирования                   : x264 core 129
Настройки программы                      : cabac=1 / ref=1 / deblock=1:0:0 / analyse=0x1:0x131 / me=dia / subme=2 / psy=1 / psy_rd=1.00:0.00 / mixed_ref=0 / me_range=16 / chroma_me=1 / trellis=0 / 8x8dct=0 / cqm=0 / deadzone=21,11 / fast_pskip=1 / chroma_qp_offset=0 / threads=2 / lookahead_threads=1 / sliced_threads=0 / nr=0 / decimate=1 / interlaced=0 / bluray_compat=0 / constrained_intra=0 / bframes=0 / weightp=2 / keyint=250 / keyint_min=25 / scenecut=40 / intra_refresh=0 / rc_lookahead=40 / rc=abr / mbtree=1 / bitrate=4496 / ratetol=1.0 / qcomp=0.60 / qpmin=10 / qpmax=51 / qpstep=4 / ip_ratio=1.41 / aq=1:1.00
Дата кодирования                         : UTC 2014-01-16 09:33:29
Дата пометки                             : UTC 2014-01-16 09:33:29

Аудио
Идентификатор                            : 2
Формат                                   : AAC
Формат/Информация                        : Advanced Audio Codec
Профиль формата                          : LC
Идентификатор кодека                     : 40
Продолжительность                        : 4 м. 16 с.
Duration_FirstFrame                      : 70 мс.
Вид битрейта                             : Переменный
Битрейт                                  : 152 Кбит/сек
Максимальный битрейт                     : 176 Кбит/сек
Каналы                                   : 2 канала
Расположение каналов                     : Front: L R
Частота                                  : 44,1 КГц
Метод сжатия                             : С потерями
Размер потока                            : 4,65 Мбайт (3%)
Дата кодирования                         : UTC 2014-01-16 09:33:29
Дата пометки                             : UTC 2014-01-16 09:33:29
Общее
Полное имя                               : E:\VA - Весенний марафон № 163 (Зарубежная Клиповсячина)\Freemasons ft. Solah - True Love Survivor (Official Video).mp4
Формат                                   : MPEG-4
Профиль формата                          : Base Media
Идентификатор кодека                     : isom
Размер файла                             : 125 Мбайт
Продолжительность                        : 3 м. 47 с.
Режим общего битрейта                    : Переменный
Общий поток                              : 4594 Кбит/сек
Программа кодирования                    : Lavf54.63.104

Видео
Идентификатор                            : 1
Формат                                   : AVC
Формат/Информация                        : Advanced Video Codec
Профиль формата                          :
Параметр CABAC формата                   : Да
Параметр ReFrames формата                : 1 кадр
Идентификатор кодека                     : avc1
Идентификатор кодека/Информация          : Advanced Video Coding
Продолжительность                        : 3 м. 47 с.
Битрейт                                  : 4496 Кбит/сек
Ширина                                   : 1920 пикселей
Высота                                   : 1080 пикселей
Соотношение сторон                       : 16:9
Режим частоты кадров                     : Постоянный
Частота кадров                           : 25,000 кадров/сек
Цветовое пространство                    : YUV
Субдискретизация насыщенности            : 4:2:0
Битовая глубина                          : 8 бит
Тип развёртки                            : Прогрессивная
Бит/(Пиксели*Кадры)                      : 0.087
Размер потока                            : 121 Мбайт (97%)
Библиотека кодирования                   : x264 core 129
Настройки программы                      : cabac=1 / ref=1 / deblock=1:0:0 / analyse=0x1:0x131 / me=dia / subme=2 / psy=1 / psy_rd=1.00:0.00 / mixed_ref=0 / me_range=16 / chroma_me=1 / trellis=0 / 8x8dct=0 / cqm=0 / deadzone=21,11 / fast_pskip=1 / chroma_qp_offset=0 / threads=2 / lookahead_threads=1 / sliced_threads=0 / nr=0 / decimate=1 / interlaced=0 / bluray_compat=0 / constrained_intra=0 / bframes=0 / weightp=2 / keyint=250 / keyint_min=25 / scenecut=40 / intra_refresh=0 / rc_lookahead=40 / rc=abr / mbtree=1 / bitrate=4496 / ratetol=1.0 / qcomp=0.60 / qpmin=10 / qpmax=51 / qpstep=4 / ip_ratio=1.41 / aq=1:1.00

Аудио
Идентификатор                            : 2
Формат                                   : AAC
Формат/Информация                        : Advanced Audio Codec
Профиль формата                          : LC
Идентификатор кодека                     : 40
Продолжительность                        : 3 м. 47 с.
Duration_FirstFrame                      : 70 мс.
Вид битрейта                             : Переменный
Битрейт                                  : 151 Кбит/сек
Максимальный битрейт                     : 176 Кбит/сек
Каналы                                   : 2 канала
Расположение каналов                     : Front: L R
Частота                                  : 44,1 КГц
Метод сжатия                             : С потерями
Размер потока                            : 4,11 Мбайт (3%)
Общее
Полное имя                               : E:\VA - Весенний марафон № 163 (Зарубежная Клиповсячина)\Genealogy - Face The Shadow (Official Video).mp4
Формат                                   : MPEG-4
Профиль формата                          : Base Media
Идентификатор кодека                     : isom
Размер файла                             : 102 Мбайт
Продолжительность                        : 3 м. 4 с.
Режим общего битрейта                    : Переменный
Общий поток                              : 4634 Кбит/сек
Дата кодирования                         : UTC 2015-03-22 07:47:05
Дата пометки                             : UTC 2015-03-22 07:47:05
Программа кодирования                    : Lavf54.63.104

Видео
Идентификатор                            : 1
Формат                                   : AVC
Формат/Информация                        : Advanced Video Codec
Профиль формата                          :
Параметр CABAC формата                   : Да
Параметр ReFrames формата                : 1 кадр
Идентификатор кодека                     : avc1
Идентификатор кодека/Информация          : Advanced Video Coding
Продолжительность                        : 3 м. 4 с.
Битрейт                                  : 4496 Кбит/сек
Ширина                                   : 1920 пикселей
Высота                                   : 1080 пикселей
Соотношение сторон                       : 16:9
Режим частоты кадров                     : Постоянный
Частота кадров                           : 25,000 кадров/сек
Цветовое пространство                    : YUV
Субдискретизация насыщенности            : 4:2:0
Битовая глубина                          : 8 бит
Тип развёртки                            : Прогрессивная
Бит/(Пиксели*Кадры)                      : 0.087
Размер потока                            : 98,6 Мбайт (97%)
Библиотека кодирования                   : x264 core 129
Настройки программы                      : cabac=1 / ref=1 / deblock=1:0:0 / analyse=0x1:0x131 / me=dia / subme=2 / psy=1 / psy_rd=1.00:0.00 / mixed_ref=0 / me_range=16 / chroma_me=1 / trellis=0 / 8x8dct=0 / cqm=0 / deadzone=21,11 / fast_pskip=1 / chroma_qp_offset=0 / threads=2 / lookahead_threads=1 / sliced_threads=0 / nr=0 / decimate=1 / interlaced=0 / bluray_compat=0 / constrained_intra=0 / bframes=0 / weightp=2 / keyint=250 / keyint_min=25 / scenecut=40 / intra_refresh=0 / rc_lookahead=40 / rc=abr / mbtree=1 / bitrate=4496 / ratetol=1.0 / qcomp=0.60 / qpmin=10 / qpmax=51 / qpstep=4 / ip_ratio=1.41 / aq=1:1.00
Дата кодирования                         : UTC 2015-03-22 07:47:05
Дата пометки                             : UTC 2015-03-22 07:47:05

Аудио
Идентификатор                            : 2
Формат                                   : AAC
Формат/Информация                        : Advanced Audio Codec
Профиль формата                          : LC
Идентификатор кодека                     : 40
Продолжительность                        : 3 м. 4 с.
Duration_FirstFrame                      : 70 мс.
Вид битрейта                             : Переменный
Битрейт                                  : 151 Кбит/сек
Максимальный битрейт                     : 176 Кбит/сек
Каналы                                   : 2 канала
Расположение каналов                     : Front: L R
Частота                                  : 44,1 КГц
Метод сжатия                             : С потерями
Размер потока                            : 3,31 Мбайт (3%)
Дата кодирования                         : UTC 2015-03-22 07:47:05
Дата пометки                             : UTC 2015-03-22 07:47:05
Общее
Полное имя                               : E:\VA - Весенний марафон № 163 (Зарубежная Клиповсячина)\Lindsey Stirling - Take Flight (Official Video).mp4
Формат                                   : MPEG-4
Профиль формата                          : Base Media
Идентификатор кодека                     : isom
Размер файла                             : 171 Мбайт
Продолжительность                        : 5 м. 16 с.
Режим общего битрейта                    : Переменный
Общий поток                              : 4534 Кбит/сек
Дата кодирования                         : UTC 2015-03-22 23:07:02
Дата пометки                             : UTC 2015-03-22 23:07:02
Программа кодирования                    : Lavf54.63.104

Видео
Идентификатор                            : 1
Формат                                   : AVC
Формат/Информация                        : Advanced Video Codec
Профиль формата                          :
Параметр CABAC формата                   : Да
Параметр ReFrames формата                : 1 кадр
Идентификатор кодека                     : avc1
Идентификатор кодека/Информация          : Advanced Video Coding
Продолжительность                        : 5 м. 16 с.
Битрейт                                  : 4496 Кбит/сек
Ширина                                   : 1920 пикселей
Высота                                   : 1080 пикселей
Соотношение сторон                       : 16:9
Режим частоты кадров                     : Постоянный
Частота кадров                           : 25,000 кадров/сек
Цветовое пространство                    : YUV
Субдискретизация насыщенности            : 4:2:0
Битовая глубина                          : 8 бит
Тип развёртки                            : Прогрессивная
Бит/(Пиксели*Кадры)                      : 0.087
Размер потока                            : 165 Мбайт (97%)
Библиотека кодирования                   : x264 core 129
Настройки программы                      : cabac=1 / ref=1 / deblock=1:0:0 / analyse=0x1:0x131 / me=dia / subme=2 / psy=1 / psy_rd=1.00:0.00 / mixed_ref=0 / me_range=16 / chroma_me=1 / trellis=0 / 8x8dct=0 / cqm=0 / deadzone=21,11 / fast_pskip=1 / chroma_qp_offset=0 / threads=2 / lookahead_threads=1 / sliced_threads=0 / nr=0 / decimate=1 / interlaced=0 / bluray_compat=0 / constrained_intra=0 / bframes=0 / weightp=2 / keyint=250 / keyint_min=25 / scenecut=40 / intra_refresh=0 / rc_lookahead=40 / rc=abr / mbtree=1 / bitrate=4496 / ratetol=1.0 / qcomp=0.60 / qpmin=10 / qpmax=51 / qpstep=4 / ip_ratio=1.41 / aq=1:1.00
Дата кодирования                         : UTC 2015-03-22 23:07:02
Дата пометки                             : UTC 2015-03-22 23:07:02

Аудио
Идентификатор                            : 2
Формат                                   : AAC
Формат/Информация                        : Advanced Audio Codec
Профиль формата                          : LC
Идентификатор кодека                     : 40
Продолжительность                        : 5 м. 16 с.
Duration_FirstFrame                      : 70 мс.
Вид битрейта                             : Переменный
Битрейт                                  : 151 Кбит/сек
Максимальный битрейт                     : 176 Кбит/сек
Каналы                                   : 2 канала
Расположение каналов                     : Front: L R
Частота                                  : 44,1 КГц
Метод сжатия                             : С потерями
Размер потока                            : 5,70 Мбайт (3%)
Дата кодирования                         : UTC 2015-03-22 23:07:02
Дата пометки                             : UTC 2015-03-22 23:07:02
Общее
Полное имя                               : E:\VA - Весенний марафон № 163 (Зарубежная Клиповсячина)\Marcus Schossow ft. The Royalties Sthlm - Lionheart (Official Video).mp4
Формат                                   : MPEG-4
Профиль формата                          : Base Media
Идентификатор кодека                     : isom
Размер файла                             : 116 Мбайт
Продолжительность                        : 3 м. 35 с.
Режим общего битрейта                    : Переменный
Общий поток                              : 4521 Кбит/сек
Дата кодирования                         : UTC 2015-03-23 10:16:13
Дата пометки                             : UTC 2015-03-23 10:16:13
Программа кодирования                    : Lavf54.63.104

Видео
Идентификатор                            : 1
Формат                                   : AVC
Формат/Информация                        : Advanced Video Codec
Профиль формата                          :
Параметр CABAC формата                   : Да
Параметр ReFrames формата                : 1 кадр
Идентификатор кодека                     : avc1
Идентификатор кодека/Информация          : Advanced Video Coding
Продолжительность                        : 3 м. 35 с.
Битрейт                                  : 4496 Кбит/сек
Ширина                                   : 1920 пикселей
Высота                                   : 1080 пикселей
Соотношение сторон                       : 16:9
Режим частоты кадров                     : Постоянный
Частота кадров                           : 25,000 кадров/сек
Цветовое пространство                    : YUV
Субдискретизация насыщенности            : 4:2:0
Битовая глубина                          : 8 бит
Тип развёртки                            : Прогрессивная
Бит/(Пиксели*Кадры)                      : 0.087
Размер потока                            : 113 Мбайт (97%)
Библиотека кодирования                   : x264 core 129
Настройки программы                      : cabac=1 / ref=1 / deblock=1:0:0 / analyse=0x1:0x131 / me=dia / subme=2 / psy=1 / psy_rd=1.00:0.00 / mixed_ref=0 / me_range=16 / chroma_me=1 / trellis=0 / 8x8dct=0 / cqm=0 / deadzone=21,11 / fast_pskip=1 / chroma_qp_offset=0 / threads=2 / lookahead_threads=1 / sliced_threads=0 / nr=0 / decimate=1 / interlaced=0 / bluray_compat=0 / constrained_intra=0 / bframes=0 / weightp=2 / keyint=250 / keyint_min=25 / scenecut=40 / intra_refresh=0 / rc_lookahead=40 / rc=abr / mbtree=1 / bitrate=4496 / ratetol=1.0 / qcomp=0.60 / qpmin=10 / qpmax=51 / qpstep=4 / ip_ratio=1.41 / aq=1:1.00
Дата кодирования                         : UTC 2015-03-23 10:16:13
Дата пометки                             : UTC 2015-03-23 10:16:13

Аудио
Идентификатор                            : 2
Формат                                   : AAC
Формат/Информация                        : Advanced Audio Codec
Профиль формата                          : LC
Идентификатор кодека                     : 40
Продолжительность                        : 3 м. 35 с.
Duration_FirstFrame                      : 70 мс.
Вид битрейта                             : Переменный
Битрейт                                  : 111 Кбит/сек
Максимальный битрейт                     : 176 Кбит/сек
Каналы                                   : 2 канала
Расположение каналов                     : Front: L R
Частота                                  : 44,1 КГц
Метод сжатия                             : С потерями
Размер потока                            : 2,86 Мбайт (2%)
Дата кодирования                         : UTC 2015-03-23 10:16:13
Дата пометки                             : UTC 2015-03-23 10:16:13
Общее
Полное имя                               : E:\VA - Весенний марафон № 163 (Зарубежная Клиповсячина)\Martin Garrix ft. Usher - Don't Look Down (Official Video).mp4
Формат                                   : MPEG-4
Профиль формата                          : Base Media
Идентификатор кодека                     : isom
Размер файла                             : 133 Мбайт
Продолжительность                        : 3 м. 53 с.
Режим общего битрейта                    : Переменный
Общий поток                              : 4789 Кбит/сек
Дата кодирования                         : UTC 2015-03-22 23:03:06
Дата пометки                             : UTC 2015-03-22 23:03:06
Программа кодирования                    : Lavf54.63.104

Видео
Идентификатор                            : 1
Формат                                   : AVC
Формат/Информация                        : Advanced Video Codec
Профиль формата                          :
Параметр CABAC формата                   : Да
Параметр ReFrames формата                : 1 кадр
Идентификатор кодека                     : avc1
Идентификатор кодека/Информация          : Advanced Video Coding
Продолжительность                        : 3 м. 53 с.
Битрейт                                  : 4496 Кбит/сек
Ширина                                   : 1920 пикселей
Высота                                   : 1080 пикселей
Соотношение сторон                       : 16:9
Режим частоты кадров                     : Постоянный
Частота кадров                           : 25,000 кадров/сек
Цветовое пространство                    : YUV
Субдискретизация насыщенности            : 4:2:0
Битовая глубина                          : 8 бит
Тип развёртки                            : Прогрессивная
Бит/(Пиксели*Кадры)                      : 0.087
Размер потока                            : 129 Мбайт (97%)
Библиотека кодирования                   : x264 core 129
Настройки программы                      : cabac=1 / ref=1 / deblock=1:0:0 / analyse=0x1:0x131 / me=dia / subme=2 / psy=1 / psy_rd=1.00:0.00 / mixed_ref=0 / me_range=16 / chroma_me=1 / trellis=0 / 8x8dct=0 / cqm=0 / deadzone=21,11 / fast_pskip=1 / chroma_qp_offset=0 / threads=2 / lookahead_threads=1 / sliced_threads=0 / nr=0 / decimate=1 / interlaced=0 / bluray_compat=0 / constrained_intra=0 / bframes=0 / weightp=2 / keyint=250 / keyint_min=25 / scenecut=40 / intra_refresh=0 / rc_lookahead=40 / rc=abr / mbtree=1 / bitrate=4496 / ratetol=1.0 / qcomp=0.60 / qpmin=10 / qpmax=51 / qpstep=4 / ip_ratio=1.41 / aq=1:1.00
Дата кодирования                         : UTC 2015-03-22 23:03:06
Дата пометки                             : UTC 2015-03-22 23:03:06

Аудио
Идентификатор                            : 2
Формат                                   : AAC
Формат/Информация                        : Advanced Audio Codec
Профиль формата                          : LC
Идентификатор кодека                     : 40
Продолжительность                        : 3 м. 53 с.
Duration_FirstFrame                      : 70 мс.
Вид битрейта                             : Переменный
Битрейт                                  : 151 Кбит/сек
Максимальный битрейт                     : 176 Кбит/сек
Каналы                                   : 2 канала
Расположение каналов                     : Front: L R
Частота                                  : 44,1 КГц
Метод сжатия                             : С потерями
Размер потока                            : 4,21 Мбайт (3%)
Дата кодирования                         : UTC 2015-03-22 23:03:06
Дата пометки                             : UTC 2015-03-22 23:03:06
Общее
Полное имя                               : E:\VA - Весенний марафон № 163 (Зарубежная Клиповсячина)\Melanie C - I Turn To You (Hex Hector Club Mix).mp4
Формат                                   : MPEG-4
Профиль формата                          : Base Media
Идентификатор кодека                     : isom
Размер файла                             : 137 Мбайт
Продолжительность                        : 4 м. 11 с.
Режим общего битрейта                    : Переменный
Общий поток                              : 4568 Кбит/сек
Дата кодирования                         : UTC 2014-11-27 21:45:32
Дата пометки                             : UTC 2014-11-27 21:45:32
Программа кодирования                    : Lavf54.63.104

Видео
Идентификатор                            : 1
Формат                                   : AVC
Формат/Информация                        : Advanced Video Codec
Профиль формата                          :
Параметр CABAC формата                   : Да
Параметр ReFrames формата                : 1 кадр
Идентификатор кодека                     : avc1
Идентификатор кодека/Информация          : Advanced Video Coding
Продолжительность                        : 4 м. 11 с.
Битрейт                                  : 4496 Кбит/сек
Ширина                                   : 1920 пикселей
Высота                                   : 1080 пикселей
Соотношение сторон                       : 16:9
Режим частоты кадров                     : Постоянный
Частота кадров                           : 25,000 кадров/сек
Цветовое пространство                    : YUV
Субдискретизация насыщенности            : 4:2:0
Битовая глубина                          : 8 бит
Тип развёртки                            : Прогрессивная
Бит/(Пиксели*Кадры)                      : 0.087
Размер потока                            : 132 Мбайт (97%)
Библиотека кодирования                   : x264 core 129
Настройки программы                      : cabac=1 / ref=1 / deblock=1:0:0 / analyse=0x1:0x131 / me=dia / subme=2 / psy=1 / psy_rd=1.00:0.00 / mixed_ref=0 / me_range=16 / chroma_me=1 / trellis=0 / 8x8dct=0 / cqm=0 / deadzone=21,11 / fast_pskip=1 / chroma_qp_offset=0 / threads=2 / lookahead_threads=1 / sliced_threads=0 / nr=0 / decimate=1 / interlaced=0 / bluray_compat=0 / constrained_intra=0 / bframes=0 / weightp=2 / keyint=250 / keyint_min=25 / scenecut=40 / intra_refresh=0 / rc_lookahead=40 / rc=abr / mbtree=1 / bitrate=4496 / ratetol=1.0 / qcomp=0.60 / qpmin=10 / qpmax=51 / qpstep=4 / ip_ratio=1.41 / aq=1:1.00
Дата кодирования                         : UTC 2014-11-27 21:45:32
Дата пометки                             : UTC 2014-11-27 21:45:32

Аудио
Идентификатор                            : 2
Формат                                   : AAC
Формат/Информация                        : Advanced Audio Codec
Профиль формата                          : LC
Идентификатор кодека                     : 40
Продолжительность                        : 4 м. 11 с.
Duration_FirstFrame                      : 70 мс.
Вид битрейта                             : Переменный
Битрейт                                  : 152 Кбит/сек
Максимальный битрейт                     : 176 Кбит/сек
Каналы                                   : 2 канала
Расположение каналов                     : Front: L R
Частота                                  : 44,1 КГц
Метод сжатия                             : С потерями
Размер потока                            : 4,56 Мбайт (3%)
Дата кодирования                         : UTC 2014-11-27 21:45:32
Дата пометки                             : UTC 2014-11-27 21:45:32
Общее
Полное имя                               : E:\VA - Весенний марафон № 163 (Зарубежная Клиповсячина)\Michael Patrick Kelly - Shake Away (Official Video).mp4
Формат                                   : MPEG-4
Профиль формата                          : Base Media
Идентификатор кодека                     : isom
Размер файла                             : 115 Мбайт
Продолжительность                        : 3 м. 33 с.
Режим общего битрейта                    : Переменный
Общий поток                              : 4525 Кбит/сек
Дата кодирования                         : UTC 2015-03-27 12:43:42
Дата пометки                             : UTC 2015-03-27 12:43:42
Программа кодирования                    : Lavf54.63.104

Видео
Идентификатор                            : 1
Формат                                   : AVC
Формат/Информация                        : Advanced Video Codec
Профиль формата                          :
Параметр CABAC формата                   : Да
Параметр ReFrames формата                : 1 кадр
Идентификатор кодека                     : avc1
Идентификатор кодека/Информация          : Advanced Video Coding
Продолжительность                        : 3 м. 33 с.
Битрейт                                  : 4496 Кбит/сек
Ширина                                   : 1920 пикселей
Высота                                   : 1080 пикселей
Соотношение сторон                       : 16:9
Режим частоты кадров                     : Постоянный
Частота кадров                           : 25,000 кадров/сек
Цветовое пространство                    : YUV
Субдискретизация насыщенности            : 4:2:0
Битовая глубина                          : 8 бит
Тип развёртки                            : Прогрессивная
Бит/(Пиксели*Кадры)                      : 0.087
Размер потока                            : 111 Мбайт (97%)
Библиотека кодирования                   : x264 core 129
Настройки программы                      : cabac=1 / ref=1 / deblock=1:0:0 / analyse=0x1:0x131 / me=dia / subme=2 / psy=1 / psy_rd=1.00:0.00 / mixed_ref=0 / me_range=16 / chroma_me=1 / trellis=0 / 8x8dct=0 / cqm=0 / deadzone=21,11 / fast_pskip=1 / chroma_qp_offset=0 / threads=2 / lookahead_threads=1 / sliced_threads=0 / nr=0 / decimate=1 / interlaced=0 / bluray_compat=0 / constrained_intra=0 / bframes=0 / weightp=2 / keyint=250 / keyint_min=25 / scenecut=40 / intra_refresh=0 / rc_lookahead=40 / rc=abr / mbtree=1 / bitrate=4496 / ratetol=1.0 / qcomp=0.60 / qpmin=10 / qpmax=51 / qpstep=4 / ip_ratio=1.41 / aq=1:1.00
Дата кодирования                         : UTC 2015-03-27 12:43:42
Дата пометки                             : UTC 2015-03-27 12:43:42

Аудио
Идентификатор                            : 2
Формат                                   : AAC
Формат/Информация                        : Advanced Audio Codec
Профиль формата                          : LC
Идентификатор кодека                     : 40
Продолжительность                        : 3 м. 33 с.
Duration_FirstFrame                      : 70 мс.
Вид битрейта                             : Переменный
Битрейт                                  : 152 Кбит/сек
Максимальный битрейт                     : 176 Кбит/сек
Каналы                                   : 2 канала
Расположение каналов                     : Front: L R
Частота                                  : 44,1 КГц
Метод сжатия                             : С потерями
Размер потока                            : 3,86 Мбайт (3%)
Дата кодирования                         : UTC 2015-03-27 12:43:42
Дата пометки                             : UTC 2015-03-27 12:43:42
Общее
Полное имя                               : E:\VA - Весенний марафон № 163 (Зарубежная Клиповсячина)\Nicky Jam ft. Enrique Iglesias - El Perdon (Official Video).MP4
Формат                                   : MPEG-4
Профиль формата                          : Base Media
Идентификатор кодека                     : isom
Размер файла                             : 61,7 Мбайт
Продолжительность                        : 3 м. 52 с.
Режим общего битрейта                    : Переменный
Общий поток                              : 2223 Кбит/сек
Дата кодирования                         : UTC 2015-03-21 00:59:08
Дата пометки                             : UTC 2015-03-21 00:59:08

Видео
Идентификатор                            : 1
Формат                                   : AVC
Формат/Информация                        : Advanced Video Codec
Профиль формата                          :
Параметр CABAC формата                   : Да
Параметр ReFrames формата                : 3 кадра
Идентификатор кодека                     : avc1
Идентификатор кодека/Информация          : Advanced Video Coding
Продолжительность                        : 3 м. 52 с.
Битрейт                                  : 2094 Кбит/сек
Ширина                                   : 1920 пикселей
Высота                                   : 1080 пикселей
Соотношение сторон                       : 16:9
Режим частоты кадров                     : Переменный
Частота кадров                           : 23,976 кадра/сек
Минимальная частота кадров               : 23,974 кадра/сек
Максимальная частота кадров              : 23,981 кадра/сек
Цветовое пространство                    : YUV
Субдискретизация насыщенности            : 4:2:0
Битовая глубина                          : 8 бит
Тип развёртки                            : Прогрессивная
Бит/(Пиксели*Кадры)                      : 0.042
Размер потока                            : 58,1 Мбайт (94%)
Дата кодирования                         : UTC 2015-03-21 00:59:08
Дата пометки                             : UTC 2015-03-21 00:59:08

Аудио
Идентификатор                            : 2
Формат                                   : AAC
Формат/Информация                        : Advanced Audio Codec
Профиль формата                          : LC
Идентификатор кодека                     : 40
Продолжительность                        : 3 м. 52 с.
Вид битрейта                             : Переменный
Битрейт                                  : 126 Кбит/сек
Каналы                                   : 2 канала
Расположение каналов                     : Front: L R
Частота                                  : 44,1 КГц
Метод сжатия                             : С потерями
Размер потока                            : 3,49 Мбайт (6%)
Дата кодирования                         : UTC 2015-03-21 00:54:01
Дата пометки                             : UTC 2015-03-21 00:54:01
Общее
Полное имя                               : E:\VA - Весенний марафон № 163 (Зарубежная Клиповсячина)\Nikki Kavanagh - Memories (Official Video).mp4
Формат                                   : MPEG-4
Профиль формата                          : Base Media
Идентификатор кодека                     : isom
Размер файла                             : 103 Мбайт
Продолжительность                        : 3 м. 5 с.
Режим общего битрейта                    : Переменный
Общий поток                              : 4651 Кбит/сек
Дата кодирования                         : UTC 2015-02-27 07:32:26
Дата пометки                             : UTC 2015-02-27 07:32:26
Программа кодирования                    : Lavf54.63.104

Видео
Идентификатор                            : 1
Формат                                   : AVC
Формат/Информация                        : Advanced Video Codec
Профиль формата                          :
Параметр CABAC формата                   : Да
Параметр ReFrames формата                : 1 кадр
Идентификатор кодека                     : avc1
Идентификатор кодека/Информация          : Advanced Video Coding
Продолжительность                        : 3 м. 5 с.
Битрейт                                  : 4496 Кбит/сек
Ширина                                   : 1920 пикселей
Высота                                   : 1080 пикселей
Соотношение сторон                       : 16:9
Режим частоты кадров                     : Постоянный
Частота кадров                           : 25,000 кадров/сек
Цветовое пространство                    : YUV
Субдискретизация насыщенности            : 4:2:0
Битовая глубина                          : 8 бит
Тип развёртки                            : Прогрессивная
Бит/(Пиксели*Кадры)                      : 0.087
Размер потока                            : 99,1 Мбайт (97%)
Библиотека кодирования                   : x264 core 129
Настройки программы                      : cabac=1 / ref=1 / deblock=1:0:0 / analyse=0x1:0x131 / me=dia / subme=2 / psy=1 / psy_rd=1.00:0.00 / mixed_ref=0 / me_range=16 / chroma_me=1 / trellis=0 / 8x8dct=0 / cqm=0 / deadzone=21,11 / fast_pskip=1 / chroma_qp_offset=0 / threads=2 / lookahead_threads=1 / sliced_threads=0 / nr=0 / decimate=1 / interlaced=0 / bluray_compat=0 / constrained_intra=0 / bframes=0 / weightp=2 / keyint=250 / keyint_min=25 / scenecut=40 / intra_refresh=0 / rc_lookahead=40 / rc=abr / mbtree=1 / bitrate=4496 / ratetol=1.0 / qcomp=0.60 / qpmin=10 / qpmax=51 / qpstep=4 / ip_ratio=1.41 / aq=1:1.00
Дата кодирования                         : UTC 2015-02-27 07:32:26
Дата пометки                             : UTC 2015-02-27 07:32:26

Аудио
Идентификатор                            : 2
Формат                                   : AAC
Формат/Информация                        : Advanced Audio Codec
Профиль формата                          : LC
Идентификатор кодека                     : 40
Продолжительность                        : 3 м. 5 с.
Duration_FirstFrame                      : 70 мс.
Вид битрейта                             : Переменный
Битрейт                                  : 152 Кбит/сек
Максимальный битрейт                     : 176 Кбит/сек
Каналы                                   : 2 канала
Расположение каналов                     : Front: L R
Частота                                  : 44,1 КГц
Метод сжатия                             : С потерями
Размер потока                            : 3,35 Мбайт (3%)
Дата кодирования                         : UTC 2015-02-27 07:32:26
Дата пометки                             : UTC 2015-02-27 07:32:26
Общее
Полное имя                               : E:\VA - Весенний марафон № 163 (Зарубежная Клиповсячина)\Noa Neal - Graffiti (Official Video).mp4
Формат                                   : MPEG-4
Профиль формата                          : Base Media
Идентификатор кодека                     : isom
Размер файла                             : 105 Мбайт
Продолжительность                        : 3 м. 5 с.
Режим общего битрейта                    : Переменный
Общий поток                              : 4734 Кбит/сек
Дата кодирования                         : UTC 2015-03-24 10:30:15
Дата пометки                             : UTC 2015-03-24 10:30:15
Программа кодирования                    : Lavf54.63.104

Видео
Идентификатор                            : 1
Формат                                   : AVC
Формат/Информация                        : Advanced Video Codec
Профиль формата                          :
Параметр CABAC формата                   : Да
Параметр ReFrames формата                : 1 кадр
Идентификатор кодека                     : avc1
Идентификатор кодека/Информация          : Advanced Video Coding
Продолжительность                        : 3 м. 5 с.
Битрейт                                  : 4496 Кбит/сек
Ширина                                   : 1920 пикселей
Высота                                   : 1080 пикселей
Соотношение сторон                       : 16:9
Режим частоты кадров                     : Постоянный
Частота кадров                           : 25,000 кадров/сек
Цветовое пространство                    : YUV
Субдискретизация насыщенности            : 4:2:0
Битовая глубина                          : 8 бит
Тип развёртки                            : Прогрессивная
Бит/(Пиксели*Кадры)                      : 0.087
Размер потока                            : 101 Мбайт (97%)
Библиотека кодирования                   : x264 core 129
Настройки программы                      : cabac=1 / ref=1 / deblock=1:0:0 / analyse=0x1:0x131 / me=dia / subme=2 / psy=1 / psy_rd=1.00:0.00 / mixed_ref=0 / me_range=16 / chroma_me=1 / trellis=0 / 8x8dct=0 / cqm=0 / deadzone=21,11 / fast_pskip=1 / chroma_qp_offset=0 / threads=2 / lookahead_threads=1 / sliced_threads=0 / nr=0 / decimate=1 / interlaced=0 / bluray_compat=0 / constrained_intra=0 / bframes=0 / weightp=2 / keyint=250 / keyint_min=25 / scenecut=40 / intra_refresh=0 / rc_lookahead=40 / rc=abr / mbtree=1 / bitrate=4496 / ratetol=1.0 / qcomp=0.60 / qpmin=10 / qpmax=51 / qpstep=4 / ip_ratio=1.41 / aq=1:1.00
Дата кодирования                         : UTC 2015-03-24 10:30:15
Дата пометки                             : UTC 2015-03-24 10:30:15

Аудио
Идентификатор                            : 2
Формат                                   : AAC
Формат/Информация                        : Advanced Audio Codec
Профиль формата                          : LC
Идентификатор кодека                     : 40
Продолжительность                        : 3 м. 5 с.
Duration_FirstFrame                      : 70 мс.
Вид битрейта                             : Переменный
Битрейт                                  : 151 Кбит/сек
Максимальный битрейт                     : 176 Кбит/сек
Каналы                                   : 2 канала
Расположение каналов                     : Front: L R
Частота                                  : 44,1 КГц
Метод сжатия                             : С потерями
Размер потока                            : 3,35 Мбайт (3%)
Дата кодирования                         : UTC 2015-03-24 10:30:15
Дата пометки                             : UTC 2015-03-24 10:30:15
Общее
Полное имя                               : E:\VA - Весенний марафон № 163 (Зарубежная Клиповсячина)\R.I.O. - Thinking Of You (Official Video).mp4
Формат                                   : MPEG-4
Профиль формата                          : Base Media
Идентификатор кодека                     : isom
Размер файла                             : 115 Мбайт
Продолжительность                        : 3 м. 30 с.
Режим общего битрейта                    : Переменный
Общий поток                              : 4598 Кбит/сек
Дата кодирования                         : UTC 2015-03-27 15:31:06
Дата пометки                             : UTC 2015-03-27 15:31:06
Программа кодирования                    : Lavf54.63.104

Видео
Идентификатор                            : 1
Формат                                   : AVC
Формат/Информация                        : Advanced Video Codec
Профиль формата                          :
Параметр CABAC формата                   : Да
Параметр ReFrames формата                : 1 кадр
Идентификатор кодека                     : avc1
Идентификатор кодека/Информация          : Advanced Video Coding
Продолжительность                        : 3 м. 30 с.
Битрейт                                  : 4496 Кбит/сек
Ширина                                   : 1920 пикселей
Высота                                   : 1080 пикселей
Соотношение сторон                       : 16:9
Режим частоты кадров                     : Постоянный
Частота кадров                           : 25,000 кадров/сек
Цветовое пространство                    : YUV
Субдискретизация насыщенности            : 4:2:0
Битовая глубина                          : 8 бит
Тип развёртки                            : Прогрессивная
Бит/(Пиксели*Кадры)                      : 0.087
Размер потока                            : 111 Мбайт (97%)
Библиотека кодирования                   : x264 core 129
Настройки программы                      : cabac=1 / ref=1 / deblock=1:0:0 / analyse=0x1:0x131 / me=dia / subme=2 / psy=1 / psy_rd=1.00:0.00 / mixed_ref=0 / me_range=16 / chroma_me=1 / trellis=0 / 8x8dct=0 / cqm=0 / deadzone=21,11 / fast_pskip=1 / chroma_qp_offset=0 / threads=2 / lookahead_threads=1 / sliced_threads=0 / nr=0 / decimate=1 / interlaced=0 / bluray_compat=0 / constrained_intra=0 / bframes=0 / weightp=2 / keyint=250 / keyint_min=25 / scenecut=40 / intra_refresh=0 / rc_lookahead=40 / rc=abr / mbtree=1 / bitrate=4496 / ratetol=1.0 / qcomp=0.60 / qpmin=10 / qpmax=51 / qpstep=4 / ip_ratio=1.41 / aq=1:1.00
Дата кодирования                         : UTC 2015-03-27 15:31:06
Дата пометки                             : UTC 2015-03-27 15:31:06

Аудио
Идентификатор                            : 2
Формат                                   : AAC
Формат/Информация                        : Advanced Audio Codec
Профиль формата                          : LC
Идентификатор кодека                     : 40
Продолжительность                        : 3 м. 30 с.
Duration_FirstFrame                      : 70 мс.
Вид битрейта                             : Переменный
Битрейт                                  : 152 Кбит/сек
Максимальный битрейт                     : 176 Кбит/сек
Каналы                                   : 2 канала
Расположение каналов                     : Front: L R
Частота                                  : 44,1 КГц
Метод сжатия                             : С потерями
Размер потока                            : 3,80 Мбайт (3%)
Дата кодирования                         : UTC 2015-03-27 15:31:06
Дата пометки                             : UTC 2015-03-27 15:31:06
Общее
Полное имя                               : E:\VA - Весенний марафон № 163 (Зарубежная Клиповсячина)\Shahzoda - Mon Cheri (Official Video).mp4
Формат                                   : MPEG-4
Профиль формата                          : Base Media
Идентификатор кодека                     : isom
Размер файла                             : 123 Мбайт
Продолжительность                        : 3 м. 35 с.
Режим общего битрейта                    : Переменный
Общий поток                              : 4792 Кбит/сек
Программа кодирования                    : Lavf54.63.104

Видео
Идентификатор                            : 1
Формат                                   : AVC
Формат/Информация                        : Advanced Video Codec
Профиль формата                          :
Параметр CABAC формата                   : Да
Параметр ReFrames формата                : 1 кадр
Идентификатор кодека                     : avc1
Идентификатор кодека/Информация          : Advanced Video Coding
Продолжительность                        : 3 м. 35 с.
Битрейт                                  : 4496 Кбит/сек
Ширина                                   : 1920 пикселей
Высота                                   : 1080 пикселей
Соотношение сторон                       : 16:9
Режим частоты кадров                     : Постоянный
Частота кадров                           : 25,000 кадров/сек
Цветовое пространство                    : YUV
Субдискретизация насыщенности            : 4:2:0
Битовая глубина                          : 8 бит
Тип развёртки                            : Прогрессивная
Бит/(Пиксели*Кадры)                      : 0.087
Размер потока                            : 119 Мбайт (97%)
Библиотека кодирования                   : x264 core 129
Настройки программы                      : cabac=1 / ref=1 / deblock=1:0:0 / analyse=0x1:0x131 / me=dia / subme=2 / psy=1 / psy_rd=1.00:0.00 / mixed_ref=0 / me_range=16 / chroma_me=1 / trellis=0 / 8x8dct=0 / cqm=0 / deadzone=21,11 / fast_pskip=1 / chroma_qp_offset=0 / threads=2 / lookahead_threads=1 / sliced_threads=0 / nr=0 / decimate=1 / interlaced=0 / bluray_compat=0 / constrained_intra=0 / bframes=0 / weightp=2 / keyint=250 / keyint_min=25 / scenecut=40 / intra_refresh=0 / rc_lookahead=40 / rc=abr / mbtree=1 / bitrate=4496 / ratetol=1.0 / qcomp=0.60 / qpmin=10 / qpmax=51 / qpstep=4 / ip_ratio=1.41 / aq=1:1.00

Аудио
Идентификатор                            : 2
Формат                                   : AAC
Формат/Информация                        : Advanced Audio Codec
Профиль формата                          : LC
Идентификатор кодека                     : 40
Продолжительность                        : 3 м. 35 с.
Duration_FirstFrame                      : 70 мс.
Вид битрейта                             : Переменный
Битрейт                                  : 152 Кбит/сек
Максимальный битрейт                     : 176 Кбит/сек
Каналы                                   : 2 канала
Расположение каналов                     : Front: L R
Частота                                  : 44,1 КГц
Метод сжатия                             : С потерями
Размер потока                            : 3,91 Мбайт (3%)
Общее
Полное имя                               : E:\VA - Весенний марафон № 163 (Зарубежная Клиповсячина)\Shayne Ward - My Heart Would Take You Back (Official Video).mp4
Формат                                   : MPEG-4
Профиль формата                          : Base Media
Идентификатор кодека                     : isom
Размер файла                             : 119 Мбайт
Продолжительность                        : 3 м. 36 с.
Режим общего битрейта                    : Переменный
Общий поток                              : 4602 Кбит/сек
Дата кодирования                         : UTC 2015-03-25 16:59:16
Дата пометки                             : UTC 2015-03-25 16:59:16
Программа кодирования                    : Lavf54.63.104

Видео
Идентификатор                            : 1
Формат                                   : AVC
Формат/Информация                        : Advanced Video Codec
Профиль формата                          :
Параметр CABAC формата                   : Да
Параметр ReFrames формата                : 1 кадр
Идентификатор кодека                     : avc1
Идентификатор кодека/Информация          : Advanced Video Coding
Продолжительность                        : 3 м. 36 с.
Битрейт                                  : 4496 Кбит/сек
Ширина                                   : 1920 пикселей
Высота                                   : 1080 пикселей
Соотношение сторон                       : 16:9
Режим частоты кадров                     : Постоянный
Частота кадров                           : 25,000 кадров/сек
Цветовое пространство                    : YUV
Субдискретизация насыщенности            : 4:2:0
Битовая глубина                          : 8 бит
Тип развёртки                            : Прогрессивная
Бит/(Пиксели*Кадры)                      : 0.087
Размер потока                            : 115 Мбайт (97%)
Библиотека кодирования                   : x264 core 129
Настройки программы                      : cabac=1 / ref=1 / deblock=1:0:0 / analyse=0x1:0x131 / me=dia / subme=2 / psy=1 / psy_rd=1.00:0.00 / mixed_ref=0 / me_range=16 / chroma_me=1 / trellis=0 / 8x8dct=0 / cqm=0 / deadzone=21,11 / fast_pskip=1 / chroma_qp_offset=0 / threads=2 / lookahead_threads=1 / sliced_threads=0 / nr=0 / decimate=1 / interlaced=0 / bluray_compat=0 / constrained_intra=0 / bframes=0 / weightp=2 / keyint=250 / keyint_min=25 / scenecut=40 / intra_refresh=0 / rc_lookahead=40 / rc=abr / mbtree=1 / bitrate=4496 / ratetol=1.0 / qcomp=0.60 / qpmin=10 / qpmax=51 / qpstep=4 / ip_ratio=1.41 / aq=1:1.00
Дата кодирования                         : UTC 2015-03-25 16:59:16
Дата пометки                             : UTC 2015-03-25 16:59:16

Аудио
Идентификатор                            : 2
Формат                                   : AAC
Формат/Информация                        : Advanced Audio Codec
Профиль формата                          : LC
Идентификатор кодека                     : 40
Продолжительность                        : 3 м. 36 с.
Duration_FirstFrame                      : 70 мс.
Вид битрейта                             : Переменный
Битрейт                                  : 147 Кбит/сек
Максимальный битрейт                     : 176 Кбит/сек
Каналы                                   : 2 канала
Расположение каналов                     : Front: L R
Частота                                  : 44,1 КГц
Метод сжатия                             : С потерями
Размер потока                            : 3,79 Мбайт (3%)
Дата кодирования                         : UTC 2015-03-25 16:59:16
Дата пометки                             : UTC 2015-03-25 16:59:16
Общее
Полное имя                               : E:\VA - Весенний марафон № 163 (Зарубежная Клиповсячина)\Sonny Flame -  All We Had Is Gone (Official Video).mp4
Формат                                   : MPEG-4
Профиль формата                          : Base Media
Идентификатор кодека                     : isom
Размер файла                             : 111 Мбайт
Продолжительность                        : 3 м. 22 с.
Режим общего битрейта                    : Переменный
Общий поток                              : 4604 Кбит/сек
Дата кодирования                         : UTC 2015-03-26 19:01:18
Дата пометки                             : UTC 2015-03-26 19:01:18
Программа кодирования                    : Lavf54.63.104

Видео
Идентификатор                            : 1
Формат                                   : AVC
Формат/Информация                        : Advanced Video Codec
Профиль формата                          :
Параметр CABAC формата                   : Да
Параметр ReFrames формата                : 1 кадр
Идентификатор кодека                     : avc1
Идентификатор кодека/Информация          : Advanced Video Coding
Продолжительность                        : 3 м. 22 с.
Битрейт                                  : 4496 Кбит/сек
Ширина                                   : 1920 пикселей
Высота                                   : 1080 пикселей
Соотношение сторон                       : 16:9
Режим частоты кадров                     : Постоянный
Частота кадров                           : 25,000 кадров/сек
Цветовое пространство                    : YUV
Субдискретизация насыщенности            : 4:2:0
Битовая глубина                          : 8 бит
Тип развёртки                            : Прогрессивная
Бит/(Пиксели*Кадры)                      : 0.087
Размер потока                            : 107 Мбайт (97%)
Библиотека кодирования                   : x264 core 129
Настройки программы                      : cabac=1 / ref=1 / deblock=1:0:0 / analyse=0x1:0x131 / me=dia / subme=2 / psy=1 / psy_rd=1.00:0.00 / mixed_ref=0 / me_range=16 / chroma_me=1 / trellis=0 / 8x8dct=0 / cqm=0 / deadzone=21,11 / fast_pskip=1 / chroma_qp_offset=0 / threads=2 / lookahead_threads=1 / sliced_threads=0 / nr=0 / decimate=1 / interlaced=0 / bluray_compat=0 / constrained_intra=0 / bframes=0 / weightp=2 / keyint=250 / keyint_min=25 / scenecut=40 / intra_refresh=0 / rc_lookahead=40 / rc=abr / mbtree=1 / bitrate=4496 / ratetol=1.0 / qcomp=0.60 / qpmin=10 / qpmax=51 / qpstep=4 / ip_ratio=1.41 / aq=1:1.00
Дата кодирования                         : UTC 2015-03-26 19:01:18
Дата пометки                             : UTC 2015-03-26 19:01:18

Аудио
Идентификатор                            : 2
Формат                                   : AAC
Формат/Информация                        : Advanced Audio Codec
Профиль формата                          : LC
Идентификатор кодека                     : 40
Продолжительность                        : 3 м. 22 с.
Duration_FirstFrame                      : 70 мс.
Вид битрейта                             : Переменный
Битрейт                                  : 152 Кбит/сек
Максимальный битрейт                     : 176 Кбит/сек
Каналы                                   : 2 канала
Расположение каналов                     : Front: L R
Частота                                  : 44,1 КГц
Метод сжатия                             : С потерями
Размер потока                            : 3,66 Мбайт (3%)
Дата кодирования                         : UTC 2015-03-26 19:01:18
Дата пометки                             : UTC 2015-03-26 19:01:18
Общее
Полное имя                               : E:\VA - Весенний марафон № 163 (Зарубежная Клиповсячина)\Take That - Let In The Sun (Official Video).mp4
Формат                                   : MPEG-4
Профиль формата                          : Base Media
Идентификатор кодека                     : isom
Размер файла                             : 125 Мбайт
Продолжительность                        : 3 м. 42 с.
Режим общего битрейта                    : Переменный
Общий поток                              : 4707 Кбит/сек
Программа кодирования                    : Lavf54.63.104

Видео
Идентификатор                            : 1
Формат                                   : AVC
Формат/Информация                        : Advanced Video Codec
Профиль формата                          :
Параметр CABAC формата                   : Да
Параметр ReFrames формата                : 1 кадр
Идентификатор кодека                     : avc1
Идентификатор кодека/Информация          : Advanced Video Coding
Продолжительность                        : 3 м. 42 с.
Duration_FirstFrame                      : 40 мс.
Битрейт                                  : 4496 Кбит/сек
Ширина                                   : 1920 пикселей
Высота                                   : 1080 пикселей
Соотношение сторон                       : 16:9
Режим частоты кадров                     : Постоянный
Частота кадров                           : 25,000 кадров/сек
Цветовое пространство                    : YUV
Субдискретизация насыщенности            : 4:2:0
Битовая глубина                          : 8 бит
Тип развёртки                            : Прогрессивная
Бит/(Пиксели*Кадры)                      : 0.087
Размер потока                            : 121 Мбайт (97%)
Библиотека кодирования                   : x264 core 129
Настройки программы                      : cabac=1 / ref=1 / deblock=1:0:0 / analyse=0x1:0x131 / me=dia / subme=2 / psy=1 / psy_rd=1.00:0.00 / mixed_ref=0 / me_range=16 / chroma_me=1 / trellis=0 / 8x8dct=0 / cqm=0 / deadzone=21,11 / fast_pskip=1 / chroma_qp_offset=0 / threads=2 / lookahead_threads=1 / sliced_threads=0 / nr=0 / decimate=1 / interlaced=0 / bluray_compat=0 / constrained_intra=0 / bframes=0 / weightp=2 / keyint=250 / keyint_min=25 / scenecut=40 / intra_refresh=0 / rc_lookahead=40 / rc=abr / mbtree=1 / bitrate=4496 / ratetol=1.0 / qcomp=0.60 / qpmin=10 / qpmax=51 / qpstep=4 / ip_ratio=1.41 / aq=1:1.00

Аудио
Идентификатор                            : 2
Формат                                   : AAC
Формат/Информация                        : Advanced Audio Codec
Профиль формата                          : LC
Идентификатор кодека                     : 40
Продолжительность                        : 3 м. 42 с.
Duration_FirstFrame                      : 70 мс.
Вид битрейта                             : Переменный
Битрейт                                  : 150 Кбит/сек
Максимальный битрейт                     : 176 Кбит/сек
Каналы                                   : 2 канала
Расположение каналов                     : Front: L R
Частота                                  : 44,1 КГц
Метод сжатия                             : С потерями
Размер потока                            : 3,99 Мбайт (3%)
Общее
Полное имя                               : E:\VA - Весенний марафон № 163 (Зарубежная Клиповсячина)\Wilkinson ft. Thabo - Hopelessly Coping (Official Video).mp4
Формат                                   : MPEG-4
Профиль формата                          : Base Media
Идентификатор кодека                     : isom
Размер файла                             : 129 Мбайт
Продолжительность                        : 3 м. 59 с.
Режим общего битрейта                    : Переменный
Общий поток                              : 4520 Кбит/сек
Дата кодирования                         : UTC 2015-03-19 14:34:27
Дата пометки                             : UTC 2015-03-19 14:34:27
Программа кодирования                    : Lavf54.63.104

Видео
Идентификатор                            : 1
Формат                                   : AVC
Формат/Информация                        : Advanced Video Codec
Профиль формата                          :
Параметр CABAC формата                   : Да
Параметр ReFrames формата                : 1 кадр
Идентификатор кодека                     : avc1
Идентификатор кодека/Информация          : Advanced Video Coding
Продолжительность                        : 3 м. 59 с.
Битрейт                                  : 4496 Кбит/сек
Ширина                                   : 1920 пикселей
Высота                                   : 1080 пикселей
Соотношение сторон                       : 16:9
Режим частоты кадров                     : Постоянный
Частота кадров                           : 25,000 кадров/сек
Цветовое пространство                    : YUV
Субдискретизация насыщенности            : 4:2:0
Битовая глубина                          : 8 бит
Тип развёртки                            : Прогрессивная
Бит/(Пиксели*Кадры)                      : 0.087
Размер потока                            : 125 Мбайт (97%)
Библиотека кодирования                   : x264 core 129
Настройки программы                      : cabac=1 / ref=1 / deblock=1:0:0 / analyse=0x1:0x131 / me=dia / subme=2 / psy=1 / psy_rd=1.00:0.00 / mixed_ref=0 / me_range=16 / chroma_me=1 / trellis=0 / 8x8dct=0 / cqm=0 / deadzone=21,11 / fast_pskip=1 / chroma_qp_offset=0 / threads=2 / lookahead_threads=1 / sliced_threads=0 / nr=0 / decimate=1 / interlaced=0 / bluray_compat=0 / constrained_intra=0 / bframes=0 / weightp=2 / keyint=250 / keyint_min=25 / scenecut=40 / intra_refresh=0 / rc_lookahead=40 / rc=abr / mbtree=1 / bitrate=4496 / ratetol=1.0 / qcomp=0.60 / qpmin=10 / qpmax=51 / qpstep=4 / ip_ratio=1.41 / aq=1:1.00
Дата кодирования                         : UTC 2015-03-19 14:34:27
Дата пометки                             : UTC 2015-03-19 14:34:27

Аудио
Идентификатор                            : 2
Формат                                   : AAC
Формат/Информация                        : Advanced Audio Codec
Профиль формата                          : LC
Идентификатор кодека                     : 40
Продолжительность                        : 3 м. 59 с.
Duration_FirstFrame                      : 70 мс.
Вид битрейта                             : Переменный
Битрейт                                  : 147 Кбит/сек
Максимальный битрейт                     : 176 Кбит/сек
Каналы                                   : 2 канала
Расположение каналов                     : Front: L R
Частота                                  : 44,1 КГц
Метод сжатия                             : С потерями
Размер потока                            : 4,20 Мбайт (3%)
Дата кодирования                         : UTC 2015-03-19 14:34:27
Дата пометки                             : UTC 2015-03-19 14:34:27
Общее
Полное имя                               : E:\VA - Весенний марафон № 163 (Зарубежная Клиповсячина)\Yelawolf - American You (Official Video).mp4
Формат                                   : MPEG-4
Профиль формата                          : Base Media
Идентификатор кодека                     : isom
Размер файла                             : 119 Мбайт
Продолжительность                        : 3 м. 37 с.
Режим общего битрейта                    : Переменный
Общий поток                              : 4581 Кбит/сек
Дата кодирования                         : UTC 2015-04-03 17:13:40
Дата пометки                             : UTC 2015-04-03 17:13:40
Программа кодирования                    : Lavf54.63.104

Видео
Идентификатор                            : 1
Формат                                   : AVC
Формат/Информация                        : Advanced Video Codec
Профиль формата                          :
Параметр CABAC формата                   : Да
Параметр ReFrames формата                : 1 кадр
Идентификатор кодека                     : avc1
Идентификатор кодека/Информация          : Advanced Video Coding
Продолжительность                        : 3 м. 37 с.
Битрейт                                  : 4496 Кбит/сек
Ширина                                   : 1920 пикселей
Высота                                   : 1080 пикселей
Соотношение сторон                       : 16:9
Режим частоты кадров                     : Постоянный
Частота кадров                           : 25,000 кадров/сек
Цветовое пространство                    : YUV
Субдискретизация насыщенности            : 4:2:0
Битовая глубина                          : 8 бит
Тип развёртки                            : Прогрессивная
Бит/(Пиксели*Кадры)                      : 0.087
Размер потока                            : 115 Мбайт (97%)
Библиотека кодирования                   : x264 core 129
Настройки программы                      : cabac=1 / ref=1 / deblock=1:0:0 / analyse=0x1:0x131 / me=dia / subme=2 / psy=1 / psy_rd=1.00:0.00 / mixed_ref=0 / me_range=16 / chroma_me=1 / trellis=0 / 8x8dct=0 / cqm=0 / deadzone=21,11 / fast_pskip=1 / chroma_qp_offset=0 / threads=2 / lookahead_threads=1 / sliced_threads=0 / nr=0 / decimate=1 / interlaced=0 / bluray_compat=0 / constrained_intra=0 / bframes=0 / weightp=2 / keyint=250 / keyint_min=25 / scenecut=40 / intra_refresh=0 / rc_lookahead=40 / rc=abr / mbtree=1 / bitrate=4496 / ratetol=1.0 / qcomp=0.60 / qpmin=10 / qpmax=51 / qpstep=4 / ip_ratio=1.41 / aq=1:1.00
Дата кодирования                         : UTC 2015-04-03 17:13:40
Дата пометки                             : UTC 2015-04-03 17:13:40

Аудио
Идентификатор                            : 2
Формат                                   : AAC
Формат/Информация                        : Advanced Audio Codec
Профиль формата                          : LC
Идентификатор кодека                     : 40
Продолжительность                        : 3 м. 37 с.
Duration_FirstFrame                      : 70 мс.
Вид битрейта                             : Переменный
Битрейт                                  : 149 Кбит/сек
Максимальный битрейт                     : 176 Кбит/сек
Каналы                                   : 2 канала
Расположение каналов                     : Front: L R
Частота                                  : 44,1 КГц
Метод сжатия                             : С потерями
Размер потока                            : 3,85 Мбайт (3%)
Дата кодирования                         : UTC 2015-04-03 17:13:40
Дата пометки                             : UTC 2015-04-03 17:13:40

Скриншоты:


Весеннего настроения

Время раздачи:
24/7 - до 5 скачавших, далее по возможности.
 
Не забывайте говорить Спасибо. Не уходите с раздачи!   
Торрент: Зарегистрирован [07 апр 2015, 09:51] Скачать торрент
Скачать торрент
[ Размер 18.56 КБ / Просмотров 14 ]
Статус:
Проверен
 
.torrent скачан: 0 раз
Хэш: ac454da34c7fc48b825653bd25f37714f3ea8e52
Размер: 3.12 ГБ (3 353 077 398 байт)
Стать Автором раздачи
 
 
Раздал: 6.67 ГБ
Скачал: 302.5 МБ
Ратио: 22.576
Сообщения: 374198
Зарегистрирован: 17 апр 2014, 11:05


  • Похожие торренты
    Ответы
    Просмотры
    Последнее сообщение

Вернуться в Музыкальные клипы (транзит)

Ресурс не предоставляет электронные версии произведений, а занимается лишь коллекционированием и каталогизацией ссылок, присылаемых и публикуемых на форуме нашими читателями. Если вы являетесь правообладателем какого-либо представленного материала и не желаете чтобы ссылка на него находилась в нашем каталоге, свяжитесь с нами и мы незамедлительно удалим её. Файлы для обмена на трекере предоставлены пользователями сайта, и администрация не несёт ответственности за их содержание. Просьба не заливать файлы, защищенные авторскими правами, а также файлы нелегального содержания!
cron