Академии IT DarkMaycal Sysadmins | Администрирование 1C с нуля (2014) PCRec

 
 Статистика раздачи 
Размер: 10.49 ГБ   |  Зарегистрирован: 05 апр 2015, 12:13   |   .torrent скачан: 10 раз
Сидеров: 1  [ 0 байт/сек ]     Личеров: 0  [ 0 байт/сек ]  
  

Академии IT DarkMaycal Sysadmins | Администрирование 1C с нуля (2014) PCRec

Сообщение Thistoll » 05 апр 2015, 12:13

Академии IT DarkMaycal Sysadmins | Администрирование 1C с нуля (2014) PCRec

Автор (режиссер): Академии IT DarkMaycal Sysadmins
Жанр: 1С, Администрирование
Продолжительность: 13:20:31
Качество видео: PCRec
Видеокодек: AVC
Битрейт видео: ~602 kbps
Размер кадра: 1920х1080
Аудиокодек: AAC 2.0
Битрейт аудио: 513 kbps (CBR), 2 Ch, 44100 Hz

Описание:
Видеокурс полностью рассчитан для начинающих системных администраторов, которые не имеют базовых навыков как в работе с 1С, так и вообще в системном администрировании в целом. Изучая этот видеокурс, вам не потребуются никакие базовые навыки. Вся информация четко структурирована, последовательна и подается шаг за шагом.
Изучая наш видеокурс, параллельно вы не только изучаете администрирование 1С, но и получаете навыки в области администрирования операционных систем Windows и Linux! Вместе с изучением 1С мы будем настраивать контроллер домена и создавать пользователей в AD, работать с виртуальными машинами и Hyper-V, устанавливать веб-сервера Apache и IIS, работать с групповыми политиками, производить административную установку 1С, настраивать сетевые интерфейсы в Linux и многое другое.
Мы рассматриваем 1С не с точки зрения пользователя или программиста, а с точки зрения системного администратора. Именно поэтому в этом видеокурсе вы не найдете информации о том, как вести бухгалтерию в 1С или как управлять складом. В этом курсе представлена практическая информация по установке, настройки и оптимизации 1С.
Содержание:

Уровень 1. Основы 1С и файловая архитектура
1. Вступление
2. Подготовка среды (установка Windows 7)
3. Установка 1С и создание первой базы
4. Создание базы на основе типовой конфигурации БП 3.0
5. Автоматическое и ручное обновление типовой конфигурации
6. Ручное обновление нетиповой конфигурации
7. Добавление пользователей и ролей, назначение прав
8. Простое обновление платформы
9. Работа со списком баз

Уровень 2. Администрирование 1С
1. Подготовка дополнительной среды (установка Windows Server 2008)
2. Включение роли контроллера домена и введение Windows 7 в домен
3. Установка и обновление платформы 1С через групповые политики
4. Лицензирование 1С
5. Установка коммерческой 1С и настройка HASP LM
6. Административная установка платформы
7. Публикация базы на веб-сервере
8. Тонкий и толстый клиенты
9. Групповая разработка

Уровень 3. Клиент-серверная архитектура
1. Клиенто-серверная архитектура 1С
2. Сервер 1С
3. Выбор СУБД
4. Установка СУБД PostgreSQL
5. Создание базы через сервер 1С. Запуск новой системы
6. Преобразование файловой базы в клиенто-серверную
7. Отличия Windows от Linux. Установка Linux сборки CentOS
8. Базовая настройка Linux
9. Установка сервера 1С и СУБД PostgreSQL на Linux
10. Публикация базы на веб-сервере в Linux
11. Отказоустойчивый кластер на 8.3. Подготовка среды
12. Отказоустойчивый кластер на 8.3. Реализация
13. Установка двух серверов 8.2
14. Отказоустойчивый кластер на 8.2
15. Балансировка нагрузки в серверах 1С 8.2 и 8.3
16. Установка MS SQL Server
17. Приемы резервного копирования СУБД (MS SQL Server, PGSQL, DBF)
18. Лицензирование 1С. Часть 2
19. Исправление ошибок ИБ
20. Общие рекомендации по организации серверной системы 1С. Заключение
Общее
Формат : MPEG-4
Профиль формата : Base Media
Идентификатор кодека : isom
Размер файла : 112 Мбайт
Общий поток : 1121 Кбит/сек
Исполнитель : Академия IT DarkMaycal Sysadmins
Программа кодирования : Lavf55.42.100

Видео
Идентификатор : 1
Формат : AVC
Формат/Информация : Advanced Video Codec
Профиль формата :
Параметр CABAC формата : Да
Параметр ReFrames формата : 3 кадра
Идентификатор кодека : avc1
Идентификатор кодека/Информация : Advanced Video Coding
Битрейт : 602 Кбит/сек
Ширина : 1920 пикселей
Высота : 1080 пикселей
Соотношение сторон : 16:9
Режим частоты кадров : Переменный
Частота кадров : 30,000 кадров/сек
Минимальная частота кадров : 30,000 кадров/сек
Максимальная частота кадров : 30,059 кадров/сек
Стандарт вещания : NTSC
Цветовое пространство : YUV
Субдискретизация насыщенности : 4:2:0
Битовая глубина : 8 бит
Тип развёртки : Прогрессивная
Бит/(Пиксели*Кадры) : 0.010
Размер потока : 60,1 Мбайт (54%)
Язык : English
Основные цвета : BT.709
Характеристики трансфера : BT.709
Коэффициенты матрицы : BT.709
colour_range : Limited

Аудио
Идентификатор : 2
Формат : AAC
Формат/Информация : Advanced Audio Codec
Профиль формата : LC
Идентификатор кодека : 40
Вид битрейта : Постоянный
Битрейт : 513 Кбит/сек
Каналы : 2 канала
Расположение каналов : Front: L R
Частота : 44,1 КГц
Метод сжатия : С потерями
Размер потока : 51,2 Мбайт (46%)

Скриншоты:



Время раздачи: Круглосуточно
 
Не забывайте говорить Спасибо. Не уходите с раздачи!   
Торрент: Зарегистрирован [05 апр 2015, 12:13] Скачать торрент
Скачать торрент
[ Размер 96.14 КБ / Просмотров 89 ]
Статус:
Проверен
 
.torrent скачан: 10 раз
Хэш: f9628c351e5722eb35be6a1134bf84d838a5107a
Размер: 10.49 ГБ (11 264 400 584 байт)
Стать Автором раздачи
 
 
Раздал: 6.67 ГБ
Скачал: 302.5 МБ
Ратио: 22.576
Сообщения: 374198
Зарегистрирован: 17 апр 2014, 11:05


Re: Академии IT DarkMaycal Sysadmins | Администрирование 1C с нуля (2014) PCRec

Сообщение make777 » 10 фев 2017, 06:59

помогите скачать встаньте на раздачу!!!!
 
Раздал: 219.13 ГБ
Скачал: 54.13 ГБ
Ратио: 4.048
Сообщения: 1
Зарегистрирован: 28 янв 2017, 15:53

Re: Академии IT DarkMaycal Sysadmins | Администрирование 1C с нуля (2014) PCRec

Сообщение i926 » 10 фев 2017, 22:37

Сидов масса, скорость большая...... Чем помочь ? :?
Аватара пользователя
Главный редактор
Главный редактор
 
Раздал: 15.43 ТБ
Скачал: 13.78 ТБ
Ратио: 1.120
Сообщения: 65449
Зарегистрирован: 01 мар 2011, 23:07


  • Похожие торренты
    Ответы
    Просмотры
    Последнее сообщение

Вернуться в Компьютерные видеоуроки и обучающие интерактивные DVD

Ресурс не предоставляет электронные версии произведений, а занимается лишь коллекционированием и каталогизацией ссылок, присылаемых и публикуемых на форуме нашими читателями. Если вы являетесь правообладателем какого-либо представленного материала и не желаете чтобы ссылка на него находилась в нашем каталоге, свяжитесь с нами и мы незамедлительно удалим её. Файлы для обмена на трекере предоставлены пользователями сайта, и администрация не несёт ответственности за их содержание. Просьба не заливать файлы, защищенные авторскими правами, а также файлы нелегального содержания!
cron