Mana Ft. Shakira - Mi Verdad (2015) HDTVRip [H.264/720p]

 
 Статистика раздачи 
Размер: 213.33 МБ   |  Зарегистрирован: 05 апр 2015, 11:59   |   .torrent скачан: 0 раз
Сидеров: 1  [ 0 байт/сек ]     Личеров: 0  [ 0 байт/сек ]  
  

Mana Ft. Shakira - Mi Verdad (2015) HDTVRip [H.264/720p]

Сообщение Thistoll » 05 апр 2015, 11:59

Mana Ft. Shakira - Mi Verdad (2015) HDTVRip [H.264/720p]

Исполнитель: Mana, Shakira
Год выпуска: 2015
Жанр: Pop - Rock

Продолжительность: 00:04:49

Описание: Известная мексиканская поп-рок-группа Mana и певица Шакира (Shakira) представили клип к совместной композиции Mi Verdad. Лирическая баллада сопровождается простым и душевным видеорядом. Музыканты вместе с Шакирой сидят вокруг костра, собравшись в каком-то заброшенном помещении. Спокойная песня, звуки гитар и блики языков пламени приносят покой и умиротворение. Того и гляди, закрыв глаза, окажешься на берегу океана в кругу лучших друзей. Группу Mana смело можно считать монстрами латиноамериканского поп-рока. Коллектив радует поклонников своим творчеством с 1978 года. На сегодняшний день у ребят в арсенале 21 студийный альбом. Среди достижений – четыре премии «Грэмми» и множество побед в других серьезных конкурсах.

Качество видео: HDTVRip [H.264/720p]
Видеокодек: MPEG-4 AVC/H.264
Битрейт видео: ~ 5917 Кбит/с
Размер кадра: 1280x720 (16:9), 29,970 кадров/с
Аудиокодек: AAC, 2 ch, stereo
Битрейт аудио: 256 Кбит/с
Код:
Код: Выделить всё
Общее
Полное имя                               : Mana Ft. Shakira - Mi Verdad.mp4
Формат                                   : MPEG-4
Профиль формата                          : Base Media / Version 2
Идентификатор кодека                     : mp42
Размер файла                             : 213 Мбайт
Продолжительность                        : 4 м. 49 с.
Режим общего битрейта                    : Переменный
Общий поток                              : 6177 Кбит/сек

Видео
Идентификатор                            : 1
Формат                                   : AVC
Формат/Информация                        : Advanced Video Codec
Профиль формата                          :
Параметр CABAC формата                   : Да
Параметр ReFrames формата                : 3 кадра
Идентификатор кодека                     : avc1
Идентификатор кодека/Информация          : Advanced Video Coding
Продолжительность                        : 4 м. 49 с.
Продолжительность оригинала              : 4 м. 49 с.
Битрейт                                  : 5917 Кбит/сек
Ширина                                   : 1280 пикселей
Высота                                   : 720 пикселей
Соотношение сторон                       : 16:9
Режим частоты кадров                     : Переменный
Частота кадров                           : 29,970 кадров/сек
Минимальная частота кадров               : 29,960 кадров/сек
Максимальная частота кадров              : 29,970 кадров/сек
Цветовое пространство                    : YUV
Субдискретизация насыщенности            : 4:2:0
Битовая глубина                          : 8 бит
Тип развёртки                            : Прогрессивная
Бит/(Пиксели*Кадры)                      : 0.214
Размер потока                            : 204 Мбайт (96%)
Размер потока оригинала                  : 204 Мбайт (96%)
Язык                                     : English
mdhd_Duration                            : 289723

Аудио
Идентификатор                            : 2
Формат                                   : AAC
Формат/Информация                        : Advanced Audio Codec
Профиль формата                          : LC
Идентификатор кодека                     : 40
Продолжительность                        : 4 м. 49 с.
Продолжительность оригинала              : 4 м. 49 с.
Вид битрейта                             : Переменный
Битрейт                                  : 256 Кбит/сек
Каналы                                   : 2 канала
Расположение каналов                     : Front: L R
Частота                                  : 48,0 КГц
Метод сжатия                             : С потерями
Размер потока                            : 8,84 Мбайт (4%)
Размер потока оригинала                  : 8,84 Мбайт (4%)
Язык                                     : English
mdhd_Duration                            : 289706

Скриншоты:

 
Не забывайте говорить Спасибо. Не уходите с раздачи!   
Торрент: Зарегистрирован [05 апр 2015, 11:59] Скачать торрент
Скачать торрент
[ Размер 17.35 КБ / Просмотров 11 ]
Статус:
Проверен
 
.torrent скачан: 0 раз
Хэш: d977ab91ad9ee933a92b82063505ab4538e1905b
Размер: 213.33 МБ (223 696 736 байт)
Стать Автором раздачи
 
 
Раздал: 6.67 ГБ
Скачал: 302.5 МБ
Ратио: 22.576
Сообщения: 374198
Зарегистрирован: 17 апр 2014, 11:05


  • Похожие торренты
    Ответы
    Просмотры
    Последнее сообщение

Вернуться в Музыкальные клипы (транзит)

Ресурс не предоставляет электронные версии произведений, а занимается лишь коллекционированием и каталогизацией ссылок, присылаемых и публикуемых на форуме нашими читателями. Если вы являетесь правообладателем какого-либо представленного материала и не желаете чтобы ссылка на него находилась в нашем каталоге, свяжитесь с нами и мы незамедлительно удалим её. Файлы для обмена на трекере предоставлены пользователями сайта, и администрация не несёт ответственности за их содержание. Просьба не заливать файлы, защищенные авторскими правами, а также файлы нелегального содержания!
cron