Фарца (2015) WEBRip [H.264] (серии 1-8 из 8) [mp4|1680x1048]

 
 Статистика раздачи 
Размер: 5.15 ГБ   |  Зарегистрирован: 02 апр 2015, 09:48   |   .torrent скачан: 0 раз
Сидеров: 1  [ 0 байт/сек ]     Личеров: 1  [ 0 байт/сек ]  
  

Фарца (2015) WEBRip [H.264] (серии 1-8 из 8) [mp4|1680x1048]

Сообщение PetaByte » 02 апр 2015, 09:48

Фарца (2015) WEBRip

Производство: Россия / Продюсерский центр «Среда»
Жанр: драма

Режиссер: Егор Баранов
Актеры: Александр Петров, Филипп Горенштейн, Максим Емельянов, Алексей Весёлкин, Зоя Бербер, Таисия Вилкова, Евгений Стычкин, Иева Андреевайте, Алексей Серебряков, Александр Яценко

Описание фильма:
События происходят с 1961 года по 1991 год. В центре истории — дружба четырех парней. В 1 сезоне им 20 лет, они дружат с детства и ради дружбы готовы на все. У всех свои мечты, но обстоятельства сложатся таким образом, что они будут вынуждены окунуться во все виды подпольной экономики начала 60х. И, что самое ужасное, — они успешны в этом деле, у них все получается. И чем лучше у них получается фарцовка, тем дальше герои от воплощения своих настоящих мечтаний.


Дата российской премьеры: 30 марта 2015

Качество видео: WEBRip
Продолжительность: ~00:50:00 серия

Видеокодек: MPEG-4 AVC/H.264
Формат: MP4
Битрейт видео: ~1833 kbps avg
Размер кадра: 1680x1048, 30fps
Аудиокодек: AAC, 2 ch
Битрейт аудио: 254.00 kbps
Код:
Код: Выделить всё
Общее
Полное имя                               : D:\фарца webrip\Farza.2015.s01.e01.WEBRIP.mp4
Формат                                   : MPEG-4
Профиль формата                          : Base Media / Version 2
Идентификатор кодека                     : mp42
Размер файла                             : 777 Мбайт
Продолжительность                        : 51 м.
Режим общего битрейта                    : Переменный
Общий поток                              : 2090 Кбит/сек
Дата кодирования                         : UTC 2015-03-29 23:51:16
Дата пометки                             : UTC 2015-03-29 23:51:16

Видео
Идентификатор                            : 1
Формат                                   : AVC
Формат/Информация                        : Advanced Video Codec
Профиль формата                          :
Параметр CABAC формата                   : Да
Параметр ReFrames формата                : 3 кадра
Идентификатор кодека                     : avc1
Идентификатор кодека/Информация          : Advanced Video Coding
Продолжительность                        : 51 м.
Битрейт                                  : 1833 Кбит/сек
Ширина                                   : 1680 пикселей
Высота                                   : 1048 пикселей
Соотношение сторон                       : 16:10
Режим частоты кадров                     : Постоянный
Частота кадров                           : 30,000 кадров/сек
Стандарт вещания                         : NTSC
Цветовое пространство                    : YUV
Субдискретизация насыщенности            : 4:2:0
Битовая глубина                          : 8 бит
Тип развёртки                            : Прогрессивная
Бит/(Пиксели*Кадры)                      : 0.035
Размер потока                            : 681 Мбайт (88%)
Язык                                     : English
Дата кодирования                         : UTC 2015-03-29 23:51:16
Дата пометки                             : UTC 2015-03-29 23:51:16

Аудио
Идентификатор                            : 2
Формат                                   : AAC
Формат/Информация                        : Advanced Audio Codec
Профиль формата                          : LC
Идентификатор кодека                     : 40
Продолжительность                        : 51 м.
Вид битрейта                             : Переменный
Битрейт                                  : 254 Кбит/сек
Максимальный битрейт                     : 306 Кбит/сек
Каналы                                   : 2 канала
Расположение каналов                     : Front: L R
Частота                                  : 44,1 КГц
Метод сжатия                             : С потерями
Размер потока                            : 94,3 Мбайт (12%)
Язык                                     : English
Дата кодирования                         : UTC 2015-03-29 23:51:16
Дата пометки                             : UTC 2015-03-29 23:51:16
Внимание! Раздача ведётся путём добавления новых серий; при каждом добавлении создаётся новый торрент.
Чтобы начать докачку новой серии, пользователям необходимо сделать следующее:
1. Остановить скачивание;
2. Удалить старый торрент у себя из клиента (старые серии удалять не надо);
3. Скачать новый торрент и запустить его у себя в клиенте вместо старого, при этом указать клиенту путь в старую папку куда и должно происходить скачивание новых серий. Ваш клиент при этом должен произвести хеширование (проверку) старой папки и будет докачивать только те серии, которых у вас ещё нет. Старые серии при этом не удаляются, а продолжают раздаваться! Eсли вы уже удалили старые серии, то предотвратить повторную закачку старых серий можно, отжав галочку в соответствующих местах при запуске нового торрента.
Скриншоты:





Раздача обновлена, добавлены заключительные 7-8 серии.
Сезон окончен.


Время раздачи: 24/7, до 5 скачавших.
 
Не забывайте говорить Спасибо. Не уходите с раздачи!   
Торрент: Зарегистрирован [02 апр 2015, 09:48] Для скачивания .torrent
необходима регистрация
Или скачать с помощью
MediaGet
Статус:
Проверен
 
.torrent скачан: 0 раз
Хэш: c5dc56e70c04295777a81effd1d2bdeba215352c
Размер: 5.15 ГБ (5 530 533 071 байт)
Стать Автором раздачи
 
 
Раздал: 10 ГБ
Скачал: 8 МБ
Ратио: 1280.000
Сообщения: 234240
Зарегистрирован: 22 фев 2013, 11:10


  • Похожие торренты
    Ответы
    Просмотры
    Последнее сообщение

Вернуться в Видео для мобильных устройств

Ресурс не предоставляет электронные версии произведений, а занимается лишь коллекционированием и каталогизацией ссылок, присылаемых и публикуемых на форуме нашими читателями. Если вы являетесь правообладателем какого-либо представленного материала и не желаете чтобы ссылка на него находилась в нашем каталоге, свяжитесь с нами и мы незамедлительно удалим её. Файлы для обмена на трекере предоставлены пользователями сайта, и администрация не несёт ответственности за их содержание. Просьба не заливать файлы, защищенные авторскими правами, а также файлы нелегального содержания!
cron