Сборник видеоклипов 8 - русские хиты (2015) [H.264/1080p-LQ] WEBRip

 
 Статистика раздачи 
Размер: 1.24 ГБ   |  Зарегистрирован: 02 апр 2015, 00:18   |   .torrent скачан: 0 раз
Сидеров: 1  [ 0 байт/сек ]     Личеров: 0  [ 0 байт/сек ]  
  

Сборник видеоклипов 8 - русские хиты (2015) [H.264/1080p-LQ] WEBRip

Сообщение Thistoll » 02 апр 2015, 00:18

Сборник видеоклипов 8 - русские хиты (2015) [H.264/1080p-LQ] WEBRip

Год выпуска: 2015
Жанр: Pop, Dance, Rap
Продолжительность: 00:44:42

Описание: Подборка видеоклипов за 2015 год.

Качество видео: WEBRip [1080p]
Видеокодек: MPEG-4 AVC/H.264
Битрейт видео: ~ 3364 Кбит/с
Размер кадра: 1920x1080 (16:9), 25,000 кадров/с
Аудиокодек: AAC, 2 ch, stereo
Битрейт аудио: 254 - 128 Кбит/с
1.DJ DaVlad и Анастасия Кочеткова - Люблю.
2.EDGAR - 'Loving you'
3.Meseda - Пересечение.
4.MISTY & TIMARO - Мои? ангел
5.Алена Ланская - Я жива.
6.Дискотека Авария - Самуи
7.ЗЛАТА ОГНЕВИЧ - ДАЛЕКО
8.Лавика - You make me smile.
9.Настя Кудри & Александр Головин - Внимание.
10.Полина Гагарина - Любовь тебя найдет (OST 'Одной левой').
11.С.3.Ж - Всё Как Ты Любишь.
12.Сергей Лазарев 'ВЕСНА'
13.Слава Дубенко feat. BAX-Di - Просто Игра
14.Татьяна Котова - Неверная.
Код:
Код: Выделить всё
Общее
Полное имя                               : DJ DaVlad и Анастасия Кочеткова - Люблю..mp4
Формат                                   : MPEG-4
Профиль формата                          : Base Media / Version 2
Идентификатор кодека                     : mp42
Размер файла                             : 85,3 Мбайт
Продолжительность                        : 3 м. 17 с.
Режим общего битрейта                    : Переменный
Общий поток                              : 3622 Кбит/сек

Видео
Идентификатор                            : 1
Формат                                   : AVC
Формат/Информация                        : Advanced Video Codec
Профиль формата                          :
Параметр CABAC формата                   : Да
Параметр ReFrames формата                : 2 кадра
Идентификатор кодека                     : avc1
Идентификатор кодека/Информация          : Advanced Video Coding
Продолжительность                        : 3 м. 17 с.
Продолжительность оригинала              : 3 м. 17 с.
Битрейт                                  : 3364 Кбит/сек
Ширина                                   : 1920 пикселей
Высота                                   : 1080 пикселей
Соотношение сторон                       : 16:9
Режим частоты кадров                     : Постоянный
Частота кадров                           : 25,000 кадров/сек
Цветовое пространство                    : YUV
Субдискретизация насыщенности            : 4:2:0
Битовая глубина                          : 8 бит
Тип развёртки                            : Прогрессивная
Бит/(Пиксели*Кадры)                      : 0.065
Размер потока                            : 79,2 Мбайт (93%)
Размер потока оригинала                  : 79,2 Мбайт (93%)
Язык                                     : English
mdhd_Duration                            : 197520

Аудио
Идентификатор                            : 2
Формат                                   : AAC
Формат/Информация                        : Advanced Audio Codec
Профиль формата                          : LC
Идентификатор кодека                     : 40
Продолжительность                        : 3 м. 17 с.
Продолжительность оригинала              : 3 м. 17 с.
Вид битрейта                             : Переменный
Битрейт                                  : 254 Кбит/сек
Каналы                                   : 2 канала
Расположение каналов                     : Front: L R
Частота                                  : 44,1 КГц
Метод сжатия                             : С потерями
Размер потока                            : 5,97 Мбайт (7%)
Размер потока оригинала                  : 5,97 Мбайт (7%)
Язык                                     : English
mdhd_Duration                            : 197555

Общее
Полное имя                               : EDGAR - 'Loving you'.mp4
Формат                                   : MPEG-4
Профиль формата                          : Base Media / Version 2
Идентификатор кодека                     : mp42
Размер файла                             : 92,2 Мбайт
Продолжительность                        : 3 м. 13 с.
Режим общего битрейта                    : Переменный
Общий поток                              : 3994 Кбит/сек

Видео
Идентификатор                            : 1
Формат                                   : AVC
Формат/Информация                        : Advanced Video Codec
Профиль формата                          :
Параметр CABAC формата                   : Да
Параметр ReFrames формата                : 2 кадра
Идентификатор кодека                     : avc1
Идентификатор кодека/Информация          : Advanced Video Coding
Продолжительность                        : 3 м. 13 с.
Продолжительность оригинала              : 3 м. 13 с.
Битрейт                                  : 3736 Кбит/сек
Ширина                                   : 1920 пикселей
Высота                                   : 1080 пикселей
Соотношение сторон                       : 16:9
Режим частоты кадров                     : Постоянный
Частота кадров                           : 25,000 кадров/сек
Цветовое пространство                    : YUV
Субдискретизация насыщенности            : 4:2:0
Битовая глубина                          : 8 бит
Тип развёртки                            : Прогрессивная
Бит/(Пиксели*Кадры)                      : 0.072
Размер потока                            : 86,2 Мбайт (94%)
Размер потока оригинала                  : 86,2 Мбайт (94%)
Язык                                     : English
mdhd_Duration                            : 193560

Аудио
Идентификатор                            : 2
Формат                                   : AAC
Формат/Информация                        : Advanced Audio Codec
Профиль формата                          : LC
Идентификатор кодека                     : 40
Продолжительность                        : 3 м. 13 с.
Продолжительность оригинала              : 3 м. 13 с.
Вид битрейта                             : Переменный
Битрейт                                  : 254 Кбит/сек
Каналы                                   : 2 канала
Расположение каналов                     : Front: L R
Частота                                  : 44,1 КГц
Метод сжатия                             : С потерями
Размер потока                            : 5,85 Мбайт (6%)
Размер потока оригинала                  : 5,85 Мбайт (6%)
Язык                                     : English
mdhd_Duration                            : 193584

Общее
Полное имя                               : Meseda - Пересечение..mp4
Формат                                   : MPEG-4
Профиль формата                          : Base Media / Version 2
Идентификатор кодека                     : mp42
Размер файла                             : 98,6 Мбайт
Продолжительность                        : 4 м. 6 с.
Режим общего битрейта                    : Переменный
Общий поток                              : 3354 Кбит/сек

Видео
Идентификатор                            : 1
Формат                                   : AVC
Формат/Информация                        : Advanced Video Codec
Профиль формата                          :
Параметр CABAC формата                   : Да
Параметр ReFrames формата                : 2 кадра
Идентификатор кодека                     : avc1
Идентификатор кодека/Информация          : Advanced Video Coding
Продолжительность                        : 4 м. 6 с.
Битрейт                                  : 3095 Кбит/сек
Ширина                                   : 1920 пикселей
Высота                                   : 1080 пикселей
Соотношение сторон                       : 16:9
Режим частоты кадров                     : Постоянный
Частота кадров                           : 25,000 кадров/сек
Цветовое пространство                    : YUV
Субдискретизация насыщенности            : 4:2:0
Битовая глубина                          : 8 бит
Тип развёртки                            : Прогрессивная
Бит/(Пиксели*Кадры)                      : 0.060
Размер потока                            : 91,0 Мбайт (92%)
Язык                                     : English

Аудио
Идентификатор                            : 2
Формат                                   : AAC
Формат/Информация                        : Advanced Audio Codec
Профиль формата                          : LC
Идентификатор кодека                     : 40
Продолжительность                        : 4 м. 6 с.
Продолжительность оригинала              : 4 м. 6 с.
Вид битрейта                             : Переменный
Битрейт                                  : 254 Кбит/сек
Каналы                                   : 2 канала
Расположение каналов                     : Front: L R
Частота                                  : 44,1 КГц
Метод сжатия                             : С потерями
Размер потока                            : 7,45 Мбайт (8%)
Размер потока оригинала                  : 7,45 Мбайт (8%)
Язык                                     : English
mdhd_Duration                            : 246502

Общее
Полное имя                               : MISTY & TIMARO - Мои? ангел.mp4
Формат                                   : MPEG-4
Профиль формата                          : Base Media / Version 2
Идентификатор кодека                     : mp42
Размер файла                             : 65,7 Мбайт
Продолжительность                        : 3 м. 29 с.
Режим общего битрейта                    : Переменный
Общий поток                              : 2633 Кбит/сек

Видео
Идентификатор                            : 1
Формат                                   : AVC
Формат/Информация                        : Advanced Video Codec
Профиль формата                          :
Параметр CABAC формата                   : Нет
Параметр ReFrames формата                : 1 кадр
Параметр GOP формата                     : M=1, N=12
Идентификатор кодека                     : avc1
Идентификатор кодека/Информация          : Advanced Video Coding
Продолжительность                        : 3 м. 29 с.
Продолжительность оригинала              : 3 м. 29 с.
Битрейт                                  : 2500 Кбит/сек
Ширина                                   : 1920 пикселей
Высота                                   : 1080 пикселей
Соотношение сторон                       : 16:9
Режим частоты кадров                     : Постоянный
Частота кадров                           : 25,000 кадров/сек
Цветовое пространство                    : YUV
Субдискретизация насыщенности            : 4:2:0
Битовая глубина                          : 8 бит
Тип развёртки                            : Прогрессивная
Бит/(Пиксели*Кадры)                      : 0.048
Размер потока                            : 62,4 Мбайт (95%)
Размер потока оригинала                  : 62,4 Мбайт (95%)
Язык                                     : English
mdhd_Duration                            : 209320

Аудио
Идентификатор                            : 2
Формат                                   : AAC
Формат/Информация                        : Advanced Audio Codec
Профиль формата                          : LC
Идентификатор кодека                     : 40
Продолжительность                        : 3 м. 29 с.
Продолжительность оригинала              : 3 м. 29 с.
Вид битрейта                             : Переменный
Битрейт                                  : 128 Кбит/сек
Каналы                                   : 2 канала
Расположение каналов                     : Front: L R
Частота                                  : 44,1 КГц
Метод сжатия                             : С потерями
Размер потока                            : 3,19 Мбайт (5%)
Размер потока оригинала                  : 3,20 Мбайт (5%)
Язык                                     : English
mdhd_Duration                            : 209304

Общее
Полное имя                               : Алена Ланская - Я жива..mp4
Формат                                   : MPEG-4
Профиль формата                          : Base Media / Version 2
Идентификатор кодека                     : mp42
Размер файла                             : 70,9 Мбайт
Продолжительность                        : 3 м. 8 с.
Режим общего битрейта                    : Переменный
Общий поток                              : 3160 Кбит/сек

Видео
Идентификатор                            : 1
Формат                                   : AVC
Формат/Информация                        : Advanced Video Codec
Профиль формата                          :
Параметр CABAC формата                   : Да
Параметр ReFrames формата                : 2 кадра
Идентификатор кодека                     : avc1
Идентификатор кодека/Информация          : Advanced Video Coding
Продолжительность                        : 3 м. 8 с.
Битрейт                                  : 2901 Кбит/сек
Ширина                                   : 1920 пикселей
Высота                                   : 1080 пикселей
Соотношение сторон                       : 16:9
Режим частоты кадров                     : Постоянный
Частота кадров                           : 25,000 кадров/сек
Цветовое пространство                    : YUV
Субдискретизация насыщенности            : 4:2:0
Битовая глубина                          : 8 бит
Тип развёртки                            : Прогрессивная
Бит/(Пиксели*Кадры)                      : 0.056
Размер потока                            : 65,1 Мбайт (92%)
Язык                                     : English

Аудио
Идентификатор                            : 2
Формат                                   : AAC
Формат/Информация                        : Advanced Audio Codec
Профиль формата                          : LC
Идентификатор кодека                     : 40
Продолжительность                        : 3 м. 8 с.
Продолжительность оригинала              : 3 м. 8 с.
Вид битрейта                             : Переменный
Битрейт                                  : 254 Кбит/сек
Каналы                                   : 2 канала
Расположение каналов                     : Front: L R
Частота                                  : 44,1 КГц
Метод сжатия                             : С потерями
Размер потока                            : 5,69 Мбайт (8%)
Размер потока оригинала                  : 5,69 Мбайт (8%)
Язык                                     : English
mdhd_Duration                            : 188267

Общее
Полное имя                               : Дискотека Авария - Самуи.mp4
Формат                                   : MPEG-4
Профиль формата                          : Base Media / Version 2
Идентификатор кодека                     : mp42
Размер файла                             : 222 Мбайт
Продолжительность                        : 3 м. 39 с.
Режим общего битрейта                    : Переменный
Общий поток                              : 8508 Кбит/сек

Видео
Идентификатор                            : 1
Формат                                   : AVC
Формат/Информация                        : Advanced Video Codec
Профиль формата                          :
Параметр CABAC формата                   : Нет
Параметр ReFrames формата                : 1 кадр
Параметр GOP формата                     : M=1, N=12
Идентификатор кодека                     : avc1
Идентификатор кодека/Информация          : Advanced Video Coding
Продолжительность                        : 3 м. 39 с.
Продолжительность оригинала              : 3 м. 38 с.
Битрейт                                  : 8352 Кбит/сек
Ширина                                   : 1920 пикселей
Высота                                   : 1080 пикселей
Соотношение сторон                       : 16:9
Режим частоты кадров                     : Постоянный
Частота кадров                           : 25,000 кадров/сек
Цветовое пространство                    : YUV
Субдискретизация насыщенности            : 4:2:0
Битовая глубина                          : 8 бит
Тип развёртки                            : Прогрессивная
Бит/(Пиксели*Кадры)                      : 0.161
Размер потока                            : 218 Мбайт (98%)
Размер потока оригинала                  : 218 Мбайт (98%)
Язык                                     : English
mdhd_Duration                            : 219000

Аудио
Идентификатор                            : 2
Формат                                   : AAC
Формат/Информация                        : Advanced Audio Codec
Профиль формата                          : LC
Идентификатор кодека                     : 40
Продолжительность                        : 3 м. 38 с.
Продолжительность оригинала              : 3 м. 38 с.
Вид битрейта                             : Переменный
Битрейт                                  : 152 Кбит/сек
Каналы                                   : 2 канала
Расположение каналов                     : Front: L R
Частота                                  : 44,1 КГц
Метод сжатия                             : С потерями
Размер потока                            : 3,97 Мбайт (2%)
Размер потока оригинала                  : 3,97 Мбайт (2%)
Язык                                     : English
mdhd_Duration                            : 218940

Общее
Полное имя                               : ЗЛАТА ОГНЕВИЧ - ДАЛЕКО.mp4
Формат                                   : MPEG-4
Профиль формата                          : Base Media / Version 2
Идентификатор кодека                     : mp42
Размер файла                             : 73,1 Мбайт
Продолжительность                        : 3 м. 5 с.
Режим общего битрейта                    : Переменный
Общий поток                              : 3301 Кбит/сек

Видео
Идентификатор                            : 1
Формат                                   : AVC
Формат/Информация                        : Advanced Video Codec
Профиль формата                          :
Параметр CABAC формата                   : Да
Параметр ReFrames формата                : 2 кадра
Идентификатор кодека                     : avc1
Идентификатор кодека/Информация          : Advanced Video Coding
Продолжительность                        : 3 м. 5 с.
Продолжительность оригинала              : 3 м. 5 с.
Битрейт                                  : 3043 Кбит/сек
Ширина                                   : 1920 пикселей
Высота                                   : 1080 пикселей
Соотношение сторон                       : 16:9
Режим частоты кадров                     : Постоянный
Частота кадров                           : 25,000 кадров/сек
Цветовое пространство                    : YUV
Субдискретизация насыщенности            : 4:2:0
Битовая глубина                          : 8 бит
Тип развёртки                            : Прогрессивная
Бит/(Пиксели*Кадры)                      : 0.059
Размер потока                            : 67,4 Мбайт (92%)
Размер потока оригинала                  : 67,4 Мбайт (92%)
Язык                                     : English
mdhd_Duration                            : 185840

Аудио
Идентификатор                            : 2
Формат                                   : AAC
Формат/Информация                        : Advanced Audio Codec
Профиль формата                          : LC
Идентификатор кодека                     : 40
Продолжительность                        : 3 м. 5 с.
Продолжительность оригинала              : 3 м. 5 с.
Вид битрейта                             : Переменный
Битрейт                                  : 254 Кбит/сек
Каналы                                   : 2 канала
Расположение каналов                     : Front: L R
Частота                                  : 44,1 КГц
Метод сжатия                             : С потерями
Размер потока                            : 5,62 Мбайт (8%)
Размер потока оригинала                  : 5,62 Мбайт (8%)
Язык                                     : English
mdhd_Duration                            : 185875

Общее
Полное имя                               : Лавика - You make me smile..mp4
Формат                                   : MPEG-4
Профиль формата                          : Base Media / Version 2
Идентификатор кодека                     : mp42
Размер файла                             : 89,4 Мбайт
Продолжительность                        : 3 м. 29 с.
Режим общего битрейта                    : Переменный
Общий поток                              : 3588 Кбит/сек

Видео
Идентификатор                            : 1
Формат                                   : AVC
Формат/Информация                        : Advanced Video Codec
Профиль формата                          :
Параметр CABAC формата                   : Да
Параметр ReFrames формата                : 2 кадра
Идентификатор кодека                     : avc1
Идентификатор кодека/Информация          : Advanced Video Coding
Продолжительность                        : 3 м. 29 с.
Битрейт                                  : 3329 Кбит/сек
Ширина                                   : 1920 пикселей
Высота                                   : 1080 пикселей
Соотношение сторон                       : 16:9
Режим частоты кадров                     : Постоянный
Частота кадров                           : 25,000 кадров/сек
Цветовое пространство                    : YUV
Субдискретизация насыщенности            : 4:2:0
Битовая глубина                          : 8 бит
Тип развёртки                            : Прогрессивная
Бит/(Пиксели*Кадры)                      : 0.064
Размер потока                            : 83,0 Мбайт (93%)
Язык                                     : English

Аудио
Идентификатор                            : 2
Формат                                   : AAC
Формат/Информация                        : Advanced Audio Codec
Профиль формата                          : LC
Идентификатор кодека                     : 40
Продолжительность                        : 3 м. 29 с.
Продолжительность оригинала              : 3 м. 29 с.
Вид битрейта                             : Переменный
Битрейт                                  : 254 Кбит/сек
Каналы                                   : 2 канала
Расположение каналов                     : Front: L R
Частота                                  : 44,1 КГц
Метод сжатия                             : С потерями
Размер потока                            : 6,32 Мбайт (7%)
Размер потока оригинала                  : 6,32 Мбайт (7%)
Язык                                     : English
mdhd_Duration                            : 209118

Общее
Полное имя                               : Настя Кудри & Александр Головин - Внимание..mp4
Формат                                   : MPEG-4
Профиль формата                          : Base Media / Version 2
Идентификатор кодека                     : mp42
Размер файла                             : 94,4 Мбайт
Продолжительность                        : 3 м. 1 с.
Режим общего битрейта                    : Переменный
Общий поток                              : 4359 Кбит/сек

Видео
Идентификатор                            : 1
Формат                                   : AVC
Формат/Информация                        : Advanced Video Codec
Профиль формата                          :
Параметр CABAC формата                   : Да
Параметр ReFrames формата                : 2 кадра
Идентификатор кодека                     : avc1
Идентификатор кодека/Информация          : Advanced Video Coding
Продолжительность                        : 3 м. 1 с.
Продолжительность оригинала              : 3 м. 1 с.
Битрейт                                  : 4101 Кбит/сек
Ширина                                   : 1920 пикселей
Высота                                   : 1080 пикселей
Соотношение сторон                       : 16:9
Режим частоты кадров                     : Переменный
Частота кадров                           : 29,970 кадров/сек
Минимальная частота кадров               : 29,960 кадров/сек
Максимальная частота кадров              : 29,980 кадров/сек
Цветовое пространство                    : YUV
Субдискретизация насыщенности            : 4:2:0
Битовая глубина                          : 8 бит
Тип развёртки                            : Прогрессивная
Бит/(Пиксели*Кадры)                      : 0.066
Размер потока                            : 88,8 Мбайт (94%)
Размер потока оригинала                  : 88,8 Мбайт (94%)
Язык                                     : English
mdhd_Duration                            : 181614

Аудио
Идентификатор                            : 2
Формат                                   : AAC
Формат/Информация                        : Advanced Audio Codec
Профиль формата                          : LC
Идентификатор кодека                     : 40
Продолжительность                        : 3 м. 1 с.
Продолжительность оригинала              : 3 м. 1 с.
Вид битрейта                             : Переменный
Битрейт                                  : 254 Кбит/сек
Каналы                                   : 2 канала
Расположение каналов                     : Front: L R
Частота                                  : 44,1 КГц
Метод сжатия                             : С потерями
Размер потока                            : 5,49 Мбайт (6%)
Размер потока оригинала                  : 5,49 Мбайт (6%)
Язык                                     : English
mdhd_Duration                            : 181626

Общее
Полное имя                               : Полина Гагарина - Любовь тебя найдет (OST 'Одной левой')..mp4
Формат                                   : MPEG-4
Профиль формата                          : Base Media / Version 2
Идентификатор кодека                     : mp42
Размер файла                             : 75,3 Мбайт
Продолжительность                        : 3 м. 31 с.
Режим общего битрейта                    : Переменный
Общий поток                              : 2990 Кбит/сек

Видео
Идентификатор                            : 1
Формат                                   : AVC
Формат/Информация                        : Advanced Video Codec
Профиль формата                          :
Параметр CABAC формата                   : Да
Параметр ReFrames формата                : 2 кадра
Идентификатор кодека                     : avc1
Идентификатор кодека/Информация          : Advanced Video Coding
Продолжительность                        : 3 м. 31 с.
Битрейт                                  : 2732 Кбит/сек
Ширина                                   : 1920 пикселей
Высота                                   : 1080 пикселей
Соотношение сторон                       : 16:9
Режим частоты кадров                     : Переменный
Частота кадров                           : 24,000 кадра/сек
Минимальная частота кадров               : 23,994 кадра/сек
Максимальная частота кадров              : 24,006 кадра/сек
Цветовое пространство                    : YUV
Субдискретизация насыщенности            : 4:2:0
Битовая глубина                          : 8 бит
Тип развёртки                            : Прогрессивная
Бит/(Пиксели*Кадры)                      : 0.055
Размер потока                            : 68,8 Мбайт (91%)
Язык                                     : English

Аудио
Идентификатор                            : 2
Формат                                   : AAC
Формат/Информация                        : Advanced Audio Codec
Профиль формата                          : LC
Идентификатор кодека                     : 40
Продолжительность                        : 3 м. 31 с.
Продолжительность оригинала              : 3 м. 31 с.
Вид битрейта                             : Переменный
Битрейт                                  : 254 Кбит/сек
Каналы                                   : 2 канала
Расположение каналов                     : Front: L R
Частота                                  : 44,1 КГц
Метод сжатия                             : С потерями
Размер потока                            : 6,38 Мбайт (8%)
Размер потока оригинала                  : 6,39 Мбайт (8%)
Язык                                     : English
mdhd_Duration                            : 211231

Общее
Полное имя                               : С.3.Ж - Всё Как Ты Любишь..mp4
Формат                                   : MPEG-4
Профиль формата                          : Base Media / Version 2
Идентификатор кодека                     : mp42
Размер файла                             : 79,7 Мбайт
Продолжительность                        : 3 м. 40 с.
Режим общего битрейта                    : Переменный
Общий поток                              : 3035 Кбит/сек

Видео
Идентификатор                            : 1
Формат                                   : AVC
Формат/Информация                        : Advanced Video Codec
Профиль формата                          :
Параметр CABAC формата                   : Да
Параметр ReFrames формата                : 2 кадра
Идентификатор кодека                     : avc1
Идентификатор кодека/Информация          : Advanced Video Coding
Продолжительность                        : 3 м. 40 с.
Продолжительность оригинала              : 3 м. 40 с.
Битрейт                                  : 2777 Кбит/сек
Ширина                                   : 1920 пикселей
Высота                                   : 1080 пикселей
Соотношение сторон                       : 16:9
Режим частоты кадров                     : Постоянный
Частота кадров                           : 25,000 кадров/сек
Цветовое пространство                    : YUV
Субдискретизация насыщенности            : 4:2:0
Битовая глубина                          : 8 бит
Тип развёртки                            : Прогрессивная
Бит/(Пиксели*Кадры)                      : 0.054
Размер потока                            : 72,9 Мбайт (91%)
Размер потока оригинала                  : 72,9 Мбайт (91%)
Язык                                     : English
mdhd_Duration                            : 220320

Аудио
Идентификатор                            : 2
Формат                                   : AAC
Формат/Информация                        : Advanced Audio Codec
Профиль формата                          : LC
Идентификатор кодека                     : 40
Продолжительность                        : 3 м. 40 с.
Продолжительность оригинала              : 3 м. 40 с.
Вид битрейта                             : Переменный
Битрейт                                  : 254 Кбит/сек
Каналы                                   : 2 канала
Расположение каналов                     : Front: L R
Частота                                  : 44,1 КГц
Метод сжатия                             : С потерями
Размер потока                            : 6,66 Мбайт (8%)
Размер потока оригинала                  : 6,66 Мбайт (8%)
Язык                                     : English
mdhd_Duration                            : 220357

Общее
Полное имя                               : Сергей Лазарев 'ВЕСНА'.mp4
Формат                                   : MPEG-4
Профиль формата                          : Base Media / Version 2
Идентификатор кодека                     : mp42
Размер файла                             : 72,0 Мбайт
Продолжительность                        : 3 м. 33 с.
Режим общего битрейта                    : Переменный
Общий поток                              : 2829 Кбит/сек

Видео
Идентификатор                            : 1
Формат                                   : AVC
Формат/Информация                        : Advanced Video Codec
Профиль формата                          :
Параметр CABAC формата                   : Да
Параметр ReFrames формата                : 2 кадра
Идентификатор кодека                     : avc1
Идентификатор кодека/Информация          : Advanced Video Coding
Продолжительность                        : 3 м. 33 с.
Битрейт                                  : 2570 Кбит/сек
Ширина                                   : 1920 пикселей
Высота                                   : 1080 пикселей
Соотношение сторон                       : 16:9
Режим частоты кадров                     : Постоянный
Частота кадров                           : 25,000 кадров/сек
Цветовое пространство                    : YUV
Субдискретизация насыщенности            : 4:2:0
Битовая глубина                          : 8 бит
Тип развёртки                            : Прогрессивная
Бит/(Пиксели*Кадры)                      : 0.050
Размер потока                            : 65,4 Мбайт (91%)
Язык                                     : English

Аудио
Идентификатор                            : 2
Формат                                   : AAC
Формат/Информация                        : Advanced Audio Codec
Профиль формата                          : LC
Идентификатор кодека                     : 40
Продолжительность                        : 3 м. 33 с.
Продолжительность оригинала              : 3 м. 33 с.
Вид битрейта                             : Переменный
Битрейт                                  : 254 Кбит/сек
Каналы                                   : 2 канала
Расположение каналов                     : Front: L R
Частота                                  : 44,1 КГц
Метод сжатия                             : С потерями
Размер потока                            : 6,46 Мбайт (9%)
Размер потока оригинала                  : 6,46 Мбайт (9%)
Язык                                     : English
mdhd_Duration                            : 213553

Общее
Полное имя                               : Слава Дубенко feat. BAX-Di - Просто Игра.mp4
Формат                                   : MPEG-4
Профиль формата                          : Base Media / Version 2
Идентификатор кодека                     : mp42
Размер файла                             : 88,7 Мбайт
Продолжительность                        : 3 м. 28 с.
Режим общего битрейта                    : Переменный
Общий поток                              : 3562 Кбит/сек

Видео
Идентификатор                            : 1
Формат                                   : AVC
Формат/Информация                        : Advanced Video Codec
Профиль формата                          :
Параметр CABAC формата                   : Да
Параметр ReFrames формата                : 3 кадра
Идентификатор кодека                     : avc1
Идентификатор кодека/Информация          : Advanced Video Coding
Продолжительность                        : 3 м. 28 с.
Битрейт                                  : 3303 Кбит/сек
Ширина                                   : 1920 пикселей
Высота                                   : 816 пикселей
Соотношение сторон                       : 2,35:1
Режим частоты кадров                     : Переменный
Частота кадров                           : 23,976 кадра/сек
Минимальная частота кадров               : 23,974 кадра/сек
Максимальная частота кадров              : 23,981 кадра/сек
Цветовое пространство                    : YUV
Субдискретизация насыщенности            : 4:2:0
Битовая глубина                          : 8 бит
Тип развёртки                            : Прогрессивная
Бит/(Пиксели*Кадры)                      : 0.088
Размер потока                            : 82,3 Мбайт (93%)
Язык                                     : English

Аудио
Идентификатор                            : 2
Формат                                   : AAC
Формат/Информация                        : Advanced Audio Codec
Профиль формата                          : LC
Идентификатор кодека                     : 40
Продолжительность                        : 3 м. 28 с.
Продолжительность оригинала              : 3 м. 28 с.
Вид битрейта                             : Переменный
Битрейт                                  : 254 Кбит/сек
Каналы                                   : 2 канала
Расположение каналов                     : Front: L R
Частота                                  : 44,1 КГц
Метод сжатия                             : С потерями
Размер потока                            : 6,32 Мбайт (7%)
Размер потока оригинала                  : 6,32 Мбайт (7%)
Язык                                     : English
mdhd_Duration                            : 208956

Общее
Полное имя                               : Татьяна Котова - Неверная..mp4
Формат                                   : MPEG-4
Профиль формата                          : Base Media / Version 2
Идентификатор кодека                     : mp42
Размер файла                             : 58,5 Мбайт
Продолжительность                        : 3 м. 27 с.
Режим общего битрейта                    : Переменный
Общий поток                              : 2361 Кбит/сек

Видео
Идентификатор                            : 1
Формат                                   : AVC
Формат/Информация                        : Advanced Video Codec
Профиль формата                          :
Параметр CABAC формата                   : Да
Параметр ReFrames формата                : 3 кадра
Идентификатор кодека                     : avc1
Идентификатор кодека/Информация          : Advanced Video Coding
Продолжительность                        : 3 м. 27 с.
Битрейт                                  : 2102 Кбит/сек
Ширина                                   : 1920 пикселей
Высота                                   : 1080 пикселей
Соотношение сторон                       : 16:9
Режим частоты кадров                     : Постоянный
Частота кадров                           : 25,000 кадров/сек
Цветовое пространство                    : YUV
Субдискретизация насыщенности            : 4:2:0
Битовая глубина                          : 8 бит
Тип развёртки                            : Прогрессивная
Бит/(Пиксели*Кадры)                      : 0.041
Размер потока                            : 52,0 Мбайт (89%)
Язык                                     : English

Аудио
Идентификатор                            : 2
Формат                                   : AAC
Формат/Информация                        : Advanced Audio Codec
Профиль формата                          : LC
Идентификатор кодека                     : 40
Продолжительность                        : 3 м. 27 с.
Продолжительность оригинала              : 3 м. 27 с.
Вид битрейта                             : Переменный
Битрейт                                  : 254 Кбит/сек
Каналы                                   : 2 канала
Расположение каналов                     : Front: L R
Частота                                  : 44,1 КГц
Метод сжатия                             : С потерями
Размер потока                            : 6,28 Мбайт (11%)
Размер потока оригинала                  : 6,28 Мбайт (11%)
Язык                                     : English
mdhd_Duration                            : 207702

Скриншоты:

 
Не забывайте говорить Спасибо. Не уходите с раздачи!   
Торрент: Зарегистрирован [02 апр 2015, 00:18] Скачать торрент
Скачать торрент
[ Размер 14.28 КБ / Просмотров 23 ]
Статус:
Проверен
 
.torrent скачан: 0 раз
Хэш: bd19406627f533ff770354e88546849cc7451bb8
Размер: 1.24 ГБ (1 327 487 054 байт)
Стать Автором раздачи
 
 
Раздал: 6.67 ГБ
Скачал: 302.5 МБ
Ратио: 22.576
Сообщения: 374198
Зарегистрирован: 17 апр 2014, 11:05


  • Похожие торренты
    Ответы
    Просмотры
    Последнее сообщение

Вернуться в Музыкальные клипы (транзит)

Ресурс не предоставляет электронные версии произведений, а занимается лишь коллекционированием и каталогизацией ссылок, присылаемых и публикуемых на форуме нашими читателями. Если вы являетесь правообладателем какого-либо представленного материала и не желаете чтобы ссылка на него находилась в нашем каталоге, свяжитесь с нами и мы незамедлительно удалим её. Файлы для обмена на трекере предоставлены пользователями сайта, и администрация не несёт ответственности за их содержание. Просьба не заливать файлы, защищенные авторскими правами, а также файлы нелегального содержания!
cron