Ходячие мертвецы / The Walking Dead (2010-2014) BDRip/WEB-DLRip [H.264] (Сезон 1-5, серии 1-67 из 67) LostFilm [MP4|640x360/640x352]

 
 Статистика раздачи 
Размер: 44.08 ГБ   |  Зарегистрирован: 01 апр 2015, 17:11   |   .torrent скачан: 0 раз
Сидеров: 2  [ 0 байт/сек ]     Личеров: 1  [ 0 байт/сек ]  
  

Ходячие мертвецы / The Walking Dead (2010-2014) BDRip/WEB-DLRip [H.264] (Сезон 1-5, серии 1-67 из 67) LostFilm [MP4|640x360/640x352]

Сообщение Thistoll » 01 апр 2015, 17:11

Ходячие мертвецы / The Walking Dead (2010-2014) BDRip/WEB-DLRip [H.264]
(Сезон 1-5, серии 1-67 из 67) LostFilm
«Fight the dead. Fear the living»

Производство: США
Жанр: Ужасы, мистика, триллер

Режиссер: Эрнест Р. Дикерсон, Билл Джирхарт, Гай Ферленд
Актеры: Эндрю Линкольн, Сара Уэйн Кэллис, Лори Холден, Стивен Юн, Чендлер Риггз, Норман Ридус, Айрон Э. Синглтон, Мелисса Сюзанн МакБрайд, Лорен Коэн, Джон Бернтал и др.

Описание фильма:
Сериал рассказывает историю жизни семьи шерифа после того, как «зомби» — эпидемия апокалипсических масштабов захлестнула земной шар. Шериф Рик Граймс путешествует со своей семьей и небольшой группой выживших в поисках безопасного места для жизни. Но постоянный страх смерти каждый день приносит тяжелые потери, заставляя героев почувствовать глубины человеческой жестокости. Рик пытается спасти свою семью, и открывает для себя, что всепоглощающий страх тех, кто выжил, может быть опаснее бессмысленных мертвецов, бродящих по земле. Сериал является экранизацией одноименной комикс-серии, которая начала выходить в 2003 году...

Сэмпл

Продолжительность: ~ 00:44:00 серия
Качество видео: BDRip (1-3 сезоны) | WEB-DLRip (4-5 сезоны)
Релиз от: HDClub и LostFilm
Перевод: Многоголосый закадровый, профессиональный
Озвучка / Автор перевода: Студия «LostFilm»

Видеокодек: MPEG-4 AVC/H.264
Битрейт видео: ~2000 Кбит/сек
Размер кадра: 640х360 / 640x352 (16:9)
Аудиокодек: AAC, 2 канала
Битрейт аудио: 128 Кбит/сек
Код:
Код: Выделить всё
Полное имя                               : M:\Ходячие мертвецы_(сезон-3)_Rip-HDClub_[3in1]_MP4_[nnm-club]\Ходячие мертвецы [LostFilm]\Сезон 1\The_Walking_Dead_s1e01_Rip-HDCLUB_[LostFilm].mp4
Формат                                   : MPEG-4
Профиль формата                          : Base Media
Идентификатор кодека                     : isom
Размер файла                             : 1023 Мбайт
Продолжительность                        : 1 ч. 7 м.
Режим общего битрейта                    : Переменный
Общий поток                              : 2132 Кбит/сек
Название фильма                          : The.Walking.Dead.S01E01.BDRip.400p.DD5.1.rus.LostFilm
Дата записи                              : 2013
Программа кодирования                    : Lavf52.33.0

Видео
Идентификатор                            : 1
Формат                                   : AVC
Формат/Информация                        : Advanced Video Codec
Профиль формата                          :
Параметр CABAC формата                   : Нет
Параметр ReFrames формата                : 1 кадр
Идентификатор кодека                     : avc1
Идентификатор кодека/Информация          : Advanced Video Coding
Продолжительность                        : 1 ч. 7 м.
Битрейт                                  : 2000 Кбит/сек
Ширина                                   : 640 пикселей
Высота                                   : 352 пикселя
Соотношение сторон                       : 16:9
Режим частоты кадров                     : Постоянный
Частота кадров                           : 24,000 кадра/сек
Цветовое пространство                    : YUV
Субдискретизация насыщенности            : 4:2:0
Битовая глубина                          : 8 бит
Тип развёртки                            : Прогрессивная
Бит/(Пиксели*Кадры)                      : 0.370
Размер потока                            : 959 Мбайт (94%)

Аудио
Идентификатор                            : 2
Формат                                   : AAC
Формат/Информация                        : Advanced Audio Codec
Профиль формата                          : LC
Идентификатор кодека                     : 40
Продолжительность                        : 1 ч. 7 м.
Вид битрейта                             : Переменный
Битрейт                                  : 128 Кбит/сек
Каналы                                   : 2 канала
Расположение каналов                     : Front: L R
Частота                                  : 48,0 КГц
Метод сжатия                             : С потерями
Размер потока                            : 61,4 Мбайт (6%)
Код:
Код: Выделить всё
Полное имя                               : M:\Ходячие мертвецы_(сезон-3)_Rip-HDClub_[3in1]_MP4_[nnm-club]\Ходячие мертвецы [LostFilm]\Сезон 2\The_Walking_Dead_s2e01_Rip-HDCLUB_[LostFilm].mp4
Формат                                   : MPEG-4
Профиль формата                          : Base Media
Идентификатор кодека                     : isom
Размер файла                             : 958 Мбайт
Продолжительность                        : 1 ч. 2 м.
Режим общего битрейта                    : Переменный
Общий поток                              : 2132 Кбит/сек
Название фильма                          : The.Walking.Dead.S02E01.BDRip.400p.DD5.1.rus.LostFilm
Дата записи                              : 2013
Программа кодирования                    : Lavf52.33.0

Видео
Идентификатор                            : 1
Формат                                   : AVC
Формат/Информация                        : Advanced Video Codec
Профиль формата                          :
Параметр CABAC формата                   : Нет
Параметр ReFrames формата                : 1 кадр
Идентификатор кодека                     : avc1
Идентификатор кодека/Информация          : Advanced Video Coding
Продолжительность                        : 1 ч. 2 м.
Битрейт                                  : 2000 Кбит/сек
Ширина                                   : 640 пикселей
Высота                                   : 352 пикселя
Соотношение сторон                       : 16:9
Режим частоты кадров                     : Постоянный
Частота кадров                           : 24,000 кадра/сек
Цветовое пространство                    : YUV
Субдискретизация насыщенности            : 4:2:0
Битовая глубина                          : 8 бит
Тип развёртки                            : Прогрессивная
Бит/(Пиксели*Кадры)                      : 0.370
Размер потока                            : 898 Мбайт (94%)

Аудио
Идентификатор                            : 2
Формат                                   : AAC
Формат/Информация                        : Advanced Audio Codec
Профиль формата                          : LC
Идентификатор кодека                     : 40
Продолжительность                        : 1 ч. 2 м.
Вид битрейта                             : Переменный
Битрейт                                  : 128 Кбит/сек
Каналы                                   : 2 канала
Расположение каналов                     : Front: L R
Частота                                  : 48,0 КГц
Метод сжатия                             : С потерями
Размер потока                            : 57,5 Мбайт (6%)
Код:
Код: Выделить всё
Полное имя                               : M:\Ходячие мертвецы_(сезон-3)_Rip-HDClub_[3in1]_MP4_[nnm-club]\Ходячие мертвецы [LostFilm]\Сезон 3\The_Walking_Dead_s3e01_Rip-HDCLUB_[LostFilm].mp4
Формат                                   : MPEG-4
Профиль формата                          : Base Media
Идентификатор кодека                     : isom
Размер файла                             : 657 Мбайт
Продолжительность                        : 43 м.
Режим общего битрейта                    : Переменный
Общий поток                              : 2132 Кбит/сек
Название фильма                          : The.Walking.Dead.S03E01.Seed.1080p.WEB-DL.3xRus.Ukr.HDCLUB
Дата записи                              : 2012
Программа кодирования                    : Lavf52.33.0

Видео
Идентификатор                            : 1
Формат                                   : AVC
Формат/Информация                        : Advanced Video Codec
Профиль формата                          :
Параметр CABAC формата                   : Нет
Параметр ReFrames формата                : 1 кадр
Идентификатор кодека                     : avc1
Идентификатор кодека/Информация          : Advanced Video Coding
Продолжительность                        : 43 м.
Битрейт                                  : 1999 Кбит/сек
Ширина                                   : 640 пикселей
Высота                                   : 360 пикселей
Соотношение сторон                       : 1,739
Режим частоты кадров                     : Постоянный
Частота кадров                           : 24,000 кадра/сек
Цветовое пространство                    : YUV
Субдискретизация насыщенности            : 4:2:0
Битовая глубина                          : 8 бит
Тип развёртки                            : Прогрессивная
Бит/(Пиксели*Кадры)                      : 0.354
Размер потока                            : 616 Мбайт (94%)

Аудио
Идентификатор                            : 2
Формат                                   : AAC
Формат/Информация                        : Advanced Audio Codec
Профиль формата                          : LC
Идентификатор кодека                     : 40
Продолжительность                        : 43 м.
Вид битрейта                             : Переменный
Битрейт                                  : 128 Кбит/сек
Каналы                                   : 2 канала
Расположение каналов                     : Front: L R
Частота                                  : 48,0 КГц
Метод сжатия                             : С потерями
Размер потока                            : 39,4 Мбайт (6%)
Код:
Код: Выделить всё
Полное имя                               : M:\Ходячие мертвецы_(сезон-3)_Rip-HDClub_[3in1]_MP4_[nnm-club]\Ходячие мертвецы [LostFilm]\Сезон 4\The_Walking_Dead_s4e01_Rip-HDCLUB_[LostFilm].mp4
Формат                                   : MPEG-4
Профиль формата                          : Base Media
Идентификатор кодека                     : isom
Размер файла                             : 659 Мбайт
Продолжительность                        : 43 м.
Режим общего битрейта                    : Переменный
Общий поток                              : 2132 Кбит/сек
Название фильма                          : The.Walking.Dead.S04E01.720p.rus.LostFilm.TV
Дата записи                              : 2013
Программа кодирования                    : Lavf52.33.0

Видео
Идентификатор                            : 1
Формат                                   : AVC
Формат/Информация                        : Advanced Video Codec
Профиль формата                          :
Параметр CABAC формата                   : Нет
Параметр ReFrames формата                : 1 кадр
Идентификатор кодека                     : avc1
Идентификатор кодека/Информация          : Advanced Video Coding
Продолжительность                        : 43 м.
Duration_LastFrame                       : -41 мс.
Битрейт                                  : 2000 Кбит/сек
Ширина                                   : 640 пикселей
Высота                                   : 360 пикселей
Соотношение сторон                       : 16:9
Режим частоты кадров                     : Постоянный
Частота кадров                           : 23,976 кадра/сек
Цветовое пространство                    : YUV
Субдискретизация насыщенности            : 4:2:0
Битовая глубина                          : 8 бит
Тип развёртки                            : Прогрессивная
Бит/(Пиксели*Кадры)                      : 0.362
Размер потока                            : 618 Мбайт (94%)

Аудио
Идентификатор                            : 2
Формат                                   : AAC
Формат/Информация                        : Advanced Audio Codec
Профиль формата                          : LC
Идентификатор кодека                     : 40
Продолжительность                        : 43 м.
Вид битрейта                             : Переменный
Битрейт                                  : 128 Кбит/сек
Каналы                                   : 2 канала
Расположение каналов                     : Front: L R
Частота                                  : 48,0 КГц
Метод сжатия                             : С потерями
Размер потока                            : 39,5 Мбайт (6%)
Код:
Код: Выделить всё
Полное имя                               : M:\Ходячие мертвецы_(сезон-3)_Rip-HDClub_[3in1]_MP4_[nnm-club]\Ходячие мертвецы [LostFilm]\Сезон 5\The_Walking_Dead_s5e01_WEB-DLRip_[LostFilm].mp4
Формат                                   : MPEG-4
Профиль формата                          : Base Media
Идентификатор кодека                     : isom
Размер файла                             : 669 Мбайт
Продолжительность                        : 43 м.
Режим общего битрейта                    : Переменный
Общий поток                              : 2133 Кбит/сек
Название фильма                          : The.Walking.Dead.S05E01.1080p.rus.LostFilm.TV
Дата записи                              : 2014
Программа кодирования                    : Lavf52.33.0

Видео
Идентификатор                            : 1
Формат                                   : AVC
Формат/Информация                        : Advanced Video Codec
Профиль формата                          :
Параметр CABAC формата                   : Нет
Параметр ReFrames формата                : 1 кадр
Идентификатор кодека                     : avc1
Идентификатор кодека/Информация          : Advanced Video Coding
Продолжительность                        : 43 м.
Битрейт                                  : 2000 Кбит/сек
Ширина                                   : 640 пикселей
Высота                                   : 352 пикселя
Соотношение сторон                       : 16:9
Режим частоты кадров                     : Постоянный
Частота кадров                           : 24,000 кадра/сек
Цветовое пространство                    : YUV
Субдискретизация насыщенности            : 4:2:0
Битовая глубина                          : 8 бит
Тип развёртки                            : Прогрессивная
Бит/(Пиксели*Кадры)                      : 0.370
Размер потока                            : 627 Мбайт (94%)

Аудио
Идентификатор                            : 2
Формат                                   : AAC
Формат/Информация                        : Advanced Audio Codec
Профиль формата                          : LC
Идентификатор кодека                     : 40
Продолжительность                        : 43 м.
Вид битрейта                             : Переменный
Битрейт                                  : 128 Кбит/сек
Каналы                                   : 2 канала
Расположение каналов                     : Front: L R
Частота                                  : 48,0 КГц
Метод сжатия                             : С потерями
Размер потока                            : 40,1 Мбайт (6%)
01 - Всё уже в прошлом / Days Gone Bye
02 - Кишки / Guts
03 - Расскажи лягушкам / Tell It to the Frogs
04 - Братки / Vatos
05 - Инфекция / Wildfire
06 - Подопытный / TS-19
01 - Что ждет впереди / What Lies Ahead
02 - Кровопускание / Bloodletting
03 - Прибереги последний / Save the Last One
04 - Роза Чероки / Cherokee Rose
05 - Чупакабра / Chupacabra
06 - Тайны / Secrets
07 - Почти мертв / Pretty Much Dead Already
08 - Небраска / Nebraska
09 - Палец на курке / Triggerfinger
10 - Еще 18 миль / 18 Miles Out
11 - Судья, присяжный и палач / Judge, Jury, Executioner
12 - Новые ангелы / Better Angels
13 - Затухающий костёр / Beside the Dying Fire
01 - Семя / Seed
02 - Больные / Sick
03 - Идем со мной / Walk with Me
04 - Убийца внутри / Killer Within
05 - Как прикажешь / Say the Word
06 - Затравленные / Hounded
07 - Когда мертвые стучатся / When the Dead Come Knocking
08 - Рожденный страдать / Made to Suffer
09 - Червовый король / The Suicide King
10 - Дома / Home
11 - Я не Иуда / I Ain't a Judas
12 - Очистись / Clear
13 - Стрела в дверном косяке / Arrow on the Doorpost
14 - Добыча / Prey
15 - Эта жалкая жизнь / This Sorrowful Life
16 - Добро пожаловать в могилы / Welcome to the Tombs
01 - 30 дней без происшествий / 30 Days Without an Accident
02 - Инфекция / Infected
03 - Изоляция / Isolation
04 - Безразличие / Indifference
05 - Погребение / Internment
06 - Живая приманка / Live Bait
07 - Мёртвый груз / Dead Weight
08 - Зайдя слишком далеко / Too Far Gone
09 - После / After
10 - Беглецы / Inmates
11 - Присвоенное / Claimed
12 - Тупик / Still
13 - Одиночество / Alone
14 - Роща / The Grove
15 - Мы / Us
16 - А
01 - Убежища нет / No Sanctuary
02 - Незнакомцы / Strangers
03 - Четыре стены и крыша / Four Walls and a Roof
04 - Слэбтаун / Slabtown
05 - Самообслуживание / Self Help
06 - Поглощённые / Consumed
07 - Обман / Crossed
08 - Кода / Coda
09 - Что случилось и что происходит / What Happened and What's Going On
10 - Они / Them
11 - Дистанция / The Distance
12 - Помни / Remember
13 - Забудь / Forget
14 - Тратить / Spend
15 - Стараться / Try

01.04.2015. Добавлена 16-я серия 5-го сезона.

Время раздачи:
24/7 - круглосуточно
(до первых 5-ти сидов - потом по возможности)
 
Не забывайте говорить Спасибо. Не уходите с раздачи!   
Торрент: Зарегистрирован [01 апр 2015, 17:11] Для скачивания .torrent
необходима регистрация
Или скачать с помощью
MediaGet
Статус:
Проверен
 
.torrent скачан: 0 раз
Хэш: 17c394b9f2ce31f54a568afcbd9cfdfb76b63357
Размер: 44.08 ГБ (47 335 037 255 байт)
Стать Автором раздачи
 
 
Раздал: 6.67 ГБ
Скачал: 302.5 МБ
Ратио: 22.576
Сообщения: 374198
Зарегистрирован: 17 апр 2014, 11:05


  • Похожие торренты
    Ответы
    Просмотры
    Последнее сообщение

Вернуться в Видео для мобильных устройств

Ресурс не предоставляет электронные версии произведений, а занимается лишь коллекционированием и каталогизацией ссылок, присылаемых и публикуемых на форуме нашими читателями. Если вы являетесь правообладателем какого-либо представленного материала и не желаете чтобы ссылка на него находилась в нашем каталоге, свяжитесь с нами и мы незамедлительно удалим её. Файлы для обмена на трекере предоставлены пользователями сайта, и администрация не несёт ответственности за их содержание. Просьба не заливать файлы, защищенные авторскими правами, а также файлы нелегального содержания!
cron