Большие глаза / Big Eyes (2014) BDRip [H.264] [MP4|854x480]

 
 Статистика раздачи 
Размер: 1.6 ГБ   |  Зарегистрирован: 01 апр 2015, 17:05   |   .torrent скачан: 0 раз
Сидеров: 1  [ 0 байт/сек ]     Личеров: 0  [ 0 байт/сек ]  
  

Большие глаза / Big Eyes (2014) BDRip [H.264] [MP4|854x480]

Сообщение Thistoll » 01 апр 2015, 17:05

Большие глаза (Big Eyes) (2014) BDRip

«She created it. He sold it. And they bought it»

Производство: США, Канада
Жанр: Драма, Биография

Описание фильма:
Яркая и цветущая Америка 50-х. В сочных красках Сан-Франциско зарождается то, что разрушит традиционный взгляд на искусство и бесповоротно изменит то, как выглядит наша жизнь. Появившийся из ниоткуда художник Уолтер Кин придумал поп-арт. Его необычные картины, изображающие трогательных детей с огромными глазами, произвели настоящий фурор и буквально заполонили весь мир. Их печатают на календарях, открытках, домохозяйки щеголяют в фартуках с их изображением. Уолтер становится королем современного искусства, одним из самых известных арт-деятелей планеты.
Но на пике славы художника его скромная супруга Маргарет вдруг утверждает, что Уолтер — мошенник, и именно она — автор знаменитых картин. Неожиданно открываются шокирующие подробности жизни четы Кин. Весь мир замер в ожидании ответа на вопрос: кто же все-таки тот гений, чьи смелые и оригинальные картины украшают теперь каждую гостиную от Парижа до Аляски?

Режиссер: Тим Бёртон
Продюсер: Скотт Александер, Тим Бёртон, Линетт Хауэлл
Актеры: Эми Адамс, Кристоф Вальц, Кристен Риттер, Джейсон Шварцман, Дэнни Хьюстон, Теренс Стэмп, Джон Полито, Элизабетта Фантоне, Джеймс Саито, Гуидо Фурлани

Продолжительность: 01:45:44
Перевод: Дублированный (iTunes)

Дата мировой премьеры: 13 ноября 2014
Дата российской премьеры: 8 января 2015
Дата украинской премьеры: 15 января 2015
Дата выхода DVD релиза: 24 марта 2015
Формат: MP4
Качество видео: BDRip 480p
Видеокодек: MPEG-4 AVC/H.264
Битрейт видео: ~2000 kb/s
Размер кадра: 854x480
Аудиокодек: AAC
Битрейт аудио: 161 kb/s 2.0 VBR LC
Код:
Код: Выделить всё
Общее
Полное имя                               : F:\Большие глаза.2014.BDRip.480p.NNM-Club.mp4
Формат                                   : MPEG-4
Профиль формата                          : Base Media
Идентификатор кодека                     : isom
Размер файла                             : 1,60 Гбайт
Продолжительность                        : 1 ч. 45 м.
Режим общего битрейта                    : Переменный
Общий поток                              : 2164 Кбит/сек
Дата кодирования                         : UTC 2015-04-01 03:35:47
Дата пометки                             : UTC 2015-04-01 03:35:47

Видео
Идентификатор                            : 1
Формат                                   : AVC
Формат/Информация                        : Advanced Video Codec
Профиль формата                          :
Параметр CABAC формата                   : Да
Параметр ReFrames формата                : 8 кадров
Идентификатор кодека                     : avc1
Идентификатор кодека/Информация          : Advanced Video Coding
Продолжительность                        : 1 ч. 45 м.
Битрейт                                  : 2000 Кбит/сек
Максимальный битрейт                     : 5095 Кбит/сек
Ширина                                   : 854 пикселя
Высота                                   : 480 пикселей
Соотношение сторон                       : 16:9
Режим частоты кадров                     : Постоянный
Частота кадров                           : 23,976 кадра/сек
Цветовое пространство                    : YUV
Субдискретизация насыщенности            : 4:2:0
Битовая глубина                          : 8 бит
Тип развёртки                            : Прогрессивная
Бит/(Пиксели*Кадры)                      : 0.203
Размер потока                            : 1,48 Гбайт (92%)
Заголовок                                : Big Eyes
Библиотека кодирования                   : x264 core 146 r2538 121396c
Настройки программы                      : cabac=1 / ref=8 / deblock=1:-2:-2 / analyse=0x1:0x131 / me=umh / subme=9 / psy=1 / psy_rd=1.00:0.00 / mixed_ref=1 / me_range=48 / chroma_me=1 / trellis=2 / 8x8dct=0 / cqm=0 / deadzone=21,11 / fast_pskip=0 / chroma_qp_offset=-2 / threads=3 / lookahead_threads=1 / sliced_threads=0 / nr=0 / decimate=1 / interlaced=0 / bluray_compat=0 / constrained_intra=0 / bframes=6 / b_pyramid=2 / b_adapt=2 / b_bias=0 / direct=3 / weightb=1 / open_gop=0 / weightp=2 / keyint=240 / keyint_min=23 / scenecut=40 / intra_refresh=0 / rc_lookahead=40 / rc=2pass / mbtree=0 / bitrate=2000 / ratetol=1.0 / qcomp=0.60 / qpmin=10 / qpmax=51 / qpstep=4 / cplxblur=20.0 / qblur=0.5 / vbv_maxrate=20000 / vbv_bufsize=25000 / nal_hrd=none / filler=0 / ip_ratio=1.40 / pb_ratio=1.30 / aq=1:1.00
Дата кодирования                         : UTC 2015-04-01 03:35:47
Дата пометки                             : UTC 2015-04-01 03:37:03

Аудио
Идентификатор                            : 2
Формат                                   : AAC
Формат/Информация                        : Advanced Audio Codec
Профиль формата                          : LC
Идентификатор кодека                     : 40
Продолжительность                        : 1 ч. 45 м.
Вид битрейта                             : Переменный
Битрейт                                  : 161 Кбит/сек
Максимальный битрейт                     : 208 Кбит/сек
Каналы                                   : 2 канала
Расположение каналов                     : Front: L R
Частота                                  : 44,1 КГц
Метод сжатия                             : С потерями
Размер потока                            : 122 Мбайт (7%)
Заголовок                                : DUB iTunes
Язык                                     : Russian
Дата кодирования                         : UTC 2015-04-01 02:59:44
Дата пометки                             : UTC 2015-04-01 03:37:03
• Фильм снят по мотивам книги Маргарет Кин «Большие глаза. Загадочная история Маргарет Кин».
• Изначально вместо Эми Адамс и Кристофа Вальца на главные роли рассматривались кандидатуры Риз Уизерспун и Райана Рейнольдса.
• В сцене, где Уолтер и Маргарет рисуют в парке, на заднем плане на скамье сидит настоящая Маргарет Кин.
Золотой глобус, 2015 год

Победитель (1):

*** Лучшая женская роль (комедия или мюзикл) (Эми Адамс)

Номинации (2):

*** Лучшая мужская роль (комедия или мюзикл) (Кристоф Вальц)
*** Лучшая песня — «Song: Big Eyes»

Британская академия, 2015 год

Номинации (2):

*** Лучшая женская роль (Эми Адамс)
*** Лучшая работа художника-постановщика (Рик Хайнрихс, Шэйн Виё)
Скриншоты



Время раздачи: Круглосуточно, до первых 10-и скачавших
Приятного просмотра!
 
Не забывайте говорить Спасибо. Не уходите с раздачи!   
Торрент: Зарегистрирован [01 апр 2015, 17:05] Для скачивания .torrent
необходима регистрация
Или скачать с помощью
MediaGet
Статус:
Проверен
 
.torrent скачан: 0 раз
Хэш: f21682623bb7109c5695952c8a5b8b23eb9df447
Размер: 1.6 ГБ (1 716 289 552 байт)
Стать Автором раздачи
 
 
Раздал: 6.67 ГБ
Скачал: 302.5 МБ
Ратио: 22.576
Сообщения: 374198
Зарегистрирован: 17 апр 2014, 11:05


  • Похожие торренты
    Ответы
    Просмотры
    Последнее сообщение

Вернуться в Видео для мобильных устройств

Ресурс не предоставляет электронные версии произведений, а занимается лишь коллекционированием и каталогизацией ссылок, присылаемых и публикуемых на форуме нашими читателями. Если вы являетесь правообладателем какого-либо представленного материала и не желаете чтобы ссылка на него находилась в нашем каталоге, свяжитесь с нами и мы незамедлительно удалим её. Файлы для обмена на трекере предоставлены пользователями сайта, и администрация не несёт ответственности за их содержание. Просьба не заливать файлы, защищенные авторскими правами, а также файлы нелегального содержания!
cron