Черные паруса / Black Sails (2015) HDTVRip [H.264] (Сезон 2, серии 1-10 из 10) LostFilm [MP4|1280x720]

 
 Статистика раздачи 
Размер: 16.3 ГБ   |  Зарегистрирован: 01 апр 2015, 16:59   |   .torrent скачан: 0 раз
Сидеров: 1  [ 0 байт/сек ]     Личеров: 4  [ 0 байт/сек ]  
  

Черные паруса / Black Sails (2015) HDTVRip [H.264] (Сезон 2, серии 1-10 из 10) LostFilm [MP4|1280x720]

Сообщение Thistoll » 01 апр 2015, 16:59

Черные паруса / Black Sails (2015) HDTVRip [H.264] (Сезон 2, серии 1-10 из 10) LostFilm

Производство: США, ЮАР
Жанр: Драма, приключения

Режиссер: Нил Маршалл, Сэм Миллер, Т.Дж. Скотт
Актеры: Тоби Стивенс, Ханна Нью, Люк Арнольд, Зэк Макгоун, Тоби Шмитц, Клара Пэджет, Марк Райан, Хаким Кае-Казим, Дилан Скьюс, Шон Майкл и др.

Описание:
1715 год. Золотой век — вершина пиратства в Карибском море. Остров бывшей британской колонии Нью-Провиденс является территорией беззакония, контролируемый самыми известными пиратскими капитанами в истории. Самым грозным из них является капитан Флинт.Но британский флот возвращается в эти воды, угрожая уничтожить Флинта и его команду. Движимый глубокими, сложными, даже романтическими мотивами, Флинт становится союзником с грозной Элеонорой Гатри, дочерью местного вора в законе, который превращает добычу пиратов в прибыль. Вместе они создают план, охотясь за высшей наградой, выиграв которую, они остановят захват своего дома и обеспечат их выживание.Им противостоит ряд соперников: конкурент капитана, завидующий власти Флинта, отец Элеоноры, чьи амбиции на острове приводят к конфликту с дочерью, и молодой моряк, Джон Сильвер, недавно принятый в экипаж Флинта, которому каким-то образом удается постоянно срывать планы своего капитана.

Сэмпл
Ограничение по возрасту: 18+

Продолжительность: ~ 00:52:00 серия
Качество видео: HDTVRip 720p | WEB-DL 720p (8-10 серии)
Перевод: Многоголосый закадровый, профессиональный - LostFilm
Озвучка / Автор перевода: Студия «LostFilm»

Видеокодек: AVC/H.264
Битрейт видео: ~4000 Кбит/сек
Размер кадра: 1280x720 (16:9)
Аудиокодек: AAC, 2 канала
Битрейт аудио: ~265 Кбит/сек
Код:
Код: Выделить всё
Полное имя                               : N:\Black_Sails_s2_HDTVRip720p_x264_LostFilm_[NNM-CLUB]\Black.Sails.S02E01.720p.WEB.rus.LostFilm.TV.mp4
Формат                                   : MPEG-4
Профиль формата                          : Base Media
Идентификатор кодека                     : isom
Размер файла                             : 1,54 Гбайт
Продолжительность                        : 52 м.
Режим общего битрейта                    : Переменный
Общий поток                              : 4198 Кбит/сек
Коллекция                                : Черные паруса
Сезон                                    : 2
Альбом                                   : Черные паруса, Сезон 2
Альбом/Исполнитель                       : Черные паруса
Часть                                    : 1
Часть/Положение                          : 2
Трек                                     : IX.
Трек/Положение                           : 1
Исполнитель                              : Черные паруса
Жанр                                     : Drama
Тип содержимого                          : TV Show
Дата записи                              : 2015
Дата кодирования                         : UTC 2015-01-26 16:11:50
Дата пометки                             : UTC 2015-01-26 16:11:50
Программа кодирования                    : Yamb 2.1.0.0 [http:/yamb.unite-video.com] / LostCoder
Правообладатель                          : LostFilm.TV (c)
Обложка                                  : Yes
Примечание                               : За 20 лет до событий романа "Остров сокровищ" Стивенсона капитан Флинт, один из самых суровых и властных флибустьеров, оказался на пороге получения невероятной добычи.
Part_ID                                  : 201

Видео
Идентификатор                            : 1
Формат                                   : AVC
Формат/Информация                        : Advanced Video Codec
Профиль формата                          :
Параметр CABAC формата                   : Нет
Параметр ReFrames формата                : 4 кадра
Идентификатор кодека                     : avc1
Идентификатор кодека/Информация          : Advanced Video Coding
Продолжительность                        : 52 м.
Битрейт                                  : 4000 Кбит/сек
Максимальный битрейт                     : 6037 Кбит/сек
Ширина                                   : 1280 пикселей
Высота                                   : 720 пикселей
Соотношение сторон                       : 16:9
Режим частоты кадров                     : Постоянный
Частота кадров                           : 23,976 кадра/сек
Цветовое пространство                    : YUV
Субдискретизация насыщенности            : 4:2:0
Битовая глубина                          : 8 бит
Тип развёртки                            : Прогрессивная
Бит/(Пиксели*Кадры)                      : 0.181
Размер потока                            : 1,44 Гбайт (94%)
Заголовок                                : Imported with GPAC 0.4.6-DEV (internal rev. 5)
Библиотека кодирования                   : x264 core 112 r1834 a51816a
Настройки программы                      : cabac=0 / ref=3 / deblock=1:0:0 / analyse=0x3:0x113 / me=hex / subme=7 / psy=1 / psy_rd=1.00:0.00 / mixed_ref=1 / me_range=16 / chroma_me=1 / trellis=1 / 8x8dct=1 / cqm=0 / deadzone=21,11 / fast_pskip=1 / chroma_qp_offset=-2 / threads=6 / sliced_threads=0 / nr=0 / decimate=1 / interlaced=0 / constrained_intra=0 / bframes=3 / b_pyramid=2 / b_adapt=1 / b_bias=0 / direct=1 / weightb=1 / open_gop=0 / weightp=2 / keyint=250 / keyint_min=25 / scenecut=40 / intra_refresh=0 / rc_lookahead=40 / rc=abr / mbtree=1 / bitrate=4000 / ratetol=1.0 / qcomp=0.60 / qpmin=0 / qpmax=51 / qpstep=4 / vbv_maxrate=5000 / vbv_bufsize=2000 / ip_ratio=1.40 / aq=1:1.00 / nal_hrd=none
Дата кодирования                         : UTC 2015-01-24 18:04:57
Дата пометки                             : UTC 2015-01-26 16:13:39

Аудио
Идентификатор                            : 2
Формат                                   : AAC
Формат/Информация                        : Advanced Audio Codec
Профиль формата                          : LC
Идентификатор кодека                     : 40
Продолжительность                        : 52 м.
Вид битрейта                             : Переменный
Битрейт                                  : 265 Кбит/сек
Максимальный битрейт                     : 320 Кбит/сек
Каналы                                   : 2 канала
Расположение каналов                     : Front: L R
Частота                                  : 48,0 КГц
Метод сжатия                             : С потерями
Размер потока                            : 98,0 Мбайт (6%)
Дата кодирования                         : UTC 2015-01-26 16:13:35
Дата пометки                             : UTC 2015-01-26 16:13:39

Скриншоты:



Время раздачи:
24/7 - круглосуточно
(до первых 5-ти сидов - потом по возможности)
 
Не забывайте говорить Спасибо. Не уходите с раздачи!   
Торрент: Зарегистрирован [01 апр 2015, 16:59] Для скачивания .torrent
необходима регистрация
Или скачать с помощью
MediaGet
Статус:
Проверен
 
.torrent скачан: 0 раз
Хэш: a8d68fbf1442218047787161c7d4b7e862f4d67a
Размер: 16.3 ГБ (17 503 830 581 байт)
Стать Автором раздачи
 
 
Раздал: 6.67 ГБ
Скачал: 302.5 МБ
Ратио: 22.576
Сообщения: 374198
Зарегистрирован: 17 апр 2014, 11:05


  • Похожие торренты
    Ответы
    Просмотры
    Последнее сообщение

Вернуться в Видео для мобильных устройств

Ресурс не предоставляет электронные версии произведений, а занимается лишь коллекционированием и каталогизацией ссылок, присылаемых и публикуемых на форуме нашими читателями. Если вы являетесь правообладателем какого-либо представленного материала и не желаете чтобы ссылка на него находилась в нашем каталоге, свяжитесь с нами и мы незамедлительно удалим её. Файлы для обмена на трекере предоставлены пользователями сайта, и администрация не несёт ответственности за их содержание. Просьба не заливать файлы, защищенные авторскими правами, а также файлы нелегального содержания!
cron