VA - Ministry of Sound: Chilled (2015) (3CD) [FLAC|Lossless]<Downtempo, Ambient, House>

 
 Статистика раздачи 
Размер: 1.44 ГБ   |  Зарегистрирован: 30 мар 2015, 22:44   |   .torrent скачан: 1 раз
Сидеров: 1  [ 0 байт/сек ]     Личеров: 0  [ 0 байт/сек ]  
  

VA - Ministry of Sound: Chilled (2015) (3CD) [FLAC|Lossless]<Downtempo, Ambient, House>

Сообщение Thistoll » 30 мар 2015, 22:44

VA - Ministry of Sound: Chilled (2015)

Год: 2015
Жанр: Downtempo, Ambient, House
Продолжительность: 03:55:04
Издатель (лейбл): Ministry of Sound
Номер по каталогу: MOSCD394

Кодек: FLAC
Битрейт: Lossless
Тип рипа: tracks+.cue

CD-1:
Продолжительность: 01:15:49
Треклист:
01. Ed Sheeran - The A Team
02. Sam Smith - Latch (acoustic)
03. Hozier - Take Me to Church
04. Passenger - Let Her Go
05. London Grammar - Strong
06. Ben Howard - I Forget Where We Were
07. Rhodes - Breathe
08. alt-J - Hunger of the Pine (Sleeplessly Embracing)
09. Lana Del Ray - West Coast
10. Banks - Drowning
11. FKA Twigs - Two Weeks
12. Jungle - Busy Earnin'
13. Emma Louise - Jungle
14. L'Orchestra Cinematique - Crazy in Love
15. Lo-Fang - You're the One That I Want
16. Lapsley - Falling Short
17. Naughty Boy feat. Sam Smith - La La La
18. Tove Lo feat. Hippie Sabotage - Stay High (Habits remix)
19. Milky Chance - Stolen Dance (FlicFlac club edit)
20. Nick Mulvey - Cucurucu
Код:
Код: Выделить всё
Exact Audio Copy V1.0 beta 4 from 7. December 2014

EAC extraction logfile from 24. March 2015, 8:42

Various Artists / Ministry of Sound: Chilled (Disc 1)

Used drive  : TSSTcorpCDDVDW SN-208FB   Adapter: 1  ID: 0

Read mode               : Secure
Utilize accurate stream : Yes
Defeat audio cache      : Yes
Make use of C2 pointers : No

Read offset correction                      : 6
Overread into Lead-In and Lead-Out          : No
Fill up missing offset samples with silence : Yes
Delete leading and trailing silent blocks   : No
Null samples used in CRC calculations       : Yes
Used interface                              : Native Win32 interface for Win NT & 2000
Gap handling                                : Appended to previous track

Used output format              : User Defined Encoder
Selected bitrate                : 1024 kBit/s
Quality                         : High
Add ID3 tag                     : No
Command line compressor         : C:\Program Files (x86)\Kodeki za Glasbo\FLAC\flac.exe
Additional command line options : -8 -V -T "ARTIST=%artist%" -T "TITLE=%title%" -T "ALBUM=%albumtitle%" -T "DATE=%year%" -T "TRACKNUMBER=%tracknr%" -T "TOTALTRACKS=%numtracks%" -T "GENRE=%genre%" -T "ALBUMARTIST=%albumartist%" -T "ALBUM ARTIST=%albumartist%" -T "COMMENT=EAC Secure Mode, Test & Copy, AccurateRip, FLAC -8" %source%

TOC of the extracted CD

     Track |   Start  |  Length  | Start sector | End sector
    ---------------------------------------------------------
        1  |  0:00.00 |  4:17.19 |         0    |    19293
        2  |  4:17.19 |  3:38.33 |     19294    |    35676
        3  |  7:55.52 |  3:59.08 |     35677    |    53609
        4  | 11:54.60 |  4:09.15 |     53610    |    72299
        5  | 16:04.00 |  3:53.63 |     72300    |    89837
        6  | 19:57.63 |  4:21.02 |     89838    |   109414
        7  | 24:18.65 |  3:38.74 |    109415    |   125838
        8  | 27:57.64 |  4:47.74 |    125839    |   147437
        9  | 32:45.63 |  4:08.54 |    147438    |   166091
       10  | 36:54.42 |  4:07.14 |    166092    |   184630
       11  | 41:01.56 |  4:01.20 |    184631    |   202725
       12  | 45:03.01 |  2:57.13 |    202726    |   216013
       13  | 48:00.14 |  3:16.30 |    216014    |   230743
       14  | 51:16.44 |  1:57.53 |    230744    |   239571
       15  | 53:14.22 |  3:16.34 |    239572    |   254305
       16  | 56:30.56 |  3:20.72 |    254306    |   269377
       17  | 59:51.53 |  3:35.03 |    269378    |   285505
       18  | 63:26.56 |  3:50.33 |    285506    |   302788
       19  | 67:17.14 |  4:36.09 |    302789    |   323497
       20  | 71:53.23 |  3:57.68 |    323498    |   341340

Track  1

     Filename M:\3. my rip in preparation\3\VA - Ministry of Sound-Chilled (2015) [FLAC] {3CD Box Set, Digipak, Ministry of Sound MOSCD394}\CD1\01 - Ed Sheeran - The A Team.wav

     Pre-gap length  0:00:02.00

     Peak level 98.8 %
     Extraction speed 2.8 X
     Track quality 100.0 %
     Test CRC 96EDCEB9
     Copy CRC 96EDCEB9
     Track not present in AccurateRip database
     Copy OK

Track  2

     Filename M:\3. my rip in preparation\3\VA - Ministry of Sound-Chilled (2015) [FLAC] {3CD Box Set, Digipak, Ministry of Sound MOSCD394}\CD1\02 - Sam Smith - Latch (acoustic).wav

     Peak level 98.8 %
     Extraction speed 2.4 X
     Track quality 99.9 %
     Test CRC 1EB1F9AC
     Copy CRC 1EB1F9AC
     Track not present in AccurateRip database
     Copy OK

Track  3

     Filename M:\3. my rip in preparation\3\VA - Ministry of Sound-Chilled (2015) [FLAC] {3CD Box Set, Digipak, Ministry of Sound MOSCD394}\CD1\03 - Hozier - Take Me to Church.wav

     Peak level 98.8 %
     Extraction speed 3.2 X
     Track quality 100.0 %
     Test CRC 0EE6BAC9
     Copy CRC 0EE6BAC9
     Track not present in AccurateRip database
     Copy OK

Track  4

     Filename M:\3. my rip in preparation\3\VA - Ministry of Sound-Chilled (2015) [FLAC] {3CD Box Set, Digipak, Ministry of Sound MOSCD394}\CD1\04 - Passenger - Let Her Go.wav

     Peak level 98.8 %
     Extraction speed 3.4 X
     Track quality 100.0 %
     Test CRC E9BE11F2
     Copy CRC E9BE11F2
     Track not present in AccurateRip database
     Copy OK

Track  5

     Filename M:\3. my rip in preparation\3\VA - Ministry of Sound-Chilled (2015) [FLAC] {3CD Box Set, Digipak, Ministry of Sound MOSCD394}\CD1\05 - London Grammar - Strong.wav

     Peak level 98.8 %
     Extraction speed 3.5 X
     Track quality 100.0 %
     Test CRC 553980B7
     Copy CRC 553980B7
     Track not present in AccurateRip database
     Copy OK

Track  6

     Filename M:\3. my rip in preparation\3\VA - Ministry of Sound-Chilled (2015) [FLAC] {3CD Box Set, Digipak, Ministry of Sound MOSCD394}\CD1\06 - Ben Howard - I Forget Where We Were.wav

     Peak level 98.8 %
     Extraction speed 3.8 X
     Track quality 100.0 %
     Test CRC 8FB07223
     Copy CRC 8FB07223
     Track not present in AccurateRip database
     Copy OK

Track  7

     Filename M:\3. my rip in preparation\3\VA - Ministry of Sound-Chilled (2015) [FLAC] {3CD Box Set, Digipak, Ministry of Sound MOSCD394}\CD1\07 - Rhodes - Breathe.wav

     Peak level 93.7 %
     Extraction speed 3.9 X
     Track quality 100.0 %
     Test CRC A7CDAD8C
     Copy CRC A7CDAD8C
     Track not present in AccurateRip database
     Copy OK

Track  8

     Filename M:\3. my rip in preparation\3\VA - Ministry of Sound-Chilled (2015) [FLAC] {3CD Box Set, Digipak, Ministry of Sound MOSCD394}\CD1\08 - alt-J - Hunger of the Pine (Sleeplessly Embracing).wav

     Peak level 91.2 %
     Extraction speed 4.2 X
     Track quality 100.0 %
     Test CRC D96B0EDD
     Copy CRC D96B0EDD
     Track not present in AccurateRip database
     Copy OK

Track  9

     Filename M:\3. my rip in preparation\3\VA - Ministry of Sound-Chilled (2015) [FLAC] {3CD Box Set, Digipak, Ministry of Sound MOSCD394}\CD1\09 - Lana Del Ray - West Coast.wav

     Peak level 80.2 %
     Extraction speed 4.3 X
     Track quality 100.0 %
     Test CRC BF8E3ECE
     Copy CRC BF8E3ECE
     Track not present in AccurateRip database
     Copy OK

Track 10

     Filename M:\3. my rip in preparation\3\VA - Ministry of Sound-Chilled (2015) [FLAC] {3CD Box Set, Digipak, Ministry of Sound MOSCD394}\CD1\10 - Banks - Drowning.wav

     Peak level 92.0 %
     Extraction speed 4.3 X
     Track quality 100.0 %
     Test CRC EFCFE9F1
     Copy CRC EFCFE9F1
     Track not present in AccurateRip database
     Copy OK

Track 11

     Filename M:\3. my rip in preparation\3\VA - Ministry of Sound-Chilled (2015) [FLAC] {3CD Box Set, Digipak, Ministry of Sound MOSCD394}\CD1\11 - FKA Twigs - Two Weeks.wav

     Peak level 100.0 %
     Extraction speed 4.5 X
     Track quality 100.0 %
     Test CRC 8E0F24B2
     Copy CRC 8E0F24B2
     Track not present in AccurateRip database
     Copy OK

Track 12

     Filename M:\3. my rip in preparation\3\VA - Ministry of Sound-Chilled (2015) [FLAC] {3CD Box Set, Digipak, Ministry of Sound MOSCD394}\CD1\12 - Jungle - Busy Earnin'.wav

     Peak level 98.8 %
     Extraction speed 4.4 X
     Track quality 100.0 %
     Test CRC 129E7FAF
     Copy CRC 129E7FAF
     Track not present in AccurateRip database
     Copy OK

Track 13

     Filename M:\3. my rip in preparation\3\VA - Ministry of Sound-Chilled (2015) [FLAC] {3CD Box Set, Digipak, Ministry of Sound MOSCD394}\CD1\13 - Emma Louise - Jungle.wav

     Peak level 98.8 %
     Extraction speed 4.5 X
     Track quality 100.0 %
     Test CRC 33E0767B
     Copy CRC 33E0767B
     Track not present in AccurateRip database
     Copy OK

Track 14

     Filename M:\3. my rip in preparation\3\VA - Ministry of Sound-Chilled (2015) [FLAC] {3CD Box Set, Digipak, Ministry of Sound MOSCD394}\CD1\14 - L'Orchestra Cinematique - Crazy in Love.wav

     Peak level 98.8 %
     Extraction speed 4.1 X
     Track quality 100.0 %
     Test CRC AD245583
     Copy CRC AD245583
     Track not present in AccurateRip database
     Copy OK

Track 15

     Filename M:\3. my rip in preparation\3\VA - Ministry of Sound-Chilled (2015) [FLAC] {3CD Box Set, Digipak, Ministry of Sound MOSCD394}\CD1\15 - Lo-Fang - You're the One That I Want.wav

     Peak level 98.8 %
     Extraction speed 4.7 X
     Track quality 100.0 %
     Test CRC 0B0AC836
     Copy CRC 0B0AC836
     Track not present in AccurateRip database
     Copy OK

Track 16

     Filename M:\3. my rip in preparation\3\VA - Ministry of Sound-Chilled (2015) [FLAC] {3CD Box Set, Digipak, Ministry of Sound MOSCD394}\CD1\16 - Lapsley - Falling Short.wav

     Peak level 98.8 %
     Extraction speed 4.8 X
     Track quality 100.0 %
     Test CRC A2DBAB42
     Copy CRC A2DBAB42
     Track not present in AccurateRip database
     Copy OK

Track 17

     Filename M:\3. my rip in preparation\3\VA - Ministry of Sound-Chilled (2015) [FLAC] {3CD Box Set, Digipak, Ministry of Sound MOSCD394}\CD1\17 - Naughty Boy feat. Sam Smith - La La La.wav

     Peak level 93.2 %
     Extraction speed 4.9 X
     Track quality 100.0 %
     Test CRC 9D3EB7CC
     Copy CRC 9D3EB7CC
     Track not present in AccurateRip database
     Copy OK

Track 18

     Filename M:\3. my rip in preparation\3\VA - Ministry of Sound-Chilled (2015) [FLAC] {3CD Box Set, Digipak, Ministry of Sound MOSCD394}\CD1\18 - Tove Lo feat. Hippie Sabotage - Stay High (Habits remix).wav

     Peak level 98.8 %
     Extraction speed 5.0 X
     Track quality 100.0 %
     Test CRC 9D2269D3
     Copy CRC 9D2269D3
     Track not present in AccurateRip database
     Copy OK

Track 19

     Filename M:\3. my rip in preparation\3\VA - Ministry of Sound-Chilled (2015) [FLAC] {3CD Box Set, Digipak, Ministry of Sound MOSCD394}\CD1\19 - Milky Chance - Stolen Dance (FlicFlac club edit).wav

     Peak level 97.7 %
     Extraction speed 5.3 X
     Track quality 100.0 %
     Test CRC 4DEEDE9D
     Copy CRC 4DEEDE9D
     Track not present in AccurateRip database
     Copy OK

Track 20

     Filename M:\3. my rip in preparation\3\VA - Ministry of Sound-Chilled (2015) [FLAC] {3CD Box Set, Digipak, Ministry of Sound MOSCD394}\CD1\20 - Nick Mulvey - Cucurucu.wav

     Peak level 98.8 %
     Extraction speed 5.1 X
     Track quality 100.0 %
     Test CRC 2BF9C996
     Copy CRC 2BF9C996
     Track not present in AccurateRip database
     Copy OK

None of the tracks are present in the AccurateRip database

No errors occurred

End of status report

---- CUETools DB Plugin V2.1.4

[CTDB TOCID: LZWo.PhQxAI9DAIVpnRnzUUlGF8-] found
Submit result: LZWo.PhQxAI9DAIVpnRnzUUlGF8- has been confirmed
Track | CTDB Status
  1   | (4/4) Accurately ripped
  2   | (4/4) Accurately ripped
  3   | (4/4) Accurately ripped
  4   | (4/4) Accurately ripped
  5   | (4/4) Accurately ripped
  6   | (4/4) Accurately ripped
  7   | (4/4) Accurately ripped
  8   | (4/4) Accurately ripped
  9   | (4/4) Accurately ripped
 10   | (4/4) Accurately ripped
 11   | (4/4) Accurately ripped
 12   | (4/4) Accurately ripped
 13   | (4/4) Accurately ripped
 14   | (4/4) Accurately ripped
 15   | (4/4) Accurately ripped
 16   | (4/4) Accurately ripped
 17   | (4/4) Accurately ripped
 18   | (4/4) Accurately ripped
 19   | (4/4) Accurately ripped
 20   | (4/4) Accurately ripped

==== Log checksum 6E237A0823E16DD18498FE561449DEC640F47869EE72AA23113D68B7AD39ECC4 ====
Код:
Код: Выделить всё
-----------------------

DON'T MODIFY THIS FILE

-----------------------

PERFORMER: auCDtect Task Manager, ver. 1.6.0 RC1 build 1.6.0.1
Copyright (c) 2008-2010 y-soft. All rights reserved
http:/y-soft.org

ANALYZER: auCDtect: CD records authenticity detector, version 0.8.2
Copyright (c) 2004 Oleg Berngardt. All rights reserved.
Copyright (c) 2004 Alexander Djourik. All rights reserved.

FILE: 20 - Nick Mulvey - Cucurucu.flac
  Size: 28259613 Hash: F423D21FBDD3DAF0ADE897F68A2D9863 Accuracy: -m40
  Conclusion: CDDA 100%
  Signature: E936F667CF48F89C6CB3D132531271BB42989423
FILE: 19 - Milky Chance - Stolen Dance (FlicFlac club edit).flac
  Size: 28912662 Hash: C95ECAEDE61DA2C02808A2EB7E2C1A17 Accuracy: -m40
  Conclusion: CDDA 100%
  Signature: 64C891C8ECEFC91F22F2CE576A2FCCD3331D1D20
FILE: 18 - Tove Lo feat. Hippie Sabotage - Stay High (Habits remix).flac
  Size: 24897099 Hash: FB6C19E2BED7E06B7401BB6282CA0394 Accuracy: -m40
  Conclusion: CDDA 100%
  Signature: 41DEB02EAD8F3BF76DDDCA7C484CE923B76AD038
FILE: 17 - Naughty Boy feat. Sam Smith - La La La.flac
  Size: 25120487 Hash: 8BD73611829EC50EBB4D317B8EA035C1 Accuracy: -m40
  Conclusion: CDDA 100%
  Signature: 40283135DB84B62297D90D9F2573FDC6CC4D64D7
FILE: 16 - Lapsley - Falling Short.flac
  Size: 17181362 Hash: 52E838258CF621A225186E4EA8F51980 Accuracy: -m40
  Conclusion: CDDA 100%
  Signature: E21A30E4E912E005410F6D2564862D0A7AA8556A
FILE: 15 - Lo-Fang - You're the One That I Want.flac
  Size: 19983739 Hash: C1D80405DDAF48365C4D33E36322F6F7 Accuracy: -m40
  Conclusion: CDDA 100%
  Signature: 4E607E5092E61CF17E31E80A813ECD11AF5CBCA7
FILE: 14 - L'Orchestra Cinematique - Crazy in Love.flac
  Size: 11787012 Hash: 05C39724244E45B05B3A4D23A071B73B Accuracy: -m40
  Conclusion: CDDA 100%
  Signature: 8909C7BCE9816C876A752213C854DF1D9CA241BC
FILE: 13 - Emma Louise - Jungle.flac
  Size: 20952359 Hash: A945E8D4B45CC86F233F97FED69AA926 Accuracy: -m40
  Conclusion: CDDA 100%
  Signature: 5E8D5E1613CBFBB6817A8BEB4399C9EAEFD0CE4C
FILE: 12 - Jungle - Busy Earnin'.flac
  Size: 23391222 Hash: 67CB22DC8E4F3E5DE0D2CCAB6A33C534 Accuracy: -m40
  Conclusion: MPEG 98%
  Signature: 95EB81D643149821742C630EE14F122DD4A5DCF6
FILE: 11 - FKA Twigs - Two Weeks.flac
  Size: 28471257 Hash: 5706A19690AE5EA99DBE19979D4E22B6 Accuracy: -m40
  Conclusion: CDDA 100%
  Signature: 97FC150914CEFD850F9E2012B86311075688190F
FILE: 10 - Banks - Drowning.flac
  Size: 26848213 Hash: 79389585895CC179D08BCD8EDB60704E Accuracy: -m40
  Conclusion: CDDA 100%
  Signature: E2F7DE4D7164D5415C89E619534A81E4000E4BFB
FILE: 09 - Lana Del Ray - West Coast.flac
  Size: 27542933 Hash: 0607F52649720DAD4CF6152FBEDA2207 Accuracy: -m40
  Conclusion: CDDA 100%
  Signature: 218C1E7304AFBD097B6E30AFF13249435ADD5906
FILE: 08 - alt-J - Hunger of the Pine (Sleeplessly Embracing).flac
  Size: 28362502 Hash: 2993E6AAA1B6ECBBE5688F77DDAB1449 Accuracy: -m40
  Conclusion: CDDA 100%
  Signature: 69760892CC108A0DAAC8883CED709A240F2913C4
FILE: 07 - Rhodes - Breathe.flac
  Size: 23292390 Hash: 6419810C6067B3E6859D806DBDBDCAE7 Accuracy: -m40
  Conclusion: CDDA 99%
  Signature: 8BF7150B8FEF0EEC0EC60FB3B674D5EFEC63EE1D
FILE: 06 - Ben Howard - I Forget Where We Were.flac
  Size: 26404154 Hash: 21046C9D55D92BDEFBBE51EA902CAE5E Accuracy: -m40
  Conclusion: CDDA 100%
  Signature: C4954E2087054F559990A6BBB7906BC2654C1F1A
FILE: 05 - London Grammar - Strong.flac
  Size: 23478989 Hash: 72EC93A42B1BDAE4C9C2EBCD2BE0FEB6 Accuracy: -m40
  Conclusion: CDDA 99%
  Signature: E618B09F269AC31A8E362A96695B0FD0420C7466
FILE: 04 - Passenger - Let Her Go.flac
  Size: 28541387 Hash: 8491994509EFC506631A57C943DEE41D Accuracy: -m40
  Conclusion: CDDA 100%
  Signature: 2283DC0BB76CE865016AC9CB93982D41BC423CF0
FILE: 03 - Hozier - Take Me to Church.flac
  Size: 25452515 Hash: 32EF2641F0D8A777FB6094507FAC26DE Accuracy: -m40
  Conclusion: CDDA 100%
  Signature: B2B914BC7D9BE154878667172D8E862565800992
FILE: 02 - Sam Smith - Latch (acoustic).flac
  Size: 20928352 Hash: FED4203D61F344CB6DD61EFE6796F509 Accuracy: -m40
  Conclusion: CDDA 100%
  Signature: B5A5E2728C4B35ABA17BA6BE90E179037DEB247A
FILE: 01 - Ed Sheeran - The A Team.flac
  Size: 26626191 Hash: ED0A3B16345100B2943E50B3A70401F9 Accuracy: -m40
  Conclusion: CDDA 100%
  Signature: E7065E530BC089B6FBEE52DE250D1BA00D5A3D8B
Код:
Код: Выделить всё
REM GENRE Electronic
REM DATE 2015
REM DISCID 4B11C714
REM COMMENT "ExactAudioCopy v1.0b4"
PERFORMER "Various Artists"
TITLE "Ministry of Sound: Chilled (Disc 1)"
FILE "01 - Ed Sheeran - The A Team.wav" WAVE
  TRACK 01 AUDIO
    TITLE "The A Team"
    PERFORMER "Ed Sheeran"
    INDEX 01 00:00:00
FILE "02 - Sam Smith - Latch (acoustic).wav" WAVE
  TRACK 02 AUDIO
    TITLE "Latch (acoustic)"
    PERFORMER "Sam Smith"
    INDEX 01 00:00:00
FILE "03 - Hozier - Take Me to Church.wav" WAVE
  TRACK 03 AUDIO
    TITLE "Take Me to Church"
    PERFORMER "Hozier"
    INDEX 01 00:00:00
FILE "04 - Passenger - Let Her Go.wav" WAVE
  TRACK 04 AUDIO
    TITLE "Let Her Go"
    PERFORMER "Passenger"
    INDEX 01 00:00:00
FILE "05 - London Grammar - Strong.wav" WAVE
  TRACK 05 AUDIO
    TITLE "Strong"
    PERFORMER "London Grammar"
    INDEX 01 00:00:00
FILE "06 - Ben Howard - I Forget Where We Were.wav" WAVE
  TRACK 06 AUDIO
    TITLE "I Forget Where We Were"
    PERFORMER "Ben Howard"
    INDEX 01 00:00:00
FILE "07 - Rhodes - Breathe.wav" WAVE
  TRACK 07 AUDIO
    TITLE "Breathe"
    PERFORMER "Rhodes"
    INDEX 01 00:00:00
FILE "08 - alt-J - Hunger of the Pine (Sleeplessly Embracing).wav" WAVE
  TRACK 08 AUDIO
    TITLE "Hunger of the Pine (Sleeplessly Embracing)"
    PERFORMER "alt-J"
    INDEX 01 00:00:00
FILE "09 - Lana Del Ray - West Coast.wav" WAVE
  TRACK 09 AUDIO
    TITLE "West Coast"
    PERFORMER "Lana Del Ray"
    INDEX 01 00:00:00
FILE "10 - Banks - Drowning.wav" WAVE
  TRACK 10 AUDIO
    TITLE "Drowning"
    PERFORMER "Banks"
    INDEX 01 00:00:00
FILE "11 - FKA Twigs - Two Weeks.wav" WAVE
  TRACK 11 AUDIO
    TITLE "Two Weeks"
    PERFORMER "FKA Twigs"
    INDEX 01 00:00:00
FILE "12 - Jungle - Busy Earnin'.wav" WAVE
  TRACK 12 AUDIO
    TITLE "Busy Earnin'"
    PERFORMER "Jungle"
    INDEX 01 00:00:00
FILE "13 - Emma Louise - Jungle.wav" WAVE
  TRACK 13 AUDIO
    TITLE "Jungle"
    PERFORMER "Emma Louise"
    INDEX 01 00:00:00
FILE "14 - L'Orchestra Cinematique - Crazy in Love.wav" WAVE
  TRACK 14 AUDIO
    TITLE "Crazy in Love"
    PERFORMER "L'Orchestra Cinematique"
    INDEX 01 00:00:00
FILE "15 - Lo-Fang - You're the One That I Want.wav" WAVE
  TRACK 15 AUDIO
    TITLE "You're the One That I Want"
    PERFORMER "Lo-Fang"
    INDEX 01 00:00:00
FILE "16 - Lapsley - Falling Short.wav" WAVE
  TRACK 16 AUDIO
    TITLE "Falling Short"
    PERFORMER "Lapsley"
    INDEX 01 00:00:00
FILE "17 - Naughty Boy feat. Sam Smith - La La La.wav" WAVE
  TRACK 17 AUDIO
    TITLE "La La La"
    PERFORMER "Naughty Boy feat. Sam Smith"
    INDEX 01 00:00:00
FILE "18 - Tove Lo feat. Hippie Sabotage - Stay High (Habits remix).wav" WAVE
  TRACK 18 AUDIO
    TITLE "Stay High (Habits remix)"
    PERFORMER "Tove Lo feat. Hippie Sabotage"
    INDEX 01 00:00:00
FILE "19 - Milky Chance - Stolen Dance (FlicFlac club edit).wav" WAVE
  TRACK 19 AUDIO
    TITLE "Stolen Dance (FlicFlac club edit)"
    PERFORMER "Milky Chance"
    INDEX 01 00:00:00
FILE "20 - Nick Mulvey - Cucurucu.wav" WAVE
  TRACK 20 AUDIO
    TITLE "Cucurucu"
    PERFORMER "Nick Mulvey"
    INDEX 01 00:00:00
Продолжительность: 01:19:33
Треклист:
01. Coldplay - A Sky Full of Stars
02. Clean Bandit feat. Jess Glynne - Rather Be
03. Mr. Probz - Waves (Robin Schulz radio edit)
04. Lilly Wood & The Prick & Robin Schulz - Prayer in C (Robin Schulz radio edit)
05. Parra for Cuva feat. Anna Naklab - Wicked Games
06. Disclosure feat. London Grammar - Help Me Lose my Mind
07. Rudimental feat. Emeli Sande - Free (Maya Jane Coles remix)
08. Jessie Ware - Say You Love Me (Alex Adair remix)
09. Jess Glynne - Right here
10. Vic Mensa - Down on my Luck
11. Jamie xx - All Under One Roof Raving
12. Mike Mago & Dragonette - Outlines (Chris Lorenzo remix)
13. The Magician feat. Years & Years - Sunlight
14. Chris Malinchak - So Good to Me
15. Klingand - Jubel
16. Faul & Wad Ad vs. Pnau - Changes
17. Klangkarussell feat. Will Heard - Sonnentant (Sun Don't Shine)
18. Kiesza - Hideaway (Zac samuel remix)
19. ZHU - Faded
20. Caribou - Can't Do Without You
Код:
Код: Выделить всё
Exact Audio Copy V1.0 beta 4 from 7. December 2014

EAC extraction logfile from 24. March 2015, 10:08

Various Artists / Ministry of Sound: Chilled (Disc 2)

Used drive  : TSSTcorpCDDVDW SN-208FB   Adapter: 1  ID: 0

Read mode               : Secure
Utilize accurate stream : Yes
Defeat audio cache      : Yes
Make use of C2 pointers : No

Read offset correction                      : 6
Overread into Lead-In and Lead-Out          : No
Fill up missing offset samples with silence : Yes
Delete leading and trailing silent blocks   : No
Null samples used in CRC calculations       : Yes
Used interface                              : Native Win32 interface for Win NT & 2000
Gap handling                                : Appended to previous track

Used output format              : User Defined Encoder
Selected bitrate                : 1024 kBit/s
Quality                         : High
Add ID3 tag                     : No
Command line compressor         : C:\Program Files (x86)\Kodeki za Glasbo\FLAC\flac.exe
Additional command line options : -8 -V -T "ARTIST=%artist%" -T "TITLE=%title%" -T "ALBUM=%albumtitle%" -T "DATE=%year%" -T "TRACKNUMBER=%tracknr%" -T "TOTALTRACKS=%numtracks%" -T "GENRE=%genre%" -T "ALBUMARTIST=%albumartist%" -T "ALBUM ARTIST=%albumartist%" -T "COMMENT=EAC Secure Mode, Test & Copy, AccurateRip, FLAC -8" %source%

TOC of the extracted CD

     Track |   Start  |  Length  | Start sector | End sector
    ---------------------------------------------------------
        1  |  0:00.00 |  3:59.02 |         0    |    17926
        2  |  3:59.02 |  3:34.67 |     17927    |    34043
        3  |  7:33.69 |  3:27.68 |     34044    |    49636
        4  | 11:01.62 |  4:41.06 |     49637    |    70717
        5  | 15:42.68 |  3:25.65 |     70718    |    86157
        6  | 19:08.58 |  3:53.39 |     86158    |   103671
        7  | 23:02.22 |  5:25.46 |    103672    |   128092
        8  | 28:27.68 |  2:40.18 |    128093    |   140110
        9  | 31:08.11 |  3:43.70 |    140111    |   156905
       10  | 34:52.06 |  3:45.29 |    156906    |   173809
       11  | 38:37.35 |  5:24.32 |    173810    |   198141
       12  | 44:01.67 |  5:43.39 |    198142    |   223905
       13  | 49:45.31 |  5:06.60 |    223906    |   246915
       14  | 54:52.16 |  4:13.51 |    246916    |   265941
       15  | 59:05.67 |  2:15.64 |    265942    |   276130
       16  | 61:21.56 |  3:56.35 |    276131    |   293865
       17  | 65:18.16 |  3:30.20 |    293866    |   309635
       18  | 68:48.36 |  3:49.34 |    309636    |   326844
       19  | 72:37.70 |  3:43.59 |    326845    |   343628
       20  | 76:21.54 |  3:11.21 |    343629    |   357974

Track  1

     Filename M:\3. my rip in preparation\3\VA - Ministry of Sound-Chilled (2015) [FLAC] {3CD Box Set, Digipak, Ministry of Sound MOSCD394}\CD2\01 - Coldplay - A Sky Full of Stars.wav

     Pre-gap length  0:00:02.00

     Peak level 91.9 %
     Extraction speed 2.3 X
     Track quality 99.9 %
     Test CRC E05B37C5
     Copy CRC E05B37C5
     Track not present in AccurateRip database
     Copy OK

Track  2

     Filename M:\3. my rip in preparation\3\VA - Ministry of Sound-Chilled (2015) [FLAC] {3CD Box Set, Digipak, Ministry of Sound MOSCD394}\CD2\02 - Clean Bandit feat. Jess Glynne - Rather Be.wav

     Peak level 98.8 %
     Extraction speed 3.0 X
     Track quality 100.0 %
     Test CRC A60C3CEC
     Copy CRC A60C3CEC
     Track not present in AccurateRip database
     Copy OK

Track  3

     Filename M:\3. my rip in preparation\3\VA - Ministry of Sound-Chilled (2015) [FLAC] {3CD Box Set, Digipak, Ministry of Sound MOSCD394}\CD2\03 - Mr. Probz - Waves (Robin Schulz radio edit).wav

     Peak level 98.8 %
     Extraction speed 3.1 X
     Track quality 100.0 %
     Test CRC 7BF9C58F
     Copy CRC 7BF9C58F
     Track not present in AccurateRip database
     Copy OK

Track  4

     Filename M:\3. my rip in preparation\3\VA - Ministry of Sound-Chilled (2015) [FLAC] {3CD Box Set, Digipak, Ministry of Sound MOSCD394}\CD2\04 - Lilly Wood & The Prick & Robin Schulz - Prayer in C (Robin Schulz radio edit).wav

     Peak level 98.8 %
     Extraction speed 3.5 X
     Track quality 100.0 %
     Test CRC 73EC7D3D
     Copy CRC 73EC7D3D
     Track not present in AccurateRip database
     Copy OK

Track  5

     Filename M:\3. my rip in preparation\3\VA - Ministry of Sound-Chilled (2015) [FLAC] {3CD Box Set, Digipak, Ministry of Sound MOSCD394}\CD2\05 - Parra for Cuva feat. Anna Naklab - Wicked Games.wav

     Peak level 98.8 %
     Extraction speed 3.6 X
     Track quality 100.0 %
     Test CRC 7F03A7F0
     Copy CRC 7F03A7F0
     Track not present in AccurateRip database
     Copy OK

Track  6

     Filename M:\3. my rip in preparation\3\VA - Ministry of Sound-Chilled (2015) [FLAC] {3CD Box Set, Digipak, Ministry of Sound MOSCD394}\CD2\06 - Disclosure feat. London Grammar - Help Me Lose my Mind.wav

     Peak level 98.8 %
     Extraction speed 3.8 X
     Track quality 100.0 %
     Test CRC 94724224
     Copy CRC 94724224
     Track not present in AccurateRip database
     Copy OK

Track  7

     Filename M:\3. my rip in preparation\3\VA - Ministry of Sound-Chilled (2015) [FLAC] {3CD Box Set, Digipak, Ministry of Sound MOSCD394}\CD2\07 - Rudimental feat. Emeli Sande - Free (Maya Jane Coles remix).wav

     Peak level 98.8 %
     Extraction speed 4.1 X
     Track quality 100.0 %
     Test CRC DC6F84B4
     Copy CRC DC6F84B4
     Track not present in AccurateRip database
     Copy OK

Track  8

     Filename M:\3. my rip in preparation\3\VA - Ministry of Sound-Chilled (2015) [FLAC] {3CD Box Set, Digipak, Ministry of Sound MOSCD394}\CD2\08 - Jessie Ware - Say You Love Me (Alex Adair remix).wav

     Peak level 98.8 %
     Extraction speed 3.8 X
     Track quality 100.0 %
     Test CRC 009402F6
     Copy CRC 009402F6
     Track not present in AccurateRip database
     Copy OK

Track  9

     Filename M:\3. my rip in preparation\3\VA - Ministry of Sound-Chilled (2015) [FLAC] {3CD Box Set, Digipak, Ministry of Sound MOSCD394}\CD2\09 - Jess Glynne - Right here.wav

     Peak level 98.8 %
     Extraction speed 4.2 X
     Track quality 100.0 %
     Test CRC 5810CAA3
     Copy CRC 5810CAA3
     Track not present in AccurateRip database
     Copy OK

Track 10

     Filename M:\3. my rip in preparation\3\VA - Ministry of Sound-Chilled (2015) [FLAC] {3CD Box Set, Digipak, Ministry of Sound MOSCD394}\CD2\10 - Vic Mensa - Down on my Luck.wav

     Peak level 100.0 %
     Extraction speed 4.3 X
     Track quality 100.0 %
     Test CRC 97B7171E
     Copy CRC 97B7171E
     Track not present in AccurateRip database
     Copy OK

Track 11

     Filename M:\3. my rip in preparation\3\VA - Ministry of Sound-Chilled (2015) [FLAC] {3CD Box Set, Digipak, Ministry of Sound MOSCD394}\CD2\11 - Jamie xx - All Under One Roof Raving.wav

     Peak level 98.8 %
     Extraction speed 4.7 X
     Track quality 100.0 %
     Test CRC E5E44E96
     Copy CRC E5E44E96
     Track not present in AccurateRip database
     Copy OK

Track 12

     Filename M:\3. my rip in preparation\3\VA - Ministry of Sound-Chilled (2015) [FLAC] {3CD Box Set, Digipak, Ministry of Sound MOSCD394}\CD2\12 - Mike Mago & Dragonette - Outlines (Chris Lorenzo remix).wav

     Peak level 98.8 %
     Extraction speed 4.9 X
     Track quality 100.0 %
     Test CRC E5267469
     Copy CRC E5267469
     Track not present in AccurateRip database
     Copy OK

Track 13

     Filename M:\3. my rip in preparation\3\VA - Ministry of Sound-Chilled (2015) [FLAC] {3CD Box Set, Digipak, Ministry of Sound MOSCD394}\CD2\13 - The Magician feat. Years & Years - Sunlight.wav

     Peak level 98.8 %
     Extraction speed 5.0 X
     Track quality 100.0 %
     Test CRC 154648A8
     Copy CRC 154648A8
     Track not present in AccurateRip database
     Copy OK

Track 14

     Filename M:\3. my rip in preparation\3\VA - Ministry of Sound-Chilled (2015) [FLAC] {3CD Box Set, Digipak, Ministry of Sound MOSCD394}\CD2\14 - Chris Malinchak - So Good to Me.wav

     Peak level 98.8 %
     Extraction speed 4.9 X
     Track quality 100.0 %
     Test CRC 5E18BF5D
     Copy CRC 5E18BF5D
     Track not present in AccurateRip database
     Copy OK

Track 15

     Filename M:\3. my rip in preparation\3\VA - Ministry of Sound-Chilled (2015) [FLAC] {3CD Box Set, Digipak, Ministry of Sound MOSCD394}\CD2\15 - Klingand - Jubel.wav

     Peak level 98.8 %
     Extraction speed 4.6 X
     Track quality 100.0 %
     Test CRC B08A2496
     Copy CRC B08A2496
     Track not present in AccurateRip database
     Copy OK

Track 16

     Filename M:\3. my rip in preparation\3\VA - Ministry of Sound-Chilled (2015) [FLAC] {3CD Box Set, Digipak, Ministry of Sound MOSCD394}\CD2\16 - Faul & Wad Ad vs. Pnau - Changes.wav

     Peak level 98.8 %
     Extraction speed 5.1 X
     Track quality 100.0 %
     Test CRC A09F2715
     Copy CRC A09F2715
     Track not present in AccurateRip database
     Copy OK

Track 17

     Filename M:\3. my rip in preparation\3\VA - Ministry of Sound-Chilled (2015) [FLAC] {3CD Box Set, Digipak, Ministry of Sound MOSCD394}\CD2\17 - Klangkarussell feat. Will Heard - Sonnentant (Sun Don't Shine).wav

     Peak level 98.8 %
     Extraction speed 5.0 X
     Track quality 100.0 %
     Test CRC C7E39095
     Copy CRC C7E39095
     Track not present in AccurateRip database
     Copy OK

Track 18

     Filename M:\3. my rip in preparation\3\VA - Ministry of Sound-Chilled (2015) [FLAC] {3CD Box Set, Digipak, Ministry of Sound MOSCD394}\CD2\18 - Kiesza - Hideaway (Zac samuel remix).wav

     Peak level 98.8 %
     Extraction speed 5.3 X
     Track quality 100.0 %
     Test CRC 176C8BDC
     Copy CRC 176C8BDC
     Track not present in AccurateRip database
     Copy OK

Track 19

     Filename M:\3. my rip in preparation\3\VA - Ministry of Sound-Chilled (2015) [FLAC] {3CD Box Set, Digipak, Ministry of Sound MOSCD394}\CD2\19 - ZHU - Faded.wav

     Peak level 98.8 %
     Extraction speed 4.3 X
     Track quality 99.9 %
     Test CRC 5547DA8A
     Copy CRC 5547DA8A
     Track not present in AccurateRip database
     Copy OK

Track 20

     Filename M:\3. my rip in preparation\3\VA - Ministry of Sound-Chilled (2015) [FLAC] {3CD Box Set, Digipak, Ministry of Sound MOSCD394}\CD2\20 - Caribou - Can't Do Without You.wav

     Peak level 98.8 %
     Extraction speed 5.2 X
     Track quality 100.0 %
     Test CRC 900BD66C
     Copy CRC 900BD66C
     Track not present in AccurateRip database
     Copy OK

None of the tracks are present in the AccurateRip database

No errors occurred

End of status report

---- CUETools DB Plugin V2.1.4

[CTDB TOCID: pQTNKEJVz6pYSkW54_uLsST1KTQ-] found
Submit result: pQTNKEJVz6pYSkW54_uLsST1KTQ- has been confirmed
Track | CTDB Status
  1   | (3/3) Accurately ripped
  2   | (3/3) Accurately ripped
  3   | (3/3) Accurately ripped
  4   | (3/3) Accurately ripped
  5   | (3/3) Accurately ripped
  6   | (3/3) Accurately ripped
  7   | (3/3) Accurately ripped
  8   | (3/3) Accurately ripped
  9   | (3/3) Accurately ripped
 10   | (3/3) Accurately ripped
 11   | (3/3) Accurately ripped
 12   | (3/3) Accurately ripped
 13   | (3/3) Accurately ripped
 14   | (3/3) Accurately ripped
 15   | (3/3) Accurately ripped
 16   | (3/3) Accurately ripped
 17   | (3/3) Accurately ripped
 18   | (3/3) Accurately ripped
 19   | (3/3) Accurately ripped
 20   | (3/3) Accurately ripped

==== Log checksum 828F69626314A2B545177452CCBFC3C42B2862ADEC1F83DBCAF3D774192DA751 ====
Код:
Код: Выделить всё
-----------------------

DON'T MODIFY THIS FILE

-----------------------

PERFORMER: auCDtect Task Manager, ver. 1.6.0 RC1 build 1.6.0.1
Copyright (c) 2008-2010 y-soft. All rights reserved
http:/y-soft.org

ANALYZER: auCDtect: CD records authenticity detector, version 0.8.2
Copyright (c) 2004 Oleg Berngardt. All rights reserved.
Copyright (c) 2004 Alexander Djourik. All rights reserved.

FILE: 20 - Caribou - Can't Do Without You.flac
  Size: 19537086 Hash: B180698CB08943B252DCA8A2B42DAAB0 Accuracy: -m40
  Conclusion: CDDA 100%
  Signature: FEBC3DA817BA35B5BAF7E5AF2E21E4DC5CB605A8
FILE: 19 - ZHU - Faded.flac
  Size: 24100840 Hash: 59B3F00791EB46BF675F36791C1D62AF Accuracy: -m40
  Conclusion: CDDA 100%
  Signature: 428F238C8943D113E643C9D0F938B0E4A78DFF46
FILE: 18 - Kiesza - Hideaway (Zac samuel remix).flac
  Size: 24272320 Hash: D3D521620E859C8FE8EB0089E7791795 Accuracy: -m40
  Conclusion: MPEG 73%
  Signature: F947CC2A220702F9DB2A1D6E01BF22DF5D4B1799
FILE: 17 - Klangkarussell feat. Will Heard - Sonnentant (Sun Don't Shine).flac
  Size: 22447658 Hash: 952618BD02FF6E3D17480990ADC95ED0 Accuracy: -m40
  Conclusion: CDDA 100%
  Signature: 9FA69EC07EB97A22895E4B6ACD9266EC5F9C7B08
FILE: 16 - Faul & Wad Ad vs. Pnau - Changes.flac
  Size: 27695775 Hash: CE7760AE63DAEC0AA63BED13BFFE8926 Accuracy: -m40
  Conclusion: CDDA 100%
  Signature: 6420255B8E95C781EF673000A96B3F7B25574231
FILE: 15 - Klingand - Jubel.flac
  Size: 16737374 Hash: DB7EC8DEC35715796587AF49C7C2CC0B Accuracy: -m40
  Conclusion: CDDA 100%
  Signature: 7624FAC343ECBA26D39395057017F9E415A67073
FILE: 14 - Chris Malinchak - So Good to Me.flac
  Size: 29997679 Hash: 208F3C551C665A7EAA1662CE41F7F682 Accuracy: -m40
  Conclusion: CDDA 100%
  Signature: 15129CF51BCE77610774861EAB94E0641DA0D6BB
FILE: 13 - The Magician feat. Years & Years - Sunlight.flac
  Size: 33875304 Hash: 9379E9655A1B7A0EF3EE00DE269C6F6F Accuracy: -m40
  Conclusion: CDDA 100%
  Signature: 34480853C5C2DB14DDF911493A17BE3CB42A4126
FILE: 12 - Mike Mago & Dragonette - Outlines (Chris Lorenzo remix).flac
  Size: 39543447 Hash: 700A43902DF2674BF6BAFFFA0259709F Accuracy: -m40
  Conclusion: CDDA 100%
  Signature: 5B4E65923E16897CB3C2B5C1F43B3D57B3A80C4C
FILE: 11 - Jamie xx - All Under One Roof Raving.flac
  Size: 33352315 Hash: 88D1CB69217AAC82ADD94AE56BE2D1FB Accuracy: -m40
  Conclusion: CDDA 100%
  Signature: 8E48124135FAE5BA372B4D5A358A4F10FE2A4A97
FILE: 10 - Vic Mensa - Down on my Luck.flac
  Size: 25650793 Hash: 6EEBCC562A2E86E933459B2F4BD65252 Accuracy: -m40
  Conclusion: CDDA 100%
  Signature: E37E4F540D0D797DF4152F64FE6FBE8F631B75B2
FILE: 09 - Jess Glynne - Right here.flac
  Size: 28027833 Hash: CAB7EDD403E6868E60CC19F47098F90F Accuracy: -m40
  Conclusion: CDDA 100%
  Signature: 2E540022BFA6D79EB648BA54038107410A604E9E
FILE: 08 - Jessie Ware - Say You Love Me (Alex Adair remix).flac
  Size: 19185424 Hash: FBA44C39E9E6110F3848F19FD69D4EA5 Accuracy: -m40
  Conclusion: CDDA 100%
  Signature: 872AB596ECFBECDEEE3FA4A5B5E64957192A985C
FILE: 07 - Rudimental feat. Emeli Sande - Free (Maya Jane Coles remix).flac
  Size: 33869695 Hash: CAD113A24AC9018765E9C06B15A806E6 Accuracy: -m40
  Conclusion: CDDA 100%
  Signature: 8CE468072DEF441240EE11FC4AC40BA637AF3024
FILE: 06 - Disclosure feat. London Grammar - Help Me Lose my Mind.flac
  Size: 27490853 Hash: DA2F52A7673CE11C35CAD43A4180F86C Accuracy: -m40
  Conclusion: CDDA 100%
  Signature: 383D840711810262F43D6A5DF9B49568E3FBACAD
FILE: 05 - Parra for Cuva feat. Anna Naklab - Wicked Games.flac
  Size: 21667996 Hash: 973129449B3BDEBD187F575E5526525A Accuracy: -m40
  Conclusion: CDDA 100%
  Signature: 603D86BC5669DB837BE4AA78481ED2067B20EA11
FILE: 04 - Lilly Wood & The Prick & Robin Schulz - Prayer in C (Robin Schulz radio edit).flac
  Size: 34502483 Hash: 4E9D02089E1B871C4B63BFB44FC3AB6F Accuracy: -m40
  Conclusion: CDDA 100%
  Signature: 55C79DEA25FD7FE2531DB9F6CDF38961A96501DB
FILE: 03 - Mr. Probz - Waves (Robin Schulz radio edit).flac
  Size: 21822229 Hash: E121F56C4DC6DE36590FE175BDF99BFD Accuracy: -m40
  Conclusion: CDDA 100%
  Signature: 52EDCDF1356541862DDAE16F8ACA5182698D1195
FILE: 02 - Clean Bandit feat. Jess Glynne - Rather Be.flac
  Size: 23648557 Hash: 5A91D62AC56C01CFAAAC6C1CBBD8ADCC Accuracy: -m40
  Conclusion: CDDA 100%
  Signature: 953369AC3633DB362BF4B150BE26953B11CB1B72
FILE: 01 - Coldplay - A Sky Full of Stars.flac
  Size: 28410141 Hash: B107831C09DC9D9A39C8D25F572D7D37 Accuracy: -m40
  Conclusion: CDDA 100%
  Signature: 3C975C94F5E60664731FCB908EE35956FE34AC3B
Код:
Код: Выделить всё
REM GENRE Electronic
REM DATE 2015
REM DISCID 2F12A514
REM COMMENT "ExactAudioCopy v1.0b4"
PERFORMER "Various Artists"
TITLE "Ministry of Sound: Chilled (Disc 2)"
FILE "01 - Coldplay - A Sky Full of Stars.wav" WAVE
  TRACK 01 AUDIO
    TITLE "A Sky Full of Stars"
    PERFORMER "Coldplay"
    INDEX 01 00:00:00
FILE "02 - Clean Bandit feat. Jess Glynne - Rather Be.wav" WAVE
  TRACK 02 AUDIO
    TITLE "Rather Be"
    PERFORMER "Clean Bandit feat. Jess Glynne"
    INDEX 01 00:00:00
FILE "03 - Mr. Probz - Waves (Robin Schulz radio edit).wav" WAVE
  TRACK 03 AUDIO
    TITLE "Waves (Robin Schulz radio edit)"
    PERFORMER "Mr. Probz"
    INDEX 01 00:00:00
FILE "04 - Lilly Wood & The Prick & Robin Schulz - Prayer in C (Robin Schulz radio edit).wav" WAVE
  TRACK 04 AUDIO
    TITLE "Prayer in C (Robin Schulz radio edit)"
    PERFORMER "Lilly Wood & The Prick & Robin Schulz"
    INDEX 01 00:00:00
FILE "05 - Parra for Cuva feat. Anna Naklab - Wicked Games.wav" WAVE
  TRACK 05 AUDIO
    TITLE "Wicked Games"
    PERFORMER "Parra for Cuva feat. Anna Naklab"
    INDEX 01 00:00:00
FILE "06 - Disclosure feat. London Grammar - Help Me Lose my Mind.wav" WAVE
  TRACK 06 AUDIO
    TITLE "Help Me Lose my Mind"
    PERFORMER "Disclosure feat. London Grammar"
    INDEX 01 00:00:00
FILE "07 - Rudimental feat. Emeli Sande - Free (Maya Jane Coles remix).wav" WAVE
  TRACK 07 AUDIO
    TITLE "Free (Maya Jane Coles remix)"
    PERFORMER "Rudimental feat. Emeli Sande"
    INDEX 01 00:00:00
FILE "08 - Jessie Ware - Say You Love Me (Alex Adair remix).wav" WAVE
  TRACK 08 AUDIO
    TITLE "Say You Love Me (Alex Adair remix)"
    PERFORMER "Jessie Ware"
    INDEX 01 00:00:00
FILE "09 - Jess Glynne - Right here.wav" WAVE
  TRACK 09 AUDIO
    TITLE "Right here"
    PERFORMER "Jess Glynne"
    INDEX 01 00:00:00
FILE "10 - Vic Mensa - Down on my Luck.wav" WAVE
  TRACK 10 AUDIO
    TITLE "Down on my Luck"
    PERFORMER "Vic Mensa"
    INDEX 01 00:00:00
FILE "11 - Jamie xx - All Under One Roof Raving.wav" WAVE
  TRACK 11 AUDIO
    TITLE "All Under One Roof Raving"
    PERFORMER "Jamie xx"
    INDEX 01 00:00:00
FILE "12 - Mike Mago & Dragonette - Outlines (Chris Lorenzo remix).wav" WAVE
  TRACK 12 AUDIO
    TITLE "Outlines (Chris Lorenzo remix)"
    PERFORMER "Mike Mago & Dragonette"
    INDEX 01 00:00:00
FILE "13 - The Magician feat. Years & Years - Sunlight.wav" WAVE
  TRACK 13 AUDIO
    TITLE "Sunlight"
    PERFORMER "The Magician feat. Years & Years"
    INDEX 01 00:00:00
FILE "14 - Chris Malinchak - So Good to Me.wav" WAVE
  TRACK 14 AUDIO
    TITLE "So Good to Me"
    PERFORMER "Chris Malinchak"
    INDEX 01 00:00:00
FILE "15 - Klingand - Jubel.wav" WAVE
  TRACK 15 AUDIO
    TITLE "Jubel"
    PERFORMER "Klingand"
    INDEX 01 00:00:00
FILE "16 - Faul & Wad Ad vs. Pnau - Changes.wav" WAVE
  TRACK 16 AUDIO
    TITLE "Changes"
    PERFORMER "Faul & Wad Ad vs. Pnau"
    INDEX 01 00:00:00
FILE "17 - Klangkarussell feat. Will Heard - Sonnentant (Sun Don't Shine).wav" WAVE
  TRACK 17 AUDIO
    TITLE "Sonnentant (Sun Don't Shine)"
    PERFORMER "Klangkarussell feat. Will Heard"
    INDEX 01 00:00:00
FILE "18 - Kiesza - Hideaway (Zac samuel remix).wav" WAVE
  TRACK 18 AUDIO
    TITLE "Hideaway (Zac samuel remix)"
    PERFORMER "Kiesza"
    INDEX 01 00:00:00
FILE "19 - ZHU - Faded.wav" WAVE
  TRACK 19 AUDIO
    TITLE "Faded"
    PERFORMER "ZHU"
    INDEX 01 00:00:00
FILE "20 - Caribou - Can't Do Without You.wav" WAVE
  TRACK 20 AUDIO
    TITLE "Can't Do Without You"
    PERFORMER "Caribou"
    INDEX 01 00:00:00
Продолжительность: 01:19:41
Треклист:
01. Massive Attack feat. Tracey Thorn - Protection
02. Radiohead - Street Spirit (Fade Out)
03. Empire of the Sun - Walking on a Dream
04. Groove Armada - At the River
05. Faithless - Drifting Away
06. Fatboy Slim - Praisu You (Maribou State remix)
07. GilScott-Heron & Jamie xx - I'll Take Care of You
08. Jose Gonzales - Heartbeats
09. Air - All I Need
10. Nightmares on Wax - Les Nuits
11. Goldie&Metalheadz - Inner City Life (Baby Boy's edit)
12. The Beloved - Sweet Harmony
13. Moby - Natural Blues
14. Royksopp - Eple
15. Morcheeba - The Sea
16. William Orbit - Barber's Adagio for Strings
17. Jakatta - American Dream
18. Zero 7 - Destiny
19. Bibio - Lovers' Carvings
20. The Cinematic Orchestra - The Build a Home
Код:
Код: Выделить всё
Exact Audio Copy V1.0 beta 4 from 7. December 2014

EAC extraction logfile from 24. March 2015, 12:23

Various Artists / Ministry of Sound: Chilled (Disc 3)

Used drive  : TSSTcorpCDDVDW SN-208FB   Adapter: 1  ID: 0

Read mode               : Secure
Utilize accurate stream : Yes
Defeat audio cache      : Yes
Make use of C2 pointers : No

Read offset correction                      : 6
Overread into Lead-In and Lead-Out          : No
Fill up missing offset samples with silence : Yes
Delete leading and trailing silent blocks   : No
Null samples used in CRC calculations       : Yes
Used interface                              : Native Win32 interface for Win NT & 2000
Gap handling                                : Appended to previous track

Used output format              : User Defined Encoder
Selected bitrate                : 1024 kBit/s
Quality                         : High
Add ID3 tag                     : No
Command line compressor         : C:\Program Files (x86)\Kodeki za Glasbo\FLAC\flac.exe
Additional command line options : -8 -V -T "ARTIST=%artist%" -T "TITLE=%title%" -T "ALBUM=%albumtitle%" -T "DATE=%year%" -T "TRACKNUMBER=%tracknr%" -T "TOTALTRACKS=%numtracks%" -T "GENRE=%genre%" -T "ALBUMARTIST=%albumartist%" -T "ALBUM ARTIST=%albumartist%" -T "COMMENT=EAC Secure Mode, Test & Copy, AccurateRip, FLAC -8" %source%

TOC of the extracted CD

     Track |   Start  |  Length  | Start sector | End sector
    ---------------------------------------------------------
        1  |  0:00.00 |  4:29.68 |         0    |    20242
        2  |  4:29.68 |  3:52.10 |     20243    |    37652
        3  |  8:22.03 |  3:31.45 |     37653    |    53522
        4  | 11:53.48 |  3:08.48 |     53523    |    67670
        5  | 15:02.21 |  3:40.74 |     67671    |    84244
        6  | 18:43.20 |  4:25.15 |     84245    |   104134
        7  | 23:08.35 |  4:11.60 |    104135    |   123019
        8  | 27:20.20 |  2:40.56 |    123020    |   135075
        9  | 30:01.01 |  4:01.08 |    135076    |   153158
       10  | 34:02.09 |  3:43.06 |    153159    |   169889
       11  | 37:45.15 |  3:39.02 |    169890    |   186316
       12  | 41:24.17 |  4:06.45 |    186317    |   204811
       13  | 45:30.62 |  4:09.65 |    204812    |   223551
       14  | 49:40.52 |  3:28.08 |    223552    |   239159
       15  | 53:08.60 |  5:13.63 |    239160    |   262697
       16  | 58:22.48 |  4:13.18 |    262698    |   281690
       17  | 62:35.66 |  3:34.18 |    281691    |   297758
       18  | 66:10.09 |  3:32.74 |    297759    |   313732
       19  | 69:43.08 |  3:48.74 |    313733    |   330906
       20  | 73:32.07 |  6:07.50 |    330907    |   358481

Track  1

     Filename M:\3. my rip in preparation\3\VA - Ministry of Sound-Chilled (2015) [FLAC] {3CD Box Set, Digipak, Ministry of Sound MOSCD394}\CD3\01 - Massive Attack feat. Tracey Thorn - Protection.wav

     Pre-gap length  0:00:02.00

     Peak level 98.8 %
     Extraction speed 2.4 X
     Track quality 99.9 %
     Test CRC 1F075BA4
     Copy CRC 1F075BA4
     Track not present in AccurateRip database
     Copy OK

Track  2

     Filename M:\3. my rip in preparation\3\VA - Ministry of Sound-Chilled (2015) [FLAC] {3CD Box Set, Digipak, Ministry of Sound MOSCD394}\CD3\02 - Radiohead - Street Spirit (Fade Out).wav

     Peak level 98.8 %
     Extraction speed 3.1 X
     Track quality 100.0 %
     Test CRC 88B7942C
     Copy CRC 88B7942C
     Track not present in AccurateRip database
     Copy OK

Track  3

     Filename M:\3. my rip in preparation\3\VA - Ministry of Sound-Chilled (2015) [FLAC] {3CD Box Set, Digipak, Ministry of Sound MOSCD394}\CD3\03 - Empire of the Sun - Walking on a Dream.wav

     Peak level 98.8 %
     Extraction speed 3.2 X
     Track quality 100.0 %
     Test CRC 57AB3D9A
     Copy CRC 57AB3D9A
     Track not present in AccurateRip database
     Copy OK

Track  4

     Filename M:\3. my rip in preparation\3\VA - Ministry of Sound-Chilled (2015) [FLAC] {3CD Box Set, Digipak, Ministry of Sound MOSCD394}\CD3\04 - Groove Armada - At the River.wav

     Peak level 98.8 %
     Extraction speed 3.3 X
     Track quality 100.0 %
     Test CRC 16C0EE1E
     Copy CRC 16C0EE1E
     Track not present in AccurateRip database
     Copy OK

Track  5

     Filename M:\3. my rip in preparation\3\VA - Ministry of Sound-Chilled (2015) [FLAC] {3CD Box Set, Digipak, Ministry of Sound MOSCD394}\CD3\05 - Faithless - Drifting Away.wav

     Peak level 98.8 %
     Extraction speed 3.6 X
     Track quality 100.0 %
     Test CRC DD137B3A
     Copy CRC DD137B3A
     Track not present in AccurateRip database
     Copy OK

Track  6

     Filename M:\3. my rip in preparation\3\VA - Ministry of Sound-Chilled (2015) [FLAC] {3CD Box Set, Digipak, Ministry of Sound MOSCD394}\CD3\06 - Fatboy Slim - Praisu You (Maribou State remix).wav

     Peak level 96.2 %
     Extraction speed 3.9 X
     Track quality 100.0 %
     Test CRC F3474DD5
     Copy CRC F3474DD5
     Track not present in AccurateRip database
     Copy OK

Track  7

     Filename M:\3. my rip in preparation\3\VA - Ministry of Sound-Chilled (2015) [FLAC] {3CD Box Set, Digipak, Ministry of Sound MOSCD394}\CD3\07 - GilScott-Heron & Jamie xx - I'll Take Care of You.wav

     Peak level 98.8 %
     Extraction speed 4.0 X
     Track quality 100.0 %
     Test CRC D9E5ACC5
     Copy CRC D9E5ACC5
     Track not present in AccurateRip database
     Copy OK

Track  8

     Filename M:\3. my rip in preparation\3\VA - Ministry of Sound-Chilled (2015) [FLAC] {3CD Box Set, Digipak, Ministry of Sound MOSCD394}\CD3\08 - Jose Gonzales - Heartbeats.wav

     Peak level 98.8 %
     Extraction speed 3.8 X
     Track quality 100.0 %
     Test CRC FF8C56DF
     Copy CRC FF8C56DF
     Track not present in AccurateRip database
     Copy OK

Track  9

     Filename M:\3. my rip in preparation\3\VA - Ministry of Sound-Chilled (2015) [FLAC] {3CD Box Set, Digipak, Ministry of Sound MOSCD394}\CD3\09 - Air - All I Need.wav

     Peak level 98.8 %
     Extraction speed 4.2 X
     Track quality 100.0 %
     Test CRC 96AAA159
     Copy CRC 96AAA159
     Track not present in AccurateRip database
     Copy OK

Track 10

     Filename M:\3. my rip in preparation\3\VA - Ministry of Sound-Chilled (2015) [FLAC] {3CD Box Set, Digipak, Ministry of Sound MOSCD394}\CD3\10 - Nightmares on Wax - Les Nuits.wav

     Peak level 98.8 %
     Extraction speed 3.4 X
     Track quality 99.9 %
     Test CRC DE7C6222
     Copy CRC DE7C6222
     Track not present in AccurateRip database
     Copy OK

Track 11

     Filename M:\3. my rip in preparation\3\VA - Ministry of Sound-Chilled (2015) [FLAC] {3CD Box Set, Digipak, Ministry of Sound MOSCD394}\CD3\11 - Goldie&Metalheadz - Inner City Life (Baby Boy's edit).wav

     Peak level 98.8 %
     Extraction speed 4.4 X
     Track quality 100.0 %
     Test CRC 03560768
     Copy CRC 03560768
     Track not present in AccurateRip database
     Copy OK

Track 12

     Filename M:\3. my rip in preparation\3\VA - Ministry of Sound-Chilled (2015) [FLAC] {3CD Box Set, Digipak, Ministry of Sound MOSCD394}\CD3\12 - The Beloved - Sweet Harmony.wav

     Peak level 98.8 %
     Extraction speed 4.6 X
     Track quality 100.0 %
     Test CRC 77AF5F4E
     Copy CRC 77AF5F4E
     Track not present in AccurateRip database
     Copy OK

Track 13

     Filename M:\3. my rip in preparation\3\VA - Ministry of Sound-Chilled (2015) [FLAC] {3CD Box Set, Digipak, Ministry of Sound MOSCD394}\CD3\13 - Moby - Natural Blues.wav

     Peak level 98.8 %
     Extraction speed 4.7 X
     Track quality 100.0 %
     Test CRC 623BD8DC
     Copy CRC 623BD8DC
     Track not present in AccurateRip database
     Copy OK

Track 14

     Filename M:\3. my rip in preparation\3\VA - Ministry of Sound-Chilled (2015) [FLAC] {3CD Box Set, Digipak, Ministry of Sound MOSCD394}\CD3\14 - Royksopp - Eple.wav

     Peak level 94.0 %
     Extraction speed 4.7 X
     Track quality 100.0 %
     Test CRC 0FCDF019
     Copy CRC 0FCDF019
     Track not present in AccurateRip database
     Copy OK

Track 15

     Filename M:\3. my rip in preparation\3\VA - Ministry of Sound-Chilled (2015) [FLAC] {3CD Box Set, Digipak, Ministry of Sound MOSCD394}\CD3\15 - Morcheeba - The Sea.wav

     Peak level 98.1 %
     Extraction speed 5.0 X
     Track quality 100.0 %
     Test CRC E6DBEEE7
     Copy CRC E6DBEEE7
     Track not present in AccurateRip database
     Copy OK

Track 16

     Filename M:\3. my rip in preparation\3\VA - Ministry of Sound-Chilled (2015) [FLAC] {3CD Box Set, Digipak, Ministry of Sound MOSCD394}\CD3\16 - William Orbit - Barber's Adagio for Strings.wav

     Peak level 98.8 %
     Extraction speed 5.0 X
     Track quality 100.0 %
     Test CRC 25C855AE
     Copy CRC 25C855AE
     Track not present in AccurateRip database
     Copy OK

Track 17

     Filename M:\3. my rip in preparation\3\VA - Ministry of Sound-Chilled (2015) [FLAC] {3CD Box Set, Digipak, Ministry of Sound MOSCD394}\CD3\17 - Jakatta - American Dream.wav

     Peak level 98.8 %
     Extraction speed 4.6 X
     Track quality 100.0 %
     Test CRC 8F272629
     Copy CRC 8F272629
     Track not present in AccurateRip database
     Copy OK

Track 18

     Filename M:\3. my rip in preparation\3\VA - Ministry of Sound-Chilled (2015) [FLAC] {3CD Box Set, Digipak, Ministry of Sound MOSCD394}\CD3\18 - Zero 7 - Destiny.wav

     Peak level 98.8 %
     Extraction speed 5.1 X
     Track quality 100.0 %
     Test CRC 158684E2
     Copy CRC 158684E2
     Track not present in AccurateRip database
     Copy OK

Track 19

     Filename M:\3. my rip in preparation\3\VA - Ministry of Sound-Chilled (2015) [FLAC] {3CD Box Set, Digipak, Ministry of Sound MOSCD394}\CD3\19 - Bibio - Lovers' Carvings.wav

     Peak level 98.8 %
     Extraction speed 4.9 X
     Track quality 100.0 %
     Test CRC 52279D51
     Copy CRC 52279D51
     Track not present in AccurateRip database
     Copy OK

Track 20

     Filename M:\3. my rip in preparation\3\VA - Ministry of Sound-Chilled (2015) [FLAC] {3CD Box Set, Digipak, Ministry of Sound MOSCD394}\CD3\20 - The Cinematic Orchestra - The Build a Home.wav

     Peak level 98.8 %
     Extraction speed 5.7 X
     Track quality 100.0 %
     Test CRC 13DFA5E5
     Copy CRC 13DFA5E5
     Track not present in AccurateRip database
     Copy OK

None of the tracks are present in the AccurateRip database

No errors occurred

End of status report

---- CUETools DB Plugin V2.1.4

[CTDB TOCID: 07_g.HuN4Vr4eETTW7JcBy0329Q-] found
Submit result: 07_g.HuN4Vr4eETTW7JcBy0329Q- has been confirmed
Track | CTDB Status
  1   | (4/4) Accurately ripped
  2   | (4/4) Accurately ripped
  3   | (4/4) Accurately ripped
  4   | (4/4) Accurately ripped
  5   | (4/4) Accurately ripped
  6   | (4/4) Accurately ripped
  7   | (4/4) Accurately ripped
  8   | (4/4) Accurately ripped
  9   | (4/4) Accurately ripped
 10   | (4/4) Accurately ripped
 11   | (4/4) Accurately ripped
 12   | (4/4) Accurately ripped
 13   | (4/4) Accurately ripped
 14   | (4/4) Accurately ripped
 15   | (4/4) Accurately ripped
 16   | (4/4) Accurately ripped
 17   | (4/4) Accurately ripped
 18   | (4/4) Accurately ripped
 19   | (4/4) Accurately ripped
 20   | (4/4) Accurately ripped

==== Log checksum 7243A6606D7A033C4D6173320D3F82C349C9C526554D5393F057BF6FA5C694CB ====
Код:
Код: Выделить всё
-----------------------

DON'T MODIFY THIS FILE

-----------------------

PERFORMER: auCDtect Task Manager, ver. 1.6.0 RC1 build 1.6.0.1
Copyright (c) 2008-2010 y-soft. All rights reserved
http:/y-soft.org

ANALYZER: auCDtect: CD records authenticity detector, version 0.8.2
Copyright (c) 2004 Oleg Berngardt. All rights reserved.
Copyright (c) 2004 Alexander Djourik. All rights reserved.

FILE: 20 - The Cinematic Orchestra - The Build a Home.flac
  Size: 29548953 Hash: 59339F012F43AC2BF4C2DC8EC5C5BA9A Accuracy: -m40
  Conclusion: CDDA 100%
  Signature: 3266E97376734A3DD0BCAAF8D3949816E834A0F6
FILE: 19 - Bibio - Lovers' Carvings.flac
  Size: 22072837 Hash: 6DAF0F53DFD4EB6C017012AF4C82786D Accuracy: -m40
  Conclusion: CDDA 100%
  Signature: 2907F0EF9CF4FC1F7CF8C7D56E54A13C1A0AC6D1
FILE: 18 - Zero 7 - Destiny.flac
  Size: 23538698 Hash: B719B964AE5A5447BB5CF10813B22F36 Accuracy: -m40
  Conclusion: CDDA 99%
  Signature: 5AFAE703A5E20C2C7A150672E82B284AF0865205
FILE: 17 - Jakatta - American Dream.flac
  Size: 24334380 Hash: F846AD36DA1B1FBDF65DB7A67A0F21A8 Accuracy: -m40
  Conclusion: CDDA 100%
  Signature: 7CE44762C0DA373C43C0A77EA2FD379FE06A567C
FILE: 16 - William Orbit - Barber's Adagio for Strings.flac
  Size: 22848666 Hash: 79DC1E555E6B55EDACCE764923D315C3 Accuracy: -m40
  Conclusion: CDDA 100%
  Signature: A5BA40AF0EB5A1FADE3774FE211DA2B6BCB5205B
FILE: 15 - Morcheeba - The Sea.flac
  Size: 34191741 Hash: 5763F362F1CF73561A45CBFBB7A007A9 Accuracy: -m40
  Conclusion: CDDA 99%
  Signature: 1D3F22341A6EF7BABD805E62F22560112E22D8F0
FILE: 14 - Royksopp - Eple.flac
  Size: 24381663 Hash: DD6AEE04F46259DD822726603E1DDA09 Accuracy: -m40
  Conclusion: CDDA 100%
  Signature: 52EA84B7A8B4A3B40D448C6EED6F556D96AD3F3F
FILE: 13 - Moby - Natural Blues.flac
  Size: 25823712 Hash: 9319A3F444D574FFB3A445C262D3BE95 Accuracy: -m40
  Conclusion: CDDA 100%
  Signature: DED8184591D610F5151943A5E259B5F0A502FC2F
FILE: 12 - The Beloved - Sweet Harmony.flac
  Size: 29437778 Hash: 9EB075E1FE2B233FC5396B9B24A5CB57 Accuracy: -m40
  Conclusion: CDDA 100%
  Signature: 80C6B823D63DEDB3513C7B9CFFDA3AFA92262D01
FILE: 11 - Goldie&Metalheadz - Inner City Life (Baby Boy's edit).flac
  Size: 23986445 Hash: 00159317456AD8BFEE421310F891E7EE Accuracy: -m40
  Conclusion: CDDA 100%
  Signature: 9D4937DE344C0DDCE3264DB6466BBB68AAF1DEA7
FILE: 10 - Nightmares on Wax - Les Nuits.flac
  Size: 22304581 Hash: 4AA65B2E7ECE9243010DFD7DA10547C2 Accuracy: -m40
  Conclusion: CDDA 99%
  Signature: 5C3821B31146D19B6D2F9A6C30EC976F9E3C03F7
FILE: 09 - Air - All I Need.flac
  Size: 25148829 Hash: 6682149687A8995A5B03575DAA994576 Accuracy: -m40
  Conclusion: CDDA 100%
  Signature: 0073A1F7E218F2080C6635FA9F19069BE862E66F
FILE: 08 - Jose Gonzales - Heartbeats.flac
  Size: 13761218 Hash: 378512C854E5DF643B14993E03596FEE Accuracy: -m40
  Conclusion: CDDA 100%
  Signature: E3BFF27C9869EB516504054E866AFF37307350B7
FILE: 07 - GilScott-Heron & Jamie xx - I'll Take Care of You.flac
  Size: 25299937 Hash: E3AA0969ED6CBF06B4E26BC1F5CD386F Accuracy: -m40
  Conclusion: CDDA 100%
  Signature: E98AAAB8842862879C21DBC146EDDB0945DC7176
FILE: 06 - Fatboy Slim - Praisu You (Maribou State remix).flac
  Size: 27137534 Hash: CD8E0E547E26230C4828741A08F9C9AF Accuracy: -m40
  Conclusion: CDDA 100%
  Signature: 15BDBBC48A69D5B41E4945D461D6EB6F7669389C
FILE: 05 - Faithless - Drifting Away.flac
  Size: 22788529 Hash: CEC871E81489669934045371DF0EAEFC Accuracy: -m40
  Conclusion: CDDA 100%
  Signature: 89C50B3A4FF924CB44FAFF64762C3264CDB44DED
FILE: 04 - Groove Armada - At the River.flac
  Size: 18527340 Hash: 225E2F121278F0E07A2CC08479889843 Accuracy: -m40
  Conclusion: CDDA 62%
  Signature: EA204A3501F24C8A01242F702E27B460C34ACD38
FILE: 03 - Empire of the Sun - Walking on a Dream.flac
  Size: 23104195 Hash: 270A8D24CA40C44B6647825F865D460E Accuracy: -m40
  Conclusion: CDDA 100%
  Signature: 9BFC31AF058AFF3C001A2F5DCB270BE0723B42C8
FILE: 02 - Radiohead - Street Spirit (Fade Out).flac
  Size: 25526135 Hash: 22963BBFFEA1EAAA68A705858FFAEF62 Accuracy: -m40
  Conclusion: CDDA 100%
  Signature: 1DF8855DC043E142A6630A84ADA16378C75D7974
FILE: 01 - Massive Attack feat. Tracey Thorn - Protection.flac
  Size: 29228713 Hash: BF27A57B320B75DD189DE34A4199A32F Accuracy: -m40
  Conclusion: CDDA 99%
  Signature: 29440B0E712BB599DDD8FEAAD312A8206DF961B4
Код:
Код: Выделить всё
REM GENRE Electronic
REM DATE 2015
REM DISCID 1412AB14
REM COMMENT "ExactAudioCopy v1.0b4"
PERFORMER "Various Artists"
TITLE "Ministry of Sound: Chilled (Disc 3)"
FILE "01 - Massive Attack feat. Tracey Thorn - Protection.wav" WAVE
  TRACK 01 AUDIO
    TITLE "Protection"
    PERFORMER "Massive Attack feat. Tracey Thorn"
    INDEX 01 00:00:00
FILE "02 - Radiohead - Street Spirit (Fade Out).wav" WAVE
  TRACK 02 AUDIO
    TITLE "Street Spirit (Fade Out)"
    PERFORMER "Radiohead"
    INDEX 01 00:00:00
FILE "03 - Empire of the Sun - Walking on a Dream.wav" WAVE
  TRACK 03 AUDIO
    TITLE "Walking on a Dream"
    PERFORMER "Empire of the Sun"
    INDEX 01 00:00:00
FILE "04 - Groove Armada - At the River.wav" WAVE
  TRACK 04 AUDIO
    TITLE "At the River"
    PERFORMER "Groove Armada"
    INDEX 01 00:00:00
FILE "05 - Faithless - Drifting Away.wav" WAVE
  TRACK 05 AUDIO
    TITLE "Drifting Away"
    PERFORMER "Faithless"
    INDEX 01 00:00:00
FILE "06 - Fatboy Slim - Praisu You (Maribou State remix).wav" WAVE
  TRACK 06 AUDIO
    TITLE "Praisu You (Maribou State remix)"
    PERFORMER "Fatboy Slim"
    INDEX 01 00:00:00
FILE "07 - GilScott-Heron & Jamie xx - I'll Take Care of You.wav" WAVE
  TRACK 07 AUDIO
    TITLE "I'll Take Care of You"
    PERFORMER "GilScott-Heron & Jamie xx"
    INDEX 01 00:00:00
FILE "08 - Jose Gonzales - Heartbeats.wav" WAVE
  TRACK 08 AUDIO
    TITLE "Heartbeats"
    PERFORMER "Jose Gonzales"
    INDEX 01 00:00:00
FILE "09 - Air - All I Need.wav" WAVE
  TRACK 09 AUDIO
    TITLE "All I Need"
    PERFORMER "Air"
    INDEX 01 00:00:00
FILE "10 - Nightmares on Wax - Les Nuits.wav" WAVE
  TRACK 10 AUDIO
    TITLE "Les Nuits"
    PERFORMER "Nightmares on Wax"
    INDEX 01 00:00:00
FILE "11 - Goldie&Metalheadz - Inner City Life (Baby Boy's edit).wav" WAVE
  TRACK 11 AUDIO
    TITLE "Inner City Life (Baby Boy's edit)"
    PERFORMER "Goldie&Metalheadz"
    INDEX 01 00:00:00
FILE "12 - The Beloved - Sweet Harmony.wav" WAVE
  TRACK 12 AUDIO
    TITLE "Sweet Harmony"
    PERFORMER "The Beloved"
    INDEX 01 00:00:00
FILE "13 - Moby - Natural Blues.wav" WAVE
  TRACK 13 AUDIO
    TITLE "Natural Blues"
    PERFORMER "Moby"
    INDEX 01 00:00:00
FILE "14 - Royksopp - Eple.wav" WAVE
  TRACK 14 AUDIO
    TITLE "Eple"
    PERFORMER "Royksopp"
    INDEX 01 00:00:00
FILE "15 - Morcheeba - The Sea.wav" WAVE
  TRACK 15 AUDIO
    TITLE "The Sea"
    PERFORMER "Morcheeba"
    INDEX 01 00:00:00
FILE "16 - William Orbit - Barber's Adagio for Strings.wav" WAVE
  TRACK 16 AUDIO
    TITLE "Barber's Adagio for Strings"
    PERFORMER "William Orbit"
    INDEX 01 00:00:00
FILE "17 - Jakatta - American Dream.wav" WAVE
  TRACK 17 AUDIO
    TITLE "American Dream"
    PERFORMER "Jakatta"
    INDEX 01 00:00:00
FILE "18 - Zero 7 - Destiny.wav" WAVE
  TRACK 18 AUDIO
    TITLE "Destiny"
    PERFORMER "Zero 7"
    INDEX 01 00:00:00
FILE "19 - Bibio - Lovers' Carvings.wav" WAVE
  TRACK 19 AUDIO
    TITLE "Lovers' Carvings"
    PERFORMER "Bibio"
    INDEX 01 00:00:00
FILE "20 - The Cinematic Orchestra - The Build a Home.wav" WAVE
  TRACK 20 AUDIO
    TITLE "The Build a Home"
    PERFORMER "The Cinematic Orchestra"
    INDEX 01 00:00:00
Время раздачи: 24/7 (круглосуточно)
 
Не забывайте говорить Спасибо. Не уходите с раздачи!   
Торрент: Зарегистрирован [30 мар 2015, 22:44] Скачать торрент
Скачать торрент
[ Размер 20.96 КБ / Просмотров 29 ]
Статус:
Проверен
 
.torrent скачан: 1 раз
Хэш: c591b9face826e14dff695f91dee1ffc347a0d0e
Размер: 1.44 ГБ (1 549 304 790 байт)
Стать Автором раздачи
 
 
Раздал: 6.67 ГБ
Скачал: 302.5 МБ
Ратио: 22.576
Сообщения: 374198
Зарегистрирован: 17 апр 2014, 11:05


  • Похожие торренты
    Ответы
    Просмотры
    Последнее сообщение

Вернуться в House, Techno, Electro, Minimal (транзит Lossless)

Ресурс не предоставляет электронные версии произведений, а занимается лишь коллекционированием и каталогизацией ссылок, присылаемых и публикуемых на форуме нашими читателями. Если вы являетесь правообладателем какого-либо представленного материала и не желаете чтобы ссылка на него находилась в нашем каталоге, свяжитесь с нами и мы незамедлительно удалим её. Файлы для обмена на трекере предоставлены пользователями сайта, и администрация не несёт ответственности за их содержание. Просьба не заливать файлы, защищенные авторскими правами, а также файлы нелегального содержания!
cron