Гримм / Grimm (2011-2014) WEB-DLRip [H.264] (Сезон 1-4, серии 1-80 из 88) LostFilm [MP4|720x400]

 
 Статистика раздачи 
Размер: 47.9 ГБ   |  Зарегистрирован: 26 мар 2015, 08:51   |   .torrent скачан: 0 раз
Сидеров: 1  [ 0 байт/сек ]     Личеров: 0  [ 0 байт/сек ]  
  

Гримм / Grimm (2011-2014) WEB-DLRip [H.264] (Сезон 1-4, серии 1-80 из 88) LostFilm [MP4|720x400]

Сообщение Thistoll » 26 мар 2015, 08:51

Гримм / Grimm (2011-2014) WEB-DLRip [H.264] (Сезон 1-4, серии 1-80 из 88) LostFilm
«Not your usual suspects»

Производство: США
Жанр: ужасы, фэнтези, драма, детектив

Режиссер: Норберто Барба, Терренс О’Хара, Стивен ДеПол
Актеры: Дэйв Гвинтоли, Расселл Хорнсби, Битси Таллоч, Сайлас Уэйр Митчелл, Саша Ройз, Регги Ли, Клэр Коффи, Айанна Беркшир, Кейт Бёртон, Тим Бэгли и др.

Описание фильма:
В центре повествования мрачной и фэнтезийной полицейской драмы от канала NBC - детектив Ник Буркхардт, который думал, что готов к суровой действительности, работая в отделе убийств. Но это было до того, как он начал видеть вещи, которые он не мог объяснить: привлекательная женщина на его глазах превращалась в ведьму, а заурядный Джо в опасного тролля. От единственного живущего родственника Ник узнает правду о своих странных видениях: он не такой как все, а потомок отряда элитных охотников, известных как "Гримм", задача которых не допустить распространения сверхъестественных существ в нашем мире...

Сэмпл

Продолжительность: ~ 00:43:00 серия
Качество видео: WEB-DLRip
Перевод: Многоголосый закадровый, профессиональный - LostFilm
Озвучка / Автор перевода: Студия «LostFilm»

Видеокодек: MPEG-4 AVC/H.264
Битрейт видео: ~1850 Кбит/сек
Размер кадра: 720x400 (16:9)
Аудиокодек: AAC, 2 канала
Битрейт аудио: 128 Кбит/сек
Код:
Код: Выделить всё
Полное имя                               : D:\Диск O\Grimm_(all.sezon's)_WEB-DLRip_MP4_LostFilm_[NNM-CLUB]\Сезон 1\Grimm.S01E01.400p.WEB-DLRip.x264.LostFilm.mp4
Формат                                   : MPEG-4
Профиль формата                          : Base Media / Version 2
Идентификатор кодека                     : mp42
Размер файла                             : 612 Мбайт
Продолжительность                        : 43 м.
Общий поток                              : 1973 Кбит/сек
Дата кодирования                         : UTC 2014-03-20 07:23:49
Дата пометки                             : UTC 2014-03-20 07:23:49
Библиотека кодирования                   : AVS

Видео
Идентификатор                            : 1
Формат                                   : AVC
Формат/Информация                        : Advanced Video Codec
Профиль формата                          :
Параметр CABAC формата                   : Да
Параметр ReFrames формата                : 4 кадра
Идентификатор кодека                     : avc1
Идентификатор кодека/Информация          : Advanced Video Coding
Продолжительность                        : 43 м.
Продолжительность оригинала              : 43 м.
Битрейт                                  : 1843 Кбит/сек
Ширина                                   : 720 пикселей
Высота                                   : 400 пикселей
Соотношение сторон                       : 16:9
Режим частоты кадров                     : Постоянный
Частота кадров                           : 23,976 кадра/сек
Цветовое пространство                    : YUV
Субдискретизация насыщенности            : 4:2:0
Битовая глубина                          : 8 бит
Тип развёртки                            : Прогрессивная
Бит/(Пиксели*Кадры)                      : 0.267
Размер потока                            : 571 Мбайт (93%)
Размер потока оригинала                  : 571 Мбайт (93%)
Язык                                     : English
Дата кодирования                         : UTC 2014-03-20 07:23:49
Дата пометки                             : UTC 2014-03-20 07:23:49
Основные цвета                           : BT.709
Характеристики трансфера                 : BT.709
Коэффициенты матрицы                     : BT.709
mdhd_Duration                            : 2600267

Аудио
Идентификатор                            : 2
Формат                                   : AAC
Формат/Информация                        : Advanced Audio Codec
Профиль формата                          : LC
Идентификатор кодека                     : 40
Продолжительность                        : 43 м.
Вид битрейта                             : Постоянный
Битрейт                                  : 128 Кбит/сек
Каналы                                   : 2 канала
Расположение каналов                     : Front: L R
Частота                                  : 44,1 КГц
Метод сжатия                             : С потерями
Размер потока                            : 38,9 Мбайт (6%)
Язык                                     : English
Дата кодирования                         : UTC 2014-03-20 07:23:49
Код:
Код: Выделить всё
Полное имя                               : D:\Диск O\Grimm_(all.sezon's)_WEB-DLRip_MP4_LostFilm_[NNM-CLUB]\Сезон 2\Grimm.S02E01.400p.WEB-DLRip.x264.LostFilm.mp4
Формат                                   : MPEG-4
Профиль формата                          : Base Media / Version 2
Идентификатор кодека                     : mp42
Размер файла                             : 607 Мбайт
Продолжительность                        : 43 м.
Общий поток                              : 1955 Кбит/сек
Дата кодирования                         : UTC 2014-03-21 04:51:50
Дата пометки                             : UTC 2014-03-21 04:51:50
Библиотека кодирования                   : AVS

Видео
Идентификатор                            : 1
Формат                                   : AVC
Формат/Информация                        : Advanced Video Codec
Профиль формата                          :
Параметр CABAC формата                   : Да
Параметр ReFrames формата                : 4 кадра
Идентификатор кодека                     : avc1
Идентификатор кодека/Информация          : Advanced Video Coding
Продолжительность                        : 43 м.
Продолжительность оригинала              : 43 м.
Битрейт                                  : 1825 Кбит/сек
Ширина                                   : 720 пикселей
Высота                                   : 400 пикселей
Соотношение сторон                       : 16:9
Режим частоты кадров                     : Постоянный
Частота кадров                           : 23,976 кадра/сек
Цветовое пространство                    : YUV
Субдискретизация насыщенности            : 4:2:0
Битовая глубина                          : 8 бит
Тип развёртки                            : Прогрессивная
Бит/(Пиксели*Кадры)                      : 0.264
Размер потока                            : 567 Мбайт (93%)
Размер потока оригинала                  : 567 Мбайт (93%)
Язык                                     : English
Дата кодирования                         : UTC 2014-03-21 04:51:50
Дата пометки                             : UTC 2014-03-21 04:51:50
Основные цвета                           : BT.709
Характеристики трансфера                 : BT.709
Коэффициенты матрицы                     : BT.709
mdhd_Duration                            : 2605147

Аудио
Идентификатор                            : 2
Формат                                   : AAC
Формат/Информация                        : Advanced Audio Codec
Профиль формата                          : LC
Идентификатор кодека                     : 40
Продолжительность                        : 43 м.
Вид битрейта                             : Постоянный
Битрейт                                  : 128 Кбит/сек
Каналы                                   : 2 канала
Расположение каналов                     : Front: L R
Частота                                  : 44,1 КГц
Метод сжатия                             : С потерями
Размер потока                            : 38,9 Мбайт (6%)
Язык                                     : English
Дата кодирования                         : UTC 2014-03-21 04:51:50
Код:
Код: Выделить всё
Полное имя                               : D:\Диск O\Grimm_(all.sezon's)_WEB-DLRip_MP4_LostFilm_[NNM-CLUB]\Сезон 3\Grimm.S03E01.400p.WEB-DLRip.x264.LostFilm.mp4
Формат                                   : MPEG-4
Профиль формата                          : Base Media / Version 2
Идентификатор кодека                     : mp42
Размер файла                             : 649 Мбайт
Продолжительность                        : 46 м.
Общий поток                              : 1960 Кбит/сек
Дата кодирования                         : UTC 2014-03-22 21:44:35
Дата пометки                             : UTC 2014-03-22 21:44:35
Библиотека кодирования                   : AVS

Видео
Идентификатор                            : 1
Формат                                   : AVC
Формат/Информация                        : Advanced Video Codec
Профиль формата                          :
Параметр CABAC формата                   : Да
Параметр ReFrames формата                : 4 кадра
Идентификатор кодека                     : avc1
Идентификатор кодека/Информация          : Advanced Video Coding
Продолжительность                        : 46 м.
Продолжительность оригинала              : 46 м.
Битрейт                                  : 1827 Кбит/сек
Ширина                                   : 720 пикселей
Высота                                   : 400 пикселей
Соотношение сторон                       : 16:9
Режим частоты кадров                     : Постоянный
Частота кадров                           : 29,970 кадров/сек
Цветовое пространство                    : YUV
Субдискретизация насыщенности            : 4:2:0
Битовая глубина                          : 8 бит
Тип развёртки                            : Прогрессивная
Бит/(Пиксели*Кадры)                      : 0.212
Размер потока                            : 605 Мбайт (93%)
Размер потока оригинала                  : 605 Мбайт (93%)
Язык                                     : English
Дата кодирования                         : UTC 2014-03-22 21:44:35
Дата пометки                             : UTC 2014-03-22 21:44:35
Основные цвета                           : BT.709
Характеристики трансфера                 : BT.709
Коэффициенты матрицы                     : BT.709
mdhd_Duration                            : 2777644

Аудио
Идентификатор                            : 2
Формат                                   : AAC
Формат/Информация                        : Advanced Audio Codec
Профиль формата                          : LC
Идентификатор кодека                     : 40
Продолжительность                        : 46 м.
Продолжительность оригинала              : 46 м.
Вид битрейта                             : Постоянный
Номинальный битрейт                      : 128 Кбит/сек
Каналы                                   : 2 канала
Расположение каналов                     : Front: L R
Частота                                  : 44,1 КГц
Метод сжатия                             : С потерями
Размер потока оригинала                  : 41,8 Мбайт (6%)
Язык                                     : English
Дата кодирования                         : UTC 2014-03-22 21:44:35
Код:
Код: Выделить всё
Полное имя                               : D:\Диск O\Grimm_(all.sezon's)_WEB-DLRip_MP4_LostFilm_[NNM-CLUB]\Сезон 4\Grimm.S04E01.400p.WEB-DLRip.x264.LostFilm.mp4
Формат                                   : MPEG-4
Профиль формата                          : Base Media
Идентификатор кодека                     : isom
Размер файла                             : 624 Мбайт
Продолжительность                        : 43 м.
Общий поток                              : 2021 Кбит/сек
Программа кодирования                    : Lavf55.12.100

Видео
Идентификатор                            : 2
Формат                                   : AVC
Формат/Информация                        : Advanced Video Codec
Профиль формата                          :
Параметр CABAC формата                   : Да
Параметр ReFrames формата                : 8 кадров
Идентификатор кодека                     : avc1
Идентификатор кодека/Информация          : Advanced Video Coding
Продолжительность                        : 43 м.
Битрейт                                  : 1889 Кбит/сек
Ширина                                   : 720 пикселей
Высота                                   : 400 пикселей
Соотношение сторон                       : 16:9
Режим частоты кадров                     : Постоянный
Частота кадров                           : 23,976 кадра/сек
Цветовое пространство                    : YUV
Субдискретизация насыщенности            : 4:2:0
Битовая глубина                          : 8 бит
Тип развёртки                            : Прогрессивная
Бит/(Пиксели*Кадры)                      : 0.274
Размер потока                            : 583 Мбайт (93%)

Аудио
Идентификатор                            : 1
Формат                                   : AAC
Формат/Информация                        : Advanced Audio Codec
Профиль формата                          : LC
Идентификатор кодека                     : 40
Продолжительность                        : 43 м.
Duration_LastFrame                       : -9 мс.
Вид битрейта                             : Постоянный
Битрейт                                  : 128 Кбит/сек
Каналы                                   : 2 канала
Расположение каналов                     : Front: L R
Частота                                  : 48,0 КГц
Метод сжатия                             : С потерями
Размер потока                            : 39,5 Мбайт (6%)
01 - Пилот / Pilot
02 - Медвежья натура / Bears Will Be Bears
03 - Осторожно, пчёлы! / Beeware
04 - Одинокие сердца / Lonelyhearts
05 - Пляска смерти / Danse Macabre
06 - Три злых волка / The Three Bad Wolves
07 - Брось мне косу свою / Let Your Hair Down
08 - Конец огры / Game Ogre
09 - О мыши и человеке / Of Mouse and Man
10 - Мясорубка / Organ Grinder
11 - Тарантелла / Tarantella
12 - Гримм- победитель / Last Grimm Standing
13 - Три монетки в рыжехвосте / Three Coins in a Fuchsbau
14 - Пернатый змей / Plumed Serpent
15 - Остров грёз / Island of Dreams
16 - Чудо в перьях / The Thing with Feathers
17 - Любовная горячка / Love Sick
18 - Кошки-мышки / Cat and Mouse
19 - Предоставьте это бобрам / Leave It to Beavers
20 - И жили они недолго, но счастливо / Happily Ever Aftermath
21 - Большеноги / Big Feet
22 - Женщина в черном / Woman in Black
01 - Сквернозуб / Bad Teeth
02 - Поцелуй / The Kiss
03 - Восход дурной луны / Bad Moon Rising
04 - Игла / Quill
05 - Добрый пастырь / The Good Shepherd
06 - Через мой труп / Over My Dead Body
07 - Чертёнок в бутылке / The Bottle Imp
08 - Другая сторона / The Other Side
09 - Ла Йорона / La Llorona
10 - Смертный час / The Hour of Death
11 - Тот, кто служит и защищает / To Protect and Serve Man
12 - Ведьмина пора / Season of the Hexenbiest
13 - Лицом к лицу / Face Off
14 - Прирождённое существо / Natural Born Wesen
15 - Господин Песочный человек / Mr. Sandman
16 - Безымянный / Nameless
17 - Один сердитый рыжехвост / One Angry Fuchsbau
18 - Огненное кольцо / Ring of Fire
19 - Вымирающий вид / Endangered
20 - Поцелуй музы / Kiss of the Muse
21 - Ожившие мертвецы / The Waking Dead
22 - Спи, милый Гримм / Goodnight, Sweet Grimm
01 - Неблагодарный мертвец / The Ungrateful Dead
02 - Посттравматический зомби-синдром / PTZD
03 - Блюдо, которое подают холодным / A Dish Best Served Cold
04 - На один раз / One Night Stand
05 - Кукуй / El Cucuy
06 - Сказки для наших малышей / Stories We Tell Our Young
07 - Хладнокровус / Cold Blooded
08 - Двенадцать дней Дрожьдества / Twelve Days of Krampus
09 - Красная угроза / Red Menace
10 - Глаза свидетеля / Eyes of the Beholder
11 - Хороший солдат / The Good Soldier
12 - Дикая охота / The Wild Hunt
13 - Откровение / Revelation
14 - Мама дорогая / Mommy Dearest
15 - Когда-то мы были богами / Once We Were Gods
16 - Шоу должно продолжаться / The Show Must Go On
17 - Синхроничность / Synchronicity
18 - Закон жертвы / The Law of Sacrifice
19 - Пришла Беда – отворяй ворота / Nobody Knows the Trubel I've Seen
20 - Моё прекрасное Существо / My Fair Wesen
21 - Наследие / The Inheritance
22 - Блондинка с амбициями / Blond Ambition
01 - Спасибо за воспоминания / Thanks for the Memories
02 - Голова осьминога / Octopus Head
03 - Последний бой / Last Fight
04 - Смертельная молитва / Dyin' on a Prayer
05 - Спасите, Луисон! / Cry Luison
06 - Дорога слёз / Highway of Tears
07 - Гримм, укравший Рождество / The Grimm Who Stole Christmas
08 - Чупакабра / Chupacabra
09 - Орден Чистой крови / Wesenrein
10 - Трибунал / Tribunal
11 - Смерть разлучит нас / Death Do Us Part
12 - Жандарм / Maréchaussée
13 - Испытание огнём / Trial by Fire
14 - Злосчастье / Bad Luck
Внимание! Раздача ведётся путём добавления новых серий; при каждом добавлении создаётся новый торрент.
Чтобы начать докачку новой серии, пользователям необходимо сделать следующее:
1. Остановить скачивание;
2. Удалить старый торрент у себя из клиента (старые серии удалять не надо);
3. Скачать новый торрент и запустить его у себя в клиенте вместо старого, при этом указать клиенту путь в старую папку куда и должно происходить скачивание новых серий. Ваш клиент при этом должен произвести хеширование (проверку) старой папки и будет докачивать только те серии, которых у вас ещё нет. Старые серии при этом не удаляются, а продолжают раздаваться! Eсли вы уже удалили старые серии, то предотвратить повторную закачку старых серий можно, отжав галочку в соответствующих местах при запуске нового торрента.
Скриншоты:



26.03.2015. Добавлена 14-я серия 4-го сезона.

Время раздачи:
24/7 - круглосуточно
(до первых 5-ти сидов - потом по возможности)
 
Не забывайте говорить Спасибо. Не уходите с раздачи!   
Торрент: Зарегистрирован [26 мар 2015, 08:51] Для скачивания .torrent
необходима регистрация
Или скачать с помощью
MediaGet
Статус:
Проверен
 
.torrent скачан: 0 раз
Хэш: 6d727098cf06780e70f2abb08a426952d076c256
Размер: 47.9 ГБ (51 435 618 166 байт)
Стать Автором раздачи
 
 
Раздал: 6.67 ГБ
Скачал: 302.5 МБ
Ратио: 22.576
Сообщения: 374198
Зарегистрирован: 17 апр 2014, 11:05


  • Похожие торренты
    Ответы
    Просмотры
    Последнее сообщение

Вернуться в Видео для мобильных устройств

Ресурс не предоставляет электронные версии произведений, а занимается лишь коллекционированием и каталогизацией ссылок, присылаемых и публикуемых на форуме нашими читателями. Если вы являетесь правообладателем какого-либо представленного материала и не желаете чтобы ссылка на него находилась в нашем каталоге, свяжитесь с нами и мы незамедлительно удалим её. Файлы для обмена на трекере предоставлены пользователями сайта, и администрация не несёт ответственности за их содержание. Просьба не заливать файлы, защищенные авторскими правами, а также файлы нелегального содержания!
cron