Сборник видеоклипов 7 - зарубежные хиты (2015) [H.264/1080p] WEBRip

 
 Статистика раздачи 
Размер: 1.81 ГБ   |  Зарегистрирован: 24 мар 2015, 21:50   |   .torrent скачан: 0 раз
Сидеров: 1  [ 0 байт/сек ]     Личеров: 0  [ 0 байт/сек ]  
  

Сборник видеоклипов 7 - зарубежные хиты (2015) [H.264/1080p] WEBRip

Сообщение Thistoll » 24 мар 2015, 21:50

Сборник видеоклипов 7 - зарубежные хиты (2015) [H.264/1080p] WEBRip

Год выпуска: 2015
Жанр: Pop, Dance, Rap
Продолжительность: 01:14:15

Описание: Подборка видеоклипов за 2015 год.

Качество видео: WEBRip [1080p]
Видеокодек: MPEG-4 AVC/H.264
Битрейт видео: ~ 3674 Кбит/с
Размер кадра: 1920x1080 (16:9), 25,000 кадров/с
Аудиокодек: AAC, 2 ch, stereo
Битрейт аудио: 254 Кбит/с
1.3LOGY - The Banjo.
2.Andreea D - Rompedon (Deepside Deejays Remix) (VJ Tony Video Edit).
3.Bougenvilla feat. Jared Hiwat - Homeless
4.CHIC feat Nile Rodgers - 'I'll Be There'
5.Jelle van Dael - ANOTHER DAY
6.Jennifer Lopez - Feel The Light (From The Original Motion Picture Soundtrack, Ho
7.Kiske - Somerville - Walk on Water (Official - New - Studio Album - 2015)
8.LARA MOCO ft. A-GENT - ROCK THIS PARTY
9.Lindsey Stirling - Take Flight
10.Lolita Jolie - Bonjour Madame
11.M.O - Preach.
12.Marcus Schossow feat. The Royalties STHLM - Lionheart
13.Menderes - Queen Of My Heart (DJ Gollum & Empyre One Video Edit).
14.Pink Noisy feat. Radio Killer - Mestral
15.Rae - Underwater ft. Max Louie.
16.Sean Finn – The Rhythm Of The Night.
17.SUSHY FEAT. ROACHIE - Nerdy Boy
18.Swanky Tunes feat. Pete Wilde - Wherever U Go
19.The Cube Guys Feat. Luciana - U Dance
20.Tyga - 40 Mill.
21.W&W - Rave After Rave
Код:
Код: Выделить всё
Общее
Полное имя                               : 3LOGY - The Banjo..mp4
Формат                                   : MPEG-4
Профиль формата                          : Base Media / Version 2
Идентификатор кодека                     : mp42
Размер файла                             : 76,3 Мбайт
Продолжительность                        : 4 м. 20 с.
Режим общего битрейта                    : Переменный
Общий поток                              : 2459 Кбит/сек

Видео
Идентификатор                            : 1
Формат                                   : AVC
Формат/Информация                        : Advanced Video Codec
Профиль формата                          :
Параметр CABAC формата                   : Да
Параметр ReFrames формата                : 3 кадра
Идентификатор кодека                     : avc1
Идентификатор кодека/Информация          : Advanced Video Coding
Продолжительность                        : 4 м. 20 с.
Битрейт                                  : 2200 Кбит/сек
Ширина                                   : 1920 пикселей
Высота                                   : 1080 пикселей
Соотношение сторон                       : 16:9
Режим частоты кадров                     : Постоянный
Частота кадров                           : 25,000 кадров/сек
Цветовое пространство                    : YUV
Субдискретизация насыщенности            : 4:2:0
Битовая глубина                          : 8 бит
Тип развёртки                            : Прогрессивная
Бит/(Пиксели*Кадры)                      : 0.042
Размер потока                            : 68,3 Мбайт (89%)
Язык                                     : English

Аудио
Идентификатор                            : 2
Формат                                   : AAC
Формат/Информация                        : Advanced Audio Codec
Профиль формата                          : LC
Идентификатор кодека                     : 40
Продолжительность                        : 4 м. 20 с.
Продолжительность оригинала              : 4 м. 20 с.
Вид битрейта                             : Переменный
Битрейт                                  : 254 Кбит/сек
Каналы                                   : 2 канала
Расположение каналов                     : Front: L R
Частота                                  : 44,1 КГц
Метод сжатия                             : С потерями
Размер потока                            : 7,87 Мбайт (10%)
Размер потока оригинала                  : 7,87 Мбайт (10%)
Язык                                     : English
mdhd_Duration                            : 260388

Общее
Полное имя                               : Andreea D - Rompedon (Deepside Deejays Remix) (VJ Tony Video Edit)..mp4
Формат                                   : MPEG-4
Профиль формата                          : Base Media / Version 2
Идентификатор кодека                     : mp42
Размер файла                             : 131 Мбайт
Продолжительность                        : 4 м. 32 с.
Режим общего битрейта                    : Переменный
Общий поток                              : 4030 Кбит/сек

Видео
Идентификатор                            : 1
Формат                                   : AVC
Формат/Информация                        : Advanced Video Codec
Профиль формата                          :
Параметр CABAC формата                   : Да
Параметр ReFrames формата                : 2 кадра
Идентификатор кодека                     : avc1
Идентификатор кодека/Информация          : Advanced Video Coding
Продолжительность                        : 4 м. 32 с.
Битрейт                                  : 3771 Кбит/сек
Ширина                                   : 1920 пикселей
Высота                                   : 1080 пикселей
Соотношение сторон                       : 16:9
Режим частоты кадров                     : Постоянный
Частота кадров                           : 25,000 кадров/сек
Цветовое пространство                    : YUV
Субдискретизация насыщенности            : 4:2:0
Битовая глубина                          : 8 бит
Тип развёртки                            : Прогрессивная
Бит/(Пиксели*Кадры)                      : 0.073
Размер потока                            : 123 Мбайт (94%)
Язык                                     : English

Аудио
Идентификатор                            : 2
Формат                                   : AAC
Формат/Информация                        : Advanced Audio Codec
Профиль формата                          : LC
Идентификатор кодека                     : 40
Продолжительность                        : 4 м. 32 с.
Продолжительность оригинала              : 4 м. 32 с.
Вид битрейта                             : Переменный
Битрейт                                  : 254 Кбит/сек
Каналы                                   : 2 канала
Расположение каналов                     : Front: L R
Частота                                  : 44,1 КГц
Метод сжатия                             : С потерями
Размер потока                            : 8,24 Мбайт (6%)
Размер потока оригинала                  : 8,24 Мбайт (6%)
Язык                                     : English
mdhd_Duration                            : 272555

Общее
Полное имя                               : Bougenvilla feat. Jared Hiwat - Homeless.mp4
Формат                                   : MPEG-4
Профиль формата                          : Base Media / Version 2
Идентификатор кодека                     : mp42
Размер файла                             : 81,4 Мбайт
Продолжительность                        : 2 м. 53 с.
Режим общего битрейта                    : Переменный
Общий поток                              : 3933 Кбит/сек

Видео
Идентификатор                            : 1
Формат                                   : AVC
Формат/Информация                        : Advanced Video Codec
Профиль формата                          :
Параметр CABAC формата                   : Да
Параметр ReFrames формата                : 2 кадра
Идентификатор кодека                     : avc1
Идентификатор кодека/Информация          : Advanced Video Coding
Продолжительность                        : 2 м. 53 с.
Битрейт                                  : 3674 Кбит/сек
Ширина                                   : 1920 пикселей
Высота                                   : 1080 пикселей
Соотношение сторон                       : 16:9
Режим частоты кадров                     : Переменный
Частота кадров                           : 23,976 кадра/сек
Минимальная частота кадров               : 11,987 кадров/сек
Максимальная частота кадров              : 90000,000 кадров/сек
Цветовое пространство                    : YUV
Субдискретизация насыщенности            : 4:2:0
Битовая глубина                          : 8 бит
Тип развёртки                            : Прогрессивная
Бит/(Пиксели*Кадры)                      : 0.074
Размер потока                            : 76,0 Мбайт (93%)
Язык                                     : English

Аудио
Идентификатор                            : 2
Формат                                   : AAC
Формат/Информация                        : Advanced Audio Codec
Профиль формата                          : LC
Идентификатор кодека                     : 40
Продолжительность                        : 2 м. 53 с.
Продолжительность оригинала              : 2 м. 53 с.
Вид битрейта                             : Переменный
Битрейт                                  : 254 Кбит/сек
Каналы                                   : 2 канала
Расположение каналов                     : Front: L R
Частота                                  : 44,1 КГц
Метод сжатия                             : С потерями
Размер потока                            : 5,25 Мбайт (6%)
Размер потока оригинала                  : 5,25 Мбайт (6%)
Язык                                     : English
mdhd_Duration                            : 173546

Общее
Полное имя                               : CHIC feat Nile Rodgers - 'I'll Be There'.mp4
Формат                                   : MPEG-4
Профиль формата                          : Base Media / Version 2
Идентификатор кодека                     : mp42
Размер файла                             : 117 Мбайт
Продолжительность                        : 4 м. 6 с.
Режим общего битрейта                    : Переменный
Общий поток                              : 3989 Кбит/сек

Видео
Идентификатор                            : 1
Формат                                   : AVC
Формат/Информация                        : Advanced Video Codec
Профиль формата                          :
Параметр CABAC формата                   : Да
Параметр ReFrames формата                : 2 кадра
Идентификатор кодека                     : avc1
Идентификатор кодека/Информация          : Advanced Video Coding
Продолжительность                        : 4 м. 6 с.
Битрейт                                  : 3730 Кбит/сек
Ширина                                   : 1920 пикселей
Высота                                   : 1080 пикселей
Соотношение сторон                       : 16:9
Режим частоты кадров                     : Переменный
Частота кадров                           : 23,976 кадра/сек
Минимальная частота кадров               : 23,974 кадра/сек
Максимальная частота кадров              : 23,981 кадра/сек
Цветовое пространство                    : YUV
Субдискретизация насыщенности            : 4:2:0
Битовая глубина                          : 8 бит
Тип развёртки                            : Прогрессивная
Бит/(Пиксели*Кадры)                      : 0.075
Размер потока                            : 110 Мбайт (93%)
Язык                                     : English
mdhd_Duration                            : 246413

Аудио
Идентификатор                            : 2
Формат                                   : AAC
Формат/Информация                        : Advanced Audio Codec
Профиль формата                          : LC
Идентификатор кодека                     : 40
Продолжительность                        : 4 м. 6 с.
Продолжительность оригинала              : 4 м. 6 с.
Вид битрейта                             : Переменный
Битрейт                                  : 254 Кбит/сек
Каналы                                   : 2 канала
Расположение каналов                     : Front: L R
Частота                                  : 44,1 КГц
Метод сжатия                             : С потерями
Размер потока                            : 7,45 Мбайт (6%)
Размер потока оригинала                  : 7,45 Мбайт (6%)
Язык                                     : English
mdhd_Duration                            : 246410

Общее
Полное имя                               : Jelle van Dael - ANOTHER DAY.mp4
Формат                                   : MPEG-4
Профиль формата                          : Base Media / Version 2
Идентификатор кодека                     : mp42
Размер файла                             : 69,6 Мбайт
Продолжительность                        : 2 м. 46 с.
Режим общего битрейта                    : Переменный
Общий поток                              : 3513 Кбит/сек

Видео
Идентификатор                            : 1
Формат                                   : AVC
Формат/Информация                        : Advanced Video Codec
Профиль формата                          :
Параметр CABAC формата                   : Да
Параметр ReFrames формата                : 2 кадра
Идентификатор кодека                     : avc1
Идентификатор кодека/Информация          : Advanced Video Coding
Продолжительность                        : 2 м. 46 с.
Битрейт                                  : 3254 Кбит/сек
Ширина                                   : 1920 пикселей
Высота                                   : 1080 пикселей
Соотношение сторон                       : 16:9
Режим частоты кадров                     : Постоянный
Частота кадров                           : 25,000 кадров/сек
Цветовое пространство                    : YUV
Субдискретизация насыщенности            : 4:2:0
Битовая глубина                          : 8 бит
Тип развёртки                            : Прогрессивная
Бит/(Пиксели*Кадры)                      : 0.063
Размер потока                            : 64,4 Мбайт (93%)
Язык                                     : English

Аудио
Идентификатор                            : 2
Формат                                   : AAC
Формат/Информация                        : Advanced Audio Codec
Профиль формата                          : LC
Идентификатор кодека                     : 40
Продолжительность                        : 2 м. 46 с.
Продолжительность оригинала              : 2 м. 46 с.
Вид битрейта                             : Переменный
Битрейт                                  : 254 Кбит/сек
Каналы                                   : 2 канала
Расположение каналов                     : Front: L R
Частота                                  : 44,1 КГц
Метод сжатия                             : С потерями
Размер потока                            : 5,02 Мбайт (7%)
Размер потока оригинала                  : 5,02 Мбайт (7%)
Язык                                     : English
mdhd_Duration                            : 166115

Общее
Полное имя                               : Jennifer Lopez - Feel The Light (From The Original Motion Picture Soundtrack, Ho..mp4
Формат                                   : MPEG-4
Профиль формата                          : Base Media / Version 2
Идентификатор кодека                     : mp42
Размер файла                             : 117 Мбайт
Продолжительность                        : 4 м. 8 с.
Режим общего битрейта                    : Переменный
Общий поток                              : 3971 Кбит/сек

Видео
Идентификатор                            : 1
Формат                                   : AVC
Формат/Информация                        : Advanced Video Codec
Профиль формата                          :
Параметр CABAC формата                   : Да
Параметр ReFrames формата                : 2 кадра
Идентификатор кодека                     : avc1
Идентификатор кодека/Информация          : Advanced Video Coding
Продолжительность                        : 4 м. 8 с.
Продолжительность оригинала              : 4 м. 8 с.
Битрейт                                  : 3712 Кбит/сек
Ширина                                   : 1920 пикселей
Высота                                   : 1080 пикселей
Соотношение сторон                       : 16:9
Режим частоты кадров                     : Переменный
Частота кадров                           : 23,976 кадра/сек
Минимальная частота кадров               : 23,974 кадра/сек
Максимальная частота кадров              : 23,981 кадра/сек
Цветовое пространство                    : YUV
Субдискретизация насыщенности            : 4:2:0
Битовая глубина                          : 8 бит
Тип развёртки                            : Прогрессивная
Бит/(Пиксели*Кадры)                      : 0.075
Размер потока                            : 110 Мбайт (93%)
Размер потока оригинала                  : 110 Мбайт (93%)
Язык                                     : English
mdhd_Duration                            : 248081

Аудио
Идентификатор                            : 2
Формат                                   : AAC
Формат/Информация                        : Advanced Audio Codec
Профиль формата                          : LC
Идентификатор кодека                     : 40
Продолжительность                        : 4 м. 8 с.
Продолжительность оригинала              : 4 м. 8 с.
Вид битрейта                             : Переменный
Битрейт                                  : 254 Кбит/сек
Каналы                                   : 2 канала
Расположение каналов                     : Front: L R
Частота                                  : 44,1 КГц
Метод сжатия                             : С потерями
Размер потока                            : 7,50 Мбайт (6%)
Размер потока оригинала                  : 7,50 Мбайт (6%)
Язык                                     : English
mdhd_Duration                            : 248105

Общее
Полное имя                               : Kiske - Somerville - Walk on Water (Official - New - Studio Album - 2015)..mp4
Формат                                   : MPEG-4
Профиль формата                          : Base Media / Version 2
Идентификатор кодека                     : mp42
Размер файла                             : 127 Мбайт
Продолжительность                        : 4 м. 16 с.
Режим общего битрейта                    : Переменный
Общий поток                              : 4163 Кбит/сек

Видео
Идентификатор                            : 1
Формат                                   : AVC
Формат/Информация                        : Advanced Video Codec
Профиль формата                          :
Параметр CABAC формата                   : Да
Параметр ReFrames формата                : 2 кадра
Идентификатор кодека                     : avc1
Идентификатор кодека/Информация          : Advanced Video Coding
Продолжительность                        : 4 м. 16 с.
Битрейт                                  : 3905 Кбит/сек
Ширина                                   : 1920 пикселей
Высота                                   : 1080 пикселей
Соотношение сторон                       : 16:9
Режим частоты кадров                     : Постоянный
Частота кадров                           : 25,000 кадров/сек
Цветовое пространство                    : YUV
Субдискретизация насыщенности            : 4:2:0
Битовая глубина                          : 8 бит
Тип развёртки                            : Прогрессивная
Бит/(Пиксели*Кадры)                      : 0.075
Размер потока                            : 120 Мбайт (94%)
Язык                                     : English

Аудио
Идентификатор                            : 2
Формат                                   : AAC
Формат/Информация                        : Advanced Audio Codec
Профиль формата                          : LC
Идентификатор кодека                     : 40
Продолжительность                        : 4 м. 16 с.
Продолжительность оригинала              : 4 м. 16 с.
Вид битрейта                             : Переменный
Битрейт                                  : 254 Кбит/сек
Каналы                                   : 2 канала
Расположение каналов                     : Front: L R
Частота                                  : 44,1 КГц
Метод сжатия                             : С потерями
Размер потока                            : 7,76 Мбайт (6%)
Размер потока оригинала                  : 7,76 Мбайт (6%)
Язык                                     : English
mdhd_Duration                            : 256859

Общее
Полное имя                               : LARA MOCO ft. A-GENT - ROCK THIS PARTY.mp4
Формат                                   : MPEG-4
Профиль формата                          : Base Media / Version 2
Идентификатор кодека                     : mp42
Размер файла                             : 83,8 Мбайт
Продолжительность                        : 3 м. 23 с.
Режим общего битрейта                    : Переменный
Общий поток                              : 3455 Кбит/сек

Видео
Идентификатор                            : 1
Формат                                   : AVC
Формат/Информация                        : Advanced Video Codec
Профиль формата                          :
Параметр CABAC формата                   : Да
Параметр ReFrames формата                : 3 кадра
Идентификатор кодека                     : avc1
Идентификатор кодека/Информация          : Advanced Video Coding
Продолжительность                        : 3 м. 23 с.
Продолжительность оригинала              : 3 м. 23 с.
Битрейт                                  : 3197 Кбит/сек
Ширина                                   : 1920 пикселей
Высота                                   : 1080 пикселей
Соотношение сторон                       : 16:9
Режим частоты кадров                     : Переменный
Частота кадров                           : 29,970 кадров/сек
Минимальная частота кадров               : 29,970 кадров/сек
Максимальная частота кадров              : 29,980 кадров/сек
Цветовое пространство                    : YUV
Субдискретизация насыщенности            : 4:2:0
Битовая глубина                          : 8 бит
Тип развёртки                            : Прогрессивная
Бит/(Пиксели*Кадры)                      : 0.051
Размер потока                            : 77,5 Мбайт (93%)
Размер потока оригинала                  : 77,5 Мбайт (93%)
Язык                                     : English
mdhd_Duration                            : 203369

Аудио
Идентификатор                            : 2
Формат                                   : AAC
Формат/Информация                        : Advanced Audio Codec
Профиль формата                          : LC
Идентификатор кодека                     : 40
Продолжительность                        : 3 м. 23 с.
Продолжительность оригинала              : 3 м. 23 с.
Вид битрейта                             : Переменный
Битрейт                                  : 254 Кбит/сек
Каналы                                   : 2 канала
Расположение каналов                     : Front: L R
Частота                                  : 44,1 КГц
Метод сжатия                             : С потерями
Размер потока                            : 6,15 Мбайт (7%)
Размер потока оригинала                  : 6,15 Мбайт (7%)
Язык                                     : English
mdhd_Duration                            : 203383

Общее
Полное имя                               : Lindsey Stirling - Take Flight.mp4
Формат                                   : MPEG-4
Профиль формата                          : Base Media / Version 2
Идентификатор кодека                     : mp42
Размер файла                             : 80,8 Мбайт
Продолжительность                        : 5 м. 14 с.
Режим общего битрейта                    : Переменный
Общий поток                              : 2157 Кбит/сек

Видео
Идентификатор                            : 1
Формат                                   : AVC
Формат/Информация                        : Advanced Video Codec
Профиль формата                          :
Параметр CABAC формата                   : Да
Параметр ReFrames формата                : 3 кадра
Идентификатор кодека                     : avc1
Идентификатор кодека/Информация          : Advanced Video Coding
Продолжительность                        : 5 м. 14 с.
Продолжительность оригинала              : 5 м. 14 с.
Битрейт                                  : 1898 Кбит/сек
Ширина                                   : 1920 пикселей
Высота                                   : 1080 пикселей
Соотношение сторон                       : 16:9
Режим частоты кадров                     : Переменный
Частота кадров                           : 23,976 кадра/сек
Минимальная частота кадров               : 23,974 кадра/сек
Максимальная частота кадров              : 23,981 кадра/сек
Цветовое пространство                    : YUV
Субдискретизация насыщенности            : 4:2:0
Битовая глубина                          : 8 бит
Тип развёртки                            : Прогрессивная
Бит/(Пиксели*Кадры)                      : 0.038
Размер потока                            : 71,1 Мбайт (88%)
Размер потока оригинала                  : 71,1 Мбайт (88%)
Язык                                     : English
mdhd_Duration                            : 314272

Аудио
Идентификатор                            : 2
Формат                                   : AAC
Формат/Информация                        : Advanced Audio Codec
Профиль формата                          : LC
Идентификатор кодека                     : 40
Продолжительность                        : 5 м. 14 с.
Продолжительность оригинала              : 5 м. 14 с.
Вид битрейта                             : Переменный
Битрейт                                  : 254 Кбит/сек
Каналы                                   : 2 канала
Расположение каналов                     : Front: L R
Частота                                  : 44,1 КГц
Метод сжатия                             : С потерями
Размер потока                            : 9,50 Мбайт (12%)
Размер потока оригинала                  : 9,50 Мбайт (12%)
Язык                                     : English
mdhd_Duration                            : 314305

Общее
Полное имя                               : Lolita Jolie - Bonjour Madame.mp4
Формат                                   : MPEG-4
Профиль формата                          : Base Media / Version 2
Идентификатор кодека                     : mp42
Размер файла                             : 54,1 Мбайт
Продолжительность                        : 3 м. 2 с.
Режим общего битрейта                    : Переменный
Общий поток                              : 2486 Кбит/сек

Видео
Идентификатор                            : 1
Формат                                   : AVC
Формат/Информация                        : Advanced Video Codec
Профиль формата                          :
Параметр CABAC формата                   : Да
Параметр ReFrames формата                : 3 кадра
Идентификатор кодека                     : avc1
Идентификатор кодека/Информация          : Advanced Video Coding
Продолжительность                        : 3 м. 2 с.
Продолжительность оригинала              : 3 м. 2 с.
Битрейт                                  : 2227 Кбит/сек
Ширина                                   : 1920 пикселей
Высота                                   : 1080 пикселей
Соотношение сторон                       : 16:9
Режим частоты кадров                     : Постоянный
Частота кадров                           : 25,000 кадров/сек
Цветовое пространство                    : YUV
Субдискретизация насыщенности            : 4:2:0
Битовая глубина                          : 8 бит
Тип развёртки                            : Прогрессивная
Бит/(Пиксели*Кадры)                      : 0.043
Размер потока                            : 48,5 Мбайт (90%)
Размер потока оригинала                  : 48,5 Мбайт (90%)
Язык                                     : English
mdhd_Duration                            : 182680

Аудио
Идентификатор                            : 2
Формат                                   : AAC
Формат/Информация                        : Advanced Audio Codec
Профиль формата                          : LC
Идентификатор кодека                     : 40
Продолжительность                        : 3 м. 2 с.
Продолжительность оригинала              : 3 м. 2 с.
Вид битрейта                             : Переменный
Битрейт                                  : 254 Кбит/сек
Каналы                                   : 2 канала
Расположение каналов                     : Front: L R
Частота                                  : 44,1 КГц
Метод сжатия                             : С потерями
Размер потока                            : 5,52 Мбайт (10%)
Размер потока оригинала                  : 5,52 Мбайт (10%)
Язык                                     : English
mdhd_Duration                            : 182717

Общее
Полное имя                               : M.O - Preach..mp4
Формат                                   : MPEG-4
Профиль формата                          : Base Media / Version 2
Идентификатор кодека                     : mp42
Размер файла                             : 104 Мбайт
Продолжительность                        : 3 м. 18 с.
Режим общего битрейта                    : Переменный
Общий поток                              : 4395 Кбит/сек

Видео
Идентификатор                            : 1
Формат                                   : AVC
Формат/Информация                        : Advanced Video Codec
Профиль формата                          :
Параметр CABAC формата                   : Да
Параметр ReFrames формата                : 2 кадра
Идентификатор кодека                     : avc1
Идентификатор кодека/Информация          : Advanced Video Coding
Продолжительность                        : 3 м. 18 с.
Битрейт                                  : 4136 Кбит/сек
Ширина                                   : 1920 пикселей
Высота                                   : 1080 пикселей
Соотношение сторон                       : 16:9
Режим частоты кадров                     : Постоянный
Частота кадров                           : 25,000 кадров/сек
Цветовое пространство                    : YUV
Субдискретизация насыщенности            : 4:2:0
Битовая глубина                          : 8 бит
Тип развёртки                            : Прогрессивная
Бит/(Пиксели*Кадры)                      : 0.080
Размер потока                            : 98,1 Мбайт (94%)
Язык                                     : English

Аудио
Идентификатор                            : 2
Формат                                   : AAC
Формат/Информация                        : Advanced Audio Codec
Профиль формата                          : LC
Идентификатор кодека                     : 40
Продолжительность                        : 3 м. 18 с.
Продолжительность оригинала              : 3 м. 18 с.
Вид битрейта                             : Переменный
Битрейт                                  : 254 Кбит/сек
Каналы                                   : 2 канала
Расположение каналов                     : Front: L R
Частота                                  : 44,1 КГц
Метод сжатия                             : С потерями
Размер потока                            : 6,01 Мбайт (6%)
Размер потока оригинала                  : 6,01 Мбайт (6%)
Язык                                     : English
mdhd_Duration                            : 198878

Общее
Полное имя                               : Marcus Schossow feat. The Royalties STHLM - Lionheart.mp4
Формат                                   : MPEG-4
Профиль формата                          : Base Media / Version 2
Идентификатор кодека                     : mp42
Размер файла                             : 84,8 Мбайт
Продолжительность                        : 3 м. 35 с.
Режим общего битрейта                    : Переменный
Общий поток                              : 3307 Кбит/сек

Видео
Идентификатор                            : 1
Формат                                   : AVC
Формат/Информация                        : Advanced Video Codec
Профиль формата                          :
Параметр CABAC формата                   : Да
Параметр ReFrames формата                : 2 кадра
Идентификатор кодека                     : avc1
Идентификатор кодека/Информация          : Advanced Video Coding
Продолжительность                        : 3 м. 35 с.
Продолжительность оригинала              : 3 м. 35 с.
Битрейт                                  : 3048 Кбит/сек
Ширина                                   : 1920 пикселей
Высота                                   : 1080 пикселей
Соотношение сторон                       : 16:9
Режим частоты кадров                     : Постоянный
Частота кадров                           : 25,000 кадров/сек
Цветовое пространство                    : YUV
Субдискретизация насыщенности            : 4:2:0
Битовая глубина                          : 8 бит
Тип развёртки                            : Прогрессивная
Бит/(Пиксели*Кадры)                      : 0.059
Размер потока                            : 78,2 Мбайт (92%)
Размер потока оригинала                  : 78,2 Мбайт (92%)
Язык                                     : English
mdhd_Duration                            : 215080

Аудио
Идентификатор                            : 2
Формат                                   : AAC
Формат/Информация                        : Advanced Audio Codec
Профиль формата                          : LC
Идентификатор кодека                     : 40
Продолжительность                        : 3 м. 35 с.
Продолжительность оригинала              : 3 м. 35 с.
Вид битрейта                             : Переменный
Битрейт                                  : 254 Кбит/сек
Каналы                                   : 2 канала
Расположение каналов                     : Front: L R
Частота                                  : 44,1 КГц
Метод сжатия                             : С потерями
Размер потока                            : 6,50 Мбайт (8%)
Размер потока оригинала                  : 6,50 Мбайт (8%)
Язык                                     : English
mdhd_Duration                            : 215109

Общее
Полное имя                               : Menderes - Queen Of My Heart (DJ Gollum & Empyre One Video Edit)..mp4
Формат                                   : MPEG-4
Профиль формата                          : Base Media / Version 2
Идентификатор кодека                     : mp42
Размер файла                             : 97,1 Мбайт
Продолжительность                        : 3 м. 47 с.
Режим общего битрейта                    : Переменный
Общий поток                              : 3584 Кбит/сек

Видео
Идентификатор                            : 1
Формат                                   : AVC
Формат/Информация                        : Advanced Video Codec
Профиль формата                          :
Параметр CABAC формата                   : Да
Параметр ReFrames формата                : 2 кадра
Идентификатор кодека                     : avc1
Идентификатор кодека/Информация          : Advanced Video Coding
Продолжительность                        : 3 м. 47 с.
Битрейт                                  : 3326 Кбит/сек
Ширина                                   : 1920 пикселей
Высота                                   : 1080 пикселей
Соотношение сторон                       : 16:9
Режим частоты кадров                     : Постоянный
Частота кадров                           : 25,000 кадров/сек
Цветовое пространство                    : YUV
Субдискретизация насыщенности            : 4:2:0
Битовая глубина                          : 8 бит
Тип развёртки                            : Прогрессивная
Бит/(Пиксели*Кадры)                      : 0.064
Размер потока                            : 90,1 Мбайт (93%)
Язык                                     : English

Аудио
Идентификатор                            : 2
Формат                                   : AAC
Формат/Информация                        : Advanced Audio Codec
Профиль формата                          : LC
Идентификатор кодека                     : 40
Продолжительность                        : 3 м. 47 с.
Продолжительность оригинала              : 3 м. 47 с.
Вид битрейта                             : Переменный
Битрейт                                  : 254 Кбит/сек
Каналы                                   : 2 канала
Расположение каналов                     : Front: L R
Частота                                  : 44,1 КГц
Метод сжатия                             : С потерями
Размер потока                            : 6,87 Мбайт (7%)
Размер потока оригинала                  : 6,87 Мбайт (7%)
Язык                                     : English
mdhd_Duration                            : 227183

Общее
Полное имя                               : Pink Noisy feat. Radio Killer - Mestral.mp4
Формат                                   : MPEG-4
Профиль формата                          : Base Media / Version 2
Идентификатор кодека                     : mp42
Размер файла                             : 101 Мбайт
Продолжительность                        : 3 м. 54 с.
Режим общего битрейта                    : Переменный
Общий поток                              : 3626 Кбит/сек

Видео
Идентификатор                            : 1
Формат                                   : AVC
Формат/Информация                        : Advanced Video Codec
Профиль формата                          :
Параметр CABAC формата                   : Да
Параметр ReFrames формата                : 3 кадра
Идентификатор кодека                     : avc1
Идентификатор кодека/Информация          : Advanced Video Coding
Продолжительность                        : 3 м. 54 с.
Битрейт                                  : 3368 Кбит/сек
Ширина                                   : 1920 пикселей
Высота                                   : 1080 пикселей
Соотношение сторон                       : 16:9
Режим частоты кадров                     : Постоянный
Частота кадров                           : 25,000 кадров/сек
Цветовое пространство                    : YUV
Субдискретизация насыщенности            : 4:2:0
Битовая глубина                          : 8 бит
Тип развёртки                            : Прогрессивная
Бит/(Пиксели*Кадры)                      : 0.065
Размер потока                            : 94,1 Мбайт (93%)
Язык                                     : English

Аудио
Идентификатор                            : 2
Формат                                   : AAC
Формат/Информация                        : Advanced Audio Codec
Профиль формата                          : LC
Идентификатор кодека                     : 40
Продолжительность                        : 3 м. 54 с.
Продолжительность оригинала              : 3 м. 54 с.
Вид битрейта                             : Переменный
Битрейт                                  : 254 Кбит/сек
Каналы                                   : 2 канала
Расположение каналов                     : Front: L R
Частота                                  : 44,1 КГц
Метод сжатия                             : С потерями
Размер потока                            : 7,08 Мбайт (7%)
Размер потока оригинала                  : 7,08 Мбайт (7%)
Язык                                     : English
mdhd_Duration                            : 234266

Общее
Полное имя                               : Rae - Underwater ft. Max Louie..mp4
Формат                                   : MPEG-4
Профиль формата                          : Base Media / Version 2
Идентификатор кодека                     : mp42
Размер файла                             : 62,1 Мбайт
Продолжительность                        : 3 м. 38 с.
Режим общего битрейта                    : Переменный
Общий поток                              : 2386 Кбит/сек

Видео
Идентификатор                            : 1
Формат                                   : AVC
Формат/Информация                        : Advanced Video Codec
Профиль формата                          :
Параметр CABAC формата                   : Да
Параметр ReFrames формата                : 3 кадра
Идентификатор кодека                     : avc1
Идентификатор кодека/Информация          : Advanced Video Coding
Продолжительность                        : 3 м. 38 с.
Битрейт                                  : 2126 Кбит/сек
Ширина                                   : 1920 пикселей
Высота                                   : 810 пикселей
Соотношение сторон                       : 2,40:1
Режим частоты кадров                     : Переменный
Частота кадров                           : 23,976 кадра/сек
Минимальная частота кадров               : 23,974 кадра/сек
Максимальная частота кадров              : 23,987 кадра/сек
Цветовое пространство                    : YUV
Субдискретизация насыщенности            : 4:2:0
Битовая глубина                          : 8 бит
Тип развёртки                            : Прогрессивная
Бит/(Пиксели*Кадры)                      : 0.057
Размер потока                            : 55,4 Мбайт (89%)
Язык                                     : English

Аудио
Идентификатор                            : 2
Формат                                   : AAC
Формат/Информация                        : Advanced Audio Codec
Профиль формата                          : LC
Идентификатор кодека                     : 40
Продолжительность                        : 3 м. 38 с.
Продолжительность оригинала              : 3 м. 38 с.
Вид битрейта                             : Переменный
Битрейт                                  : 254 Кбит/сек
Каналы                                   : 2 канала
Расположение каналов                     : Front: L R
Частота                                  : 44,1 КГц
Метод сжатия                             : С потерями
Размер потока                            : 6,60 Мбайт (11%)
Размер потока оригинала                  : 6,60 Мбайт (11%)
Язык                                     : English
mdhd_Duration                            : 218383

Общее
Полное имя                               : Sean Finn – The Rhythm Of The Night..mp4
Формат                                   : MPEG-4
Профиль формата                          : Base Media / Version 2
Идентификатор кодека                     : mp42
Размер файла                             : 56,4 Мбайт
Продолжительность                        : 2 м. 38 с.
Режим общего битрейта                    : Переменный
Общий поток                              : 2977 Кбит/сек

Видео
Идентификатор                            : 1
Формат                                   : AVC
Формат/Информация                        : Advanced Video Codec
Профиль формата                          :
Параметр CABAC формата                   : Да
Параметр ReFrames формата                : 2 кадра
Идентификатор кодека                     : avc1
Идентификатор кодека/Информация          : Advanced Video Coding
Продолжительность                        : 2 м. 38 с.
Битрейт                                  : 2718 Кбит/сек
Ширина                                   : 1920 пикселей
Высота                                   : 1080 пикселей
Соотношение сторон                       : 16:9
Режим частоты кадров                     : Переменный
Частота кадров                           : 29,970 кадров/сек
Минимальная частота кадров               : 29,970 кадров/сек
Максимальная частота кадров              : 29,980 кадров/сек
Цветовое пространство                    : YUV
Субдискретизация насыщенности            : 4:2:0
Битовая глубина                          : 8 бит
Тип развёртки                            : Прогрессивная
Бит/(Пиксели*Кадры)                      : 0.044
Размер потока                            : 51,5 Мбайт (91%)
Язык                                     : English

Аудио
Идентификатор                            : 2
Формат                                   : AAC
Формат/Информация                        : Advanced Audio Codec
Профиль формата                          : LC
Идентификатор кодека                     : 40
Продолжительность                        : 2 м. 38 с.
Продолжительность оригинала              : 2 м. 38 с.
Вид битрейта                             : Переменный
Битрейт                                  : 254 Кбит/сек
Каналы                                   : 2 канала
Расположение каналов                     : Front: L R
Частота                                  : 44,1 КГц
Метод сжатия                             : С потерями
Размер потока                            : 4,81 Мбайт (9%)
Размер потока оригинала                  : 4,81 Мбайт (9%)
Язык                                     : English
mdhd_Duration                            : 158987

Общее
Полное имя                               : SUSHY FEAT. ROACHIE - Nerdy Boy.mp4
Формат                                   : MPEG-4
Профиль формата                          : Base Media / Version 2
Идентификатор кодека                     : mp42
Размер файла                             : 112 Мбайт
Продолжительность                        : 3 м. 48 с.
Режим общего битрейта                    : Переменный
Общий поток                              : 4114 Кбит/сек

Видео
Идентификатор                            : 1
Формат                                   : AVC
Формат/Информация                        : Advanced Video Codec
Профиль формата                          :
Параметр CABAC формата                   : Да
Параметр ReFrames формата                : 2 кадра
Идентификатор кодека                     : avc1
Идентификатор кодека/Информация          : Advanced Video Coding
Продолжительность                        : 3 м. 48 с.
Битрейт                                  : 3856 Кбит/сек
Ширина                                   : 1920 пикселей
Высота                                   : 1080 пикселей
Соотношение сторон                       : 16:9
Режим частоты кадров                     : Постоянный
Частота кадров                           : 25,000 кадров/сек
Цветовое пространство                    : YUV
Субдискретизация насыщенности            : 4:2:0
Битовая глубина                          : 8 бит
Тип развёртки                            : Прогрессивная
Бит/(Пиксели*Кадры)                      : 0.074
Размер потока                            : 105 Мбайт (94%)
Язык                                     : English

Аудио
Идентификатор                            : 2
Формат                                   : AAC
Формат/Информация                        : Advanced Audio Codec
Профиль формата                          : LC
Идентификатор кодека                     : 40
Продолжительность                        : 3 м. 48 с.
Продолжительность оригинала              : 3 м. 48 с.
Вид битрейта                             : Переменный
Битрейт                                  : 254 Кбит/сек
Каналы                                   : 2 канала
Расположение каналов                     : Front: L R
Частота                                  : 44,1 КГц
Метод сжатия                             : С потерями
Размер потока                            : 6,92 Мбайт (6%)
Размер потока оригинала                  : 6,92 Мбайт (6%)
Язык                                     : English
mdhd_Duration                            : 228948

Общее
Полное имя                               : Swanky Tunes feat. Pete Wilde - Wherever U Go.mp4
Формат                                   : MPEG-4
Профиль формата                          : Base Media / Version 2
Идентификатор кодека                     : mp42
Размер файла                             : 59,4 Мбайт
Продолжительность                        : 3 м. 25 с.
Режим общего битрейта                    : Переменный
Общий поток                              : 2419 Кбит/сек

Видео
Идентификатор                            : 1
Формат                                   : AVC
Формат/Информация                        : Advanced Video Codec
Профиль формата                          :
Параметр CABAC формата                   : Да
Параметр ReFrames формата                : 3 кадра
Идентификатор кодека                     : avc1
Идентификатор кодека/Информация          : Advanced Video Coding
Продолжительность                        : 3 м. 25 с.
Битрейт                                  : 2161 Кбит/сек
Ширина                                   : 1920 пикселей
Высота                                   : 1080 пикселей
Соотношение сторон                       : 16:9
Режим частоты кадров                     : Постоянный
Частота кадров                           : 25,000 кадров/сек
Цветовое пространство                    : YUV
Субдискретизация насыщенности            : 4:2:0
Битовая глубина                          : 8 бит
Тип развёртки                            : Прогрессивная
Бит/(Пиксели*Кадры)                      : 0.042
Размер потока                            : 53,0 Мбайт (89%)
Язык                                     : English

Аудио
Идентификатор                            : 2
Формат                                   : AAC
Формат/Информация                        : Advanced Audio Codec
Профиль формата                          : LC
Идентификатор кодека                     : 40
Продолжительность                        : 3 м. 25 с.
Продолжительность оригинала              : 3 м. 25 с.
Вид битрейта                             : Переменный
Битрейт                                  : 254 Кбит/сек
Каналы                                   : 2 канала
Расположение каналов                     : Front: L R
Частота                                  : 44,1 КГц
Метод сжатия                             : С потерями
Размер потока                            : 6,22 Мбайт (10%)
Размер потока оригинала                  : 6,22 Мбайт (10%)
Язык                                     : English
mdhd_Duration                            : 205914

Общее
Полное имя                               : The Cube Guys Feat. Luciana - U Dance.mp4
Формат                                   : MPEG-4
Профиль формата                          : Base Media / Version 2
Идентификатор кодека                     : mp42
Размер файла                             : 92,0 Мбайт
Продолжительность                        : 2 м. 55 с.
Режим общего битрейта                    : Переменный
Общий поток                              : 4388 Кбит/сек

Видео
Идентификатор                            : 1
Формат                                   : AVC
Формат/Информация                        : Advanced Video Codec
Профиль формата                          :
Параметр CABAC формата                   : Да
Параметр ReFrames формата                : 2 кадра
Идентификатор кодека                     : avc1
Идентификатор кодека/Информация          : Advanced Video Coding
Продолжительность                        : 2 м. 55 с.
Продолжительность оригинала              : 2 м. 55 с.
Битрейт                                  : 4129 Кбит/сек
Ширина                                   : 1920 пикселей
Высота                                   : 1080 пикселей
Соотношение сторон                       : 16:9
Режим частоты кадров                     : Переменный
Частота кадров                           : 29,970 кадров/сек
Минимальная частота кадров               : 29,970 кадров/сек
Максимальная частота кадров              : 29,980 кадров/сек
Цветовое пространство                    : YUV
Субдискретизация насыщенности            : 4:2:0
Битовая глубина                          : 8 бит
Тип развёртки                            : Прогрессивная
Бит/(Пиксели*Кадры)                      : 0.066
Размер потока                            : 86,5 Мбайт (94%)
Размер потока оригинала                  : 86,5 Мбайт (94%)
Язык                                     : English
mdhd_Duration                            : 175775

Аудио
Идентификатор                            : 2
Формат                                   : AAC
Формат/Информация                        : Advanced Audio Codec
Профиль формата                          : LC
Идентификатор кодека                     : 40
Продолжительность                        : 2 м. 55 с.
Продолжительность оригинала              : 2 м. 55 с.
Вид битрейта                             : Переменный
Битрейт                                  : 254 Кбит/сек
Каналы                                   : 2 канала
Расположение каналов                     : Front: L R
Частота                                  : 44,1 КГц
Метод сжатия                             : С потерями
Размер потока                            : 5,31 Мбайт (6%)
Размер потока оригинала                  : 5,31 Мбайт (6%)
Язык                                     : English
mdhd_Duration                            : 175798

Общее
Полное имя                               : Tyga - 40 Mill..mp4
Формат                                   : MPEG-4
Профиль формата                          : Base Media / Version 2
Идентификатор кодека                     : mp42
Размер файла                             : 89,9 Мбайт
Продолжительность                        : 3 м. 43 с.
Режим общего битрейта                    : Переменный
Общий поток                              : 3370 Кбит/сек

Видео
Идентификатор                            : 1
Формат                                   : AVC
Формат/Информация                        : Advanced Video Codec
Профиль формата                          :
Параметр CABAC формата                   : Да
Параметр ReFrames формата                : 2 кадра
Идентификатор кодека                     : avc1
Идентификатор кодека/Информация          : Advanced Video Coding
Продолжительность                        : 3 м. 43 с.
Продолжительность оригинала              : 3 м. 43 с.
Битрейт                                  : 3112 Кбит/сек
Ширина                                   : 1920 пикселей
Высота                                   : 1080 пикселей
Соотношение сторон                       : 16:9
Режим частоты кадров                     : Постоянный
Частота кадров                           : 25,000 кадров/сек
Цветовое пространство                    : YUV
Субдискретизация насыщенности            : 4:2:0
Битовая глубина                          : 8 бит
Тип развёртки                            : Прогрессивная
Бит/(Пиксели*Кадры)                      : 0.060
Размер потока                            : 83,0 Мбайт (92%)
Размер потока оригинала                  : 83,0 Мбайт (92%)
Язык                                     : English
mdhd_Duration                            : 223720

Аудио
Идентификатор                            : 2
Формат                                   : AAC
Формат/Информация                        : Advanced Audio Codec
Профиль формата                          : LC
Идентификатор кодека                     : 40
Продолжительность                        : 3 м. 43 с.
Продолжительность оригинала              : 3 м. 43 с.
Вид битрейта                             : Переменный
Битрейт                                  : 254 Кбит/сек
Каналы                                   : 2 канала
Расположение каналов                     : Front: L R
Частота                                  : 44,1 КГц
Метод сжатия                             : С потерями
Размер потока                            : 6,76 Мбайт (8%)
Размер потока оригинала                  : 6,76 Мбайт (8%)
Язык                                     : English
mdhd_Duration                            : 223747

Общее
Полное имя                               : W&W - Rave After Rave.mp4
Формат                                   : MPEG-4
Профиль формата                          : Base Media / Version 2
Идентификатор кодека                     : mp42
Размер файла                             : 57,4 Мбайт
Продолжительность                        : 2 м. 37 с.
Режим общего битрейта                    : Переменный
Общий поток                              : 3047 Кбит/сек

Видео
Идентификатор                            : 1
Формат                                   : AVC
Формат/Информация                        : Advanced Video Codec
Профиль формата                          :
Параметр CABAC формата                   : Да
Параметр ReFrames формата                : 2 кадра
Идентификатор кодека                     : avc1
Идентификатор кодека/Информация          : Advanced Video Coding
Продолжительность                        : 2 м. 37 с.
Продолжительность оригинала              : 2 м. 37 с.
Битрейт                                  : 2789 Кбит/сек
Ширина                                   : 1920 пикселей
Высота                                   : 1080 пикселей
Соотношение сторон                       : 16:9
Режим частоты кадров                     : Переменный
Частота кадров                           : 24,000 кадра/сек
Минимальная частота кадров               : 24,000 кадра/сек
Максимальная частота кадров              : 24,006 кадра/сек
Цветовое пространство                    : YUV
Субдискретизация насыщенности            : 4:2:0
Битовая глубина                          : 8 бит
Тип развёртки                            : Прогрессивная
Бит/(Пиксели*Кадры)                      : 0.056
Размер потока                            : 52,5 Мбайт (92%)
Размер потока оригинала                  : 52,5 Мбайт (92%)
Язык                                     : English
mdhd_Duration                            : 157875

Аудио
Идентификатор                            : 2
Формат                                   : AAC
Формат/Информация                        : Advanced Audio Codec
Профиль формата                          : LC
Идентификатор кодека                     : 40
Продолжительность                        : 2 м. 37 с.
Продолжительность оригинала              : 2 м. 37 с.
Вид битрейта                             : Переменный
Битрейт                                  : 254 Кбит/сек
Каналы                                   : 2 канала
Расположение каналов                     : Front: L R
Частота                                  : 44,1 КГц
Метод сжатия                             : С потерями
Размер потока                            : 4,77 Мбайт (8%)
Размер потока оригинала                  : 4,77 Мбайт (8%)
Язык                                     : English
mdhd_Duration                            : 157895
Скриншоты:

 
Не забывайте говорить Спасибо. Не уходите с раздачи!   
Торрент: Зарегистрирован [24 мар 2015, 21:50] Скачать торрент
Скачать торрент
[ Размер 20.38 КБ / Просмотров 29 ]
Статус:
Проверен
 
.torrent скачан: 0 раз
Хэш: 23ca0c4bacb8a4534ed7860647dffceed251904d
Размер: 1.81 ГБ (1 945 948 847 байт)
Стать Автором раздачи
 
 
Раздал: 6.67 ГБ
Скачал: 302.5 МБ
Ратио: 22.576
Сообщения: 374198
Зарегистрирован: 17 апр 2014, 11:05


  • Похожие торренты
    Ответы
    Просмотры
    Последнее сообщение

Вернуться в Музыкальные клипы (транзит)

Ресурс не предоставляет электронные версии произведений, а занимается лишь коллекционированием и каталогизацией ссылок, присылаемых и публикуемых на форуме нашими читателями. Если вы являетесь правообладателем какого-либо представленного материала и не желаете чтобы ссылка на него находилась в нашем каталоге, свяжитесь с нами и мы незамедлительно удалим её. Файлы для обмена на трекере предоставлены пользователями сайта, и администрация не несёт ответственности за их содержание. Просьба не заливать файлы, защищенные авторскими правами, а также файлы нелегального содержания!
cron