Ходячие мертвецы / The Walking Dead (2015) WEB-DLRip [H.264] (5 сезон, 15 серия) BaibaKo [MP4|720x400]

 
 Статистика раздачи 
Размер: 559.52 МБ   |  Зарегистрирован: 24 мар 2015, 08:56   |   .torrent скачан: 0 раз
Сидеров: 1  [ 0 байт/сек ]     Личеров: 1  [ 0 байт/сек ]  
  

Ходячие мертвецы / The Walking Dead (2015) WEB-DLRip [H.264] (5 сезон, 15 серия) BaibaKo [MP4|720x400]

Сообщение Thistoll » 24 мар 2015, 08:56

Ходячие мертвецы / The Walking Dead (2015) WEB-DLRip [H.264]
(5 сезон, 15 серия) BaibaKo
«Fight the dead. Fear the living»

Производство: США
Жанр: Ужасы, мистика, триллер

Режиссер: Эрнест Р. Дикерсон, Билл Джирхарт, Гай Ферленд
Актеры: Эндрю Линкольн, Сара Уэйн Кэллис, Лори Холден, Стивен Юн, Чендлер Риггз, Норман Ридус, Айрон Э. Синглтон, Мелисса Сюзанн МакБрайд, Лорен Коэн, Джон Бернтал и др.

Описание фильма:
Сериал рассказывает историю жизни семьи шерифа после того, как «зомби» — эпидемия апокалипсических масштабов захлестнула земной шар. Шериф Рик Граймс путешествует со своей семьей и небольшой группой выживших в поисках безопасного места для жизни. Но постоянный страх смерти каждый день приносит тяжелые потери, заставляя героев почувствовать глубины человеческой жестокости. Рик пытается спасти свою семью, и открывает для себя, что всепоглощающий страх тех, кто выжил, может быть опаснее бессмысленных мертвецов, бродящих по земле. Сериал является экранизацией одноименной комикс-серии, которая начала выходить в 2003 году...



Продолжительность: ~ 00:43:00
Качество видео: WEB-DLRip
Перевод: Многоголосый закадровый, профессиональный - BaibaKo
Автор перевода: Янина Галицкая и Валерия Антипова
Озвучка: Ольга Мотрич, Светлана Доманова, Олекса Мельник и Акмал Гурезов

Видеокодек: MPEG-4 AVC/H.264
Битрейт видео: 1500 Кбит/сек
Размер кадра: 720x400 (16:9)
Аудио #1: AAC, 2 канала, 160 Кбит/сек - русский (многоголосый закадровый)
Аудио #2: AAC, 2 канала, 160 Кбит/сек - английский (оригинал)
Код:
Код: Выделить всё
Полное имя                               : D:\The.Walking.Dead.s05e15.WEB-DLRip.x264.Rus.Eng.BaibaKo.tv.mp4
Формат                                   : MPEG-4
Профиль формата                          : Base Media
Идентификатор кодека                     : isom
Размер файла                             : 560 Мбайт
Продолжительность                        : 43 м.
Общий поток                              : 1817 Кбит/сек

Видео
Идентификатор                            : 1
Формат                                   : AVC
Формат/Информация                        : Advanced Video Codec
Профиль формата                          :
Параметр CABAC формата                   : Нет
Параметр ReFrames формата                : 3 кадра
Идентификатор кодека                     : avc1
Идентификатор кодека/Информация          : Advanced Video Coding
Продолжительность                        : 43 м.
Битрейт                                  : 1500 Кбит/сек
Ширина                                   : 720 пикселей
Высота                                   : 400 пикселей
Соотношение сторон                       : 16:9
Соотношение сторон в оригинале           : 16:9
Режим частоты кадров                     : Постоянный
Частота кадров                           : 23,976 кадра/сек
Цветовое пространство                    : YUV
Субдискретизация насыщенности            : 4:2:0
Битовая глубина                          : 8 бит
Тип развёртки                            : Прогрессивная
Бит/(Пиксели*Кадры)                      : 0.217
Размер потока                            : 459 Мбайт (82%)
Библиотека кодирования                   : x264 core 128 r2216M 198a7ea
Настройки программы                      : cabac=0 / ref=3 / deblock=1:0:0 / analyse=0x1:0x130 / me=tesa / subme=9 / psy=1 / psy_rd=1.00:0.15 / mixed_ref=1 / me_range=16 / chroma_me=1 / trellis=0 / 8x8dct=0 / cqm=0 / deadzone=21,11 / fast_pskip=1 / chroma_qp_offset=-2 / threads=6 / lookahead_threads=1 / sliced_threads=0 / nr=0 / decimate=1 / interlaced=0 / bluray_compat=0 / constrained_intra=0 / bframes=0 / weightp=2 / keyint=230 / keyint_min=23 / scenecut=40 / intra_refresh=0 / rc_lookahead=40 / rc=abr / mbtree=1 / bitrate=1500 / ratetol=1.0 / qcomp=0.60 / qpmin=10 / qpmax=51 / qpstep=4 / vbv_maxrate=31250 / vbv_bufsize=31250 / nal_hrd=none / ip_ratio=1.40 / aq=1:1.00
Язык                                     : English

Аудио #1
Идентификатор                            : 2
Формат                                   : AAC
Формат/Информация                        : Advanced Audio Codec
Профиль формата                          : LC
Идентификатор кодека                     : 40
Продолжительность                        : 43 м.
Вид битрейта                             : Постоянный
Битрейт                                  : 160 Кбит/сек
Каналы                                   : 2 канала
Channel(s)_Original                      : 6 каналов
Расположение каналов                     : Front: L C R, Side: L R, LFE
Частота                                  : 48,0 КГц
Метод сжатия                             : С потерями
Размер потока                            : 49,3 Мбайт (9%)
Язык                                     : Russian

Аудио #2
Идентификатор                            : 3
Формат                                   : AAC
Формат/Информация                        : Advanced Audio Codec
Профиль формата                          : LC
Идентификатор кодека                     : 40
Продолжительность                        : 43 м.
Вид битрейта                             : Постоянный
Битрейт                                  : 160 Кбит/сек
Каналы                                   : 2 канала
Channel(s)_Original                      : 6 каналов
Расположение каналов                     : Front: L C R, Side: L R, LFE
Частота                                  : 48,0 КГц
Метод сжатия                             : С потерями
Размер потока                            : 49,3 Мбайт (9%)
Язык                                     : English
Скриншоты:



Время раздачи:
круглосуточно
 
Не забывайте говорить Спасибо. Не уходите с раздачи!   
Торрент: Зарегистрирован [24 мар 2015, 08:56] Для скачивания .torrent
необходима регистрация
Или скачать с помощью
MediaGet
Статус:
Проверен
 
.torrent скачан: 0 раз
Хэш: bfd3bf18a7bd847fcc8d3449b1cf63a2efd3a4f1
Размер: 559.52 МБ (586 698 364 байт)
Стать Автором раздачи
 
 
Раздал: 6.67 ГБ
Скачал: 302.5 МБ
Ратио: 22.576
Сообщения: 374198
Зарегистрирован: 17 апр 2014, 11:05


  • Похожие торренты
    Ответы
    Просмотры
    Последнее сообщение

Вернуться в Видео для мобильных устройств

Ресурс не предоставляет электронные версии произведений, а занимается лишь коллекционированием и каталогизацией ссылок, присылаемых и публикуемых на форуме нашими читателями. Если вы являетесь правообладателем какого-либо представленного материала и не желаете чтобы ссылка на него находилась в нашем каталоге, свяжитесь с нами и мы незамедлительно удалим её. Файлы для обмена на трекере предоставлены пользователями сайта, и администрация не несёт ответственности за их содержание. Просьба не заливать файлы, защищенные авторскими правами, а также файлы нелегального содержания!
cron