(Rock) [LP] [24/48] Алиса - Шестой лесничий - 1990, FLAC (tracks+.cue)

 
 Статистика раздачи 
Размер: 583.44 МБ   |  Зарегистрирован: 21 мар 2015, 19:26   |   .torrent скачан: 1 раз
Сидеров: 1  [ 0 байт/сек ]     Личеров: 0  [ 0 байт/сек ]  
  

(Rock) [LP] [24/48] Алиса - Шестой лесничий - 1990, FLAC (tracks+.cue)

Сообщение BitFire » 21 мар 2015, 19:26

Алиса - Шестой лесничий

Жанр: Rock
Носитель: LP
Год выпуска: 1990
Лейбл: Melodya (TSG)
Страна-производитель: USSR
Аудио кодек: FLAC
Тип рипа: tracks+.cue
Формат записи: 32/192
Формат раздачи: 24/48
Продолжительность: 42.51 min
Треклист:
01. Новый метод
02. Ты-тыр-тыр (тоталитарный рэп)
03. Шестой лесничий
04. Театр теней
05. Аэробика
06. Только этот день
07. Солнце за нас
08. Стерх

Источник оцифровки: автором раздачи
Код класса состояния винила: VG+
Устройство воспроизведения: Электроника ЭП 017С
Головка звукоснимателя: Audio-Technica AT95
Предварительный усилитель: Бриг-001
АЦП: VIA HD audio device
Программа-оцифровщик: Izotope RX 4 Advanced
Обработка: Izotope RX 4 Advanced
foobar2000 1.1.10 / Dynamic Range Meter 1.1.1
log date: 2015-03-21 16:50:58

--------------------------------------------------------------------------------
Analyzed: Алиса / Шестой лесничий
--------------------------------------------------------------------------------

DR Peak RMS Duration Track
--------------------------------------------------------------------------------
DR14 -1.37 dB -17.05 dB 2:55 ?-Новый метод
DR14 -2.26 dB -18.53 dB 6:17 ?-Ты-тыр-тыр (тоталитарный рэп)
DR13 -2.17 dB -16.85 dB 6:02 ?-Шестой лесничий
DR12 -3.19 dB -18.75 dB 5:31 ?-Театр теней
DR14 -2.50 dB -17.82 dB 3:39 ?-Аэробика
DR12 -2.33 dB -17.40 dB 7:32 ?-Только этот день
DR13 -2.54 dB -17.86 dB 4:00 ?-Солнце за нас
DR13 -2.80 dB -18.02 dB 6:55 ?-Стерх
--------------------------------------------------------------------------------

Number of tracks: 8
Official DR value: DR13

Samplerate: 48000 Hz
Channels: 2
Bits per sample: 24
Bitrate: 1712 kbps
Codec: FLAC
================================================================================
 
Не забывайте говорить Спасибо. Не уходите с раздачи!   
Торрент: Зарегистрирован [21 мар 2015, 19:26] Скачать торрент
Скачать торрент
[ Размер 12.83 КБ / Просмотров 8 ]
Статус:
Проверен
 
.torrent скачан: 1 раз
Хэш: 50c0337a72ee2af9d90c13d7fd36659594153d39
Размер: 583.44 МБ (611 777 342 байт)
Стать Автором раздачи
 
 
Раздал: 398.6 ГБ
Скачал: 172 МБ
Ратио: 2373.085
Сообщения: 228130
Зарегистрирован: 17 апр 2014, 15:26


  • Похожие торренты
    Ответы
    Просмотры
    Последнее сообщение

Вернуться в Отечественный рок (собственные оцифровки)

Ресурс не предоставляет электронные версии произведений, а занимается лишь коллекционированием и каталогизацией ссылок, присылаемых и публикуемых на форуме нашими читателями. Если вы являетесь правообладателем какого-либо представленного материала и не желаете чтобы ссылка на него находилась в нашем каталоге, свяжитесь с нами и мы незамедлительно удалим её. Файлы для обмена на трекере предоставлены пользователями сайта, и администрация не несёт ответственности за их содержание. Просьба не заливать файлы, защищенные авторскими правами, а также файлы нелегального содержания!
cron