(Rock) [LP] [24/48] Алиса - Блок ада - 1989, FLAC (tracks+.cue)

 
 Статистика раздачи 
Размер: 558.18 МБ   |  Зарегистрирован: 20 мар 2015, 21:50   |   .torrent скачан: 0 раз
Сидеров: 1  [ 0 байт/сек ]     Личеров: 0  [ 0 байт/сек ]  
  

(Rock) [LP] [24/48] Алиса - Блок ада - 1989, FLAC (tracks+.cue)

Сообщение bagouser » 20 мар 2015, 21:50

Алиса - Блок ада

Жанр: Rock
Носитель: LP
Год выпуска: 1989
Лейбл: Melodya (TSG)
Страна-производитель: USSR
Аудио кодек: FLAC
Тип рипа: tracks+.cue
Формат записи: 32/192
Формат раздачи: 24/48
Продолжительность: 42.36 min
Треклист:
01. Время менять имена
02. Компромисс
03. Солнце встает
04. Эй, ты, там, на том берегу
05. Ветер перемен
06. Красное на черном
07. Воздух
08. Движение вспять
09. Земля

Источник оцифровки: автором раздачи
Код класса состояния винила: Ex
Устройство воспроизведения: Электроника ЭП 017С
Головка звукоснимателя: Audio-Technica AT95
Предварительный усилитель: Бриг-001
АЦП: VIA HD audio device
Программа-оцифровщик: Izotope RX 4 Advanced
Обработка: Izotope RX 4 Advanced
foobar2000 1.1.10 / Dynamic Range Meter 1.1.1
log date: 2015-03-20 13:09:20

--------------------------------------------------------------------------------
Analyzed: Алиса / Блок ада
--------------------------------------------------------------------------------

DR Peak RMS Duration Track
--------------------------------------------------------------------------------
DR14 -0.55 dB -17.31 dB 2:50 ?-Время менять имена
DR14 -1.36 dB -17.40 dB 4:12 ?-Компромисс
DR15 -1.53 dB -18.68 dB 5:51 ?-Солнце встает
DR15 -1.49 dB -18.53 dB 2:52 ?-Эй, ты, там, на том берегу
DR14 -1.39 dB -17.99 dB 4:55 ?-Ветер перемен
DR14 -0.49 dB -16.15 dB 5:00 ?-Красное на черном
DR12 -1.76 dB -17.25 dB 5:50 ?-Воздух
DR14 -0.70 dB -16.44 dB 5:16 ?-Движение вспять
DR14 -1.30 dB -19.55 dB 5:49 ?-Земля
--------------------------------------------------------------------------------

Number of tracks: 9
Official DR value: DR14

Samplerate: 48000 Hz
Channels: 2
Bits per sample: 24
Bitrate: 1571 kbps
Codec: FLAC
================================================================================
 
Не забывайте говорить Спасибо. Не уходите с раздачи!   
Торрент: Зарегистрирован [20 мар 2015, 21:50] Скачать торрент
Скачать торрент
[ Размер 12.38 КБ / Просмотров 3 ]
Статус:
Проверен
 
.torrent скачан: 0 раз
Хэш: 934dfebddeb2a9cad30bceaa7f0b34877c1dd52b
Размер: 558.18 МБ (585 299 135 байт)
Стать Автором раздачи
 
Аватара пользователя
 
Раздал: 3.77 ТБ
Скачал: 406.3 ГБ
Ратио: 9.496
Сообщения: 468709
Зарегистрирован: 20 янв 2011, 21:15


  • Похожие торренты
    Ответы
    Просмотры
    Последнее сообщение

Вернуться в Отечественный рок (собственные оцифровки)

Ресурс не предоставляет электронные версии произведений, а занимается лишь коллекционированием и каталогизацией ссылок, присылаемых и публикуемых на форуме нашими читателями. Если вы являетесь правообладателем какого-либо представленного материала и не желаете чтобы ссылка на него находилась в нашем каталоге, свяжитесь с нами и мы незамедлительно удалим её. Файлы для обмена на трекере предоставлены пользователями сайта, и администрация не несёт ответственности за их содержание. Просьба не заливать файлы, защищенные авторскими правами, а также файлы нелегального содержания!
cron