(Rock) [LP] [24/48] Алиса - Энергия - 1986, FLAC (tracks+.cue)

 
 Статистика раздачи 
Размер: 530.06 МБ   |  Зарегистрирован: 19 мар 2015, 16:12   |   .torrent скачан: 0 раз
Сидеров: 1  [ 0 байт/сек ]     Личеров: 0  [ 0 байт/сек ]  
  

(Rock) [LP] [24/48] Алиса - Энергия - 1986, FLAC (tracks+.cue)

Сообщение bagouser » 19 мар 2015, 16:12

Алиса - Энергия

Жанр: Rock
Носитель: LP
Год выпуска: 1986
Лейбл: Melodya (VSG)
Страна-производитель: USSR
Аудио кодек: FLAC
Тип рипа: tracks+.cue
Формат записи: 32/192
Формат раздачи: 24/48
Продолжительность: 42.14 min
Треклист:
01. Мы вместе
02. Волна
03. Меломан
04. Доктор Буги
05. Плохой Rock'n'Roll
06. Моё поколение
07. Экспериментатор
08. Ко мне
09. Соковыжиматель
10. Энергия

Источник оцифровки: автором раздачи
Код класса состояния винила: Ex
Устройство воспроизведения: Электроника ЭП 017С
Головка звукоснимателя: Audio-Technica AT95
Предварительный усилитель: Бриг-001
АЦП: VIA HD audio device
Программа-оцифровщик: Izotope RX 4 Advanced
Обработка: Izotope RX 4 Advanced
foobar2000 1.1.10 / Dynamic Range Meter 1.1.1
log date: 2015-03-19 15:00:38

--------------------------------------------------------------------------------
Analyzed: Алиса / Энергия
--------------------------------------------------------------------------------

DR Peak RMS Duration Track
--------------------------------------------------------------------------------
DR12 -3.67 dB -17.88 dB 2:41 ?-Мы вместе
DR12 -2.24 dB -16.54 dB 3:43 ?-Волна
DR11 -1.93 dB -14.82 dB 3:58 ?-Меломан
DR11 -1.26 dB -15.05 dB 3:42 ?-Доктор Буги
DR12 -2.28 dB -17.65 dB 3:14 ?-Плохой Rock'n'Roll
DR12 -2.83 dB -18.19 dB 3:54 ?-Моё поколение
DR12 -2.01 dB -18.53 dB 5:08 ?-Экспериментатор
DR12 -2.06 dB -18.79 dB 6:28 ?-Ко мне
DR13 -1.80 dB -17.63 dB 4:09 ?-Соковыжиматель
DR12 -2.75 dB -17.97 dB 5:17 ?-Энергия
--------------------------------------------------------------------------------

Number of tracks: 10
Official DR value: DR12

Samplerate: 48000 Hz
Channels: 2
Bits per sample: 24
Bitrate: 1576 kbps
Codec: FLAC
================================================================================
 
Не забывайте говорить Спасибо. Не уходите с раздачи!   
Торрент: Зарегистрирован [19 мар 2015, 16:12] Скачать торрент
Скачать торрент
[ Размер 11.82 КБ / Просмотров 16 ]
Статус:
Проверен
 
.torrent скачан: 0 раз
Хэш: 4bc979952de15523315263fca3a2d8cad7196314
Размер: 530.06 МБ (555 813 076 байт)
Стать Автором раздачи
 
Аватара пользователя
 
Раздал: 3.77 ТБ
Скачал: 406.3 ГБ
Ратио: 9.496
Сообщения: 468710
Зарегистрирован: 20 янв 2011, 21:15


  • Похожие торренты
    Ответы
    Просмотры
    Последнее сообщение

Вернуться в Отечественный рок (собственные оцифровки)

Ресурс не предоставляет электронные версии произведений, а занимается лишь коллекционированием и каталогизацией ссылок, присылаемых и публикуемых на форуме нашими читателями. Если вы являетесь правообладателем какого-либо представленного материала и не желаете чтобы ссылка на него находилась в нашем каталоге, свяжитесь с нами и мы незамедлительно удалим её. Файлы для обмена на трекере предоставлены пользователями сайта, и администрация не несёт ответственности за их содержание. Просьба не заливать файлы, защищенные авторскими правами, а также файлы нелегального содержания!
cron