Deepcentral - Hey Girl (Dreaming Of Moscow) (2014) HDTVRip [1080p]

 
 Статистика раздачи 
Размер: 313.23 МБ   |  Зарегистрирован: 18 мар 2015, 10:47   |   .torrent скачан: 0 раз
Сидеров: 1  [ 0 байт/сек ]     Личеров: 0  [ 0 байт/сек ]  
  

Deepcentral - Hey Girl (Dreaming Of Moscow) (2014) HDTVRip [1080p]

Сообщение Thistoll » 18 мар 2015, 10:47

Deepcentral - Hey Girl (Dreaming Of Moscow) (2014) HDTVRip [1080p]

Исполнитель: Deepcentral
Год выпуска: 2014
Жанр: Dance
Продолжительность: 00:04:58

Описание: Deepcentral "Hey Girl (мечтая о Москве)," песню, которые отражают стиль танца в 2015 году. видеоклип энергичный, сексуальный.

Качество видео: HDTVRip [1080p]
Видеокодек: MPEG-4 AVC/H.264
Битрейт видео: ~ 9870 Кбит/с
Размер кадра: 1920x1080 (16:9), 25,000 кадров/с
Аудиокодек: AAC, 2 ch, stereo
Битрейт аудио: 128 Кбит/с
Код:
Код: Выделить всё
Общее
Полное имя                               : Deepcentral - Hey Girl (Dreaming Of Moscow).MP4
Формат                                   : MPEG-4
Идентификатор кодека                     : M4V
Размер файла                             : 313 Мбайт
Продолжительность                        : 4 м. 22 с.
Режим общего битрейта                    : Переменный
Общий поток                              : 10,0 Мбит/сек
Название фильма                          : Untitled Project
Название фильма/Ещё                      : This video is about Untitled Project
Альбом/Исполнитель                       : Sirbu Slava
Исполнитель                              : Sirbu Slava
Описание                                 : This video is about Untitled Project
Дата кодирования                         : UTC 2014-10-02 20:42:39
Дата пометки                             : UTC 2014-10-02 20:45:36
Keyword                                  : convertor

Видео
Идентификатор                            : 2
Формат                                   : AVC
Формат/Информация                        : Advanced Video Codec
Профиль формата                          :
Параметр CABAC формата                   : Да
Параметр ReFrames формата                : 2 кадра
Параметр GOP формата                     : M=2, N=30
Идентификатор кодека                     : avc1
Идентификатор кодека/Информация          : Advanced Video Coding
Продолжительность                        : 4 м. 22 с.
Вид битрейта                             : Переменный
Битрейт                                  : 9870 Кбит/сек
Максимальный битрейт                     : 768 Кбит/сек
Ширина                                   : 1920 пикселей
Высота                                   : 1080 пикселей
Соотношение сторон                       : 16:9
Режим частоты кадров                     : Постоянный
Частота кадров                           : 25,000 кадров/сек
Цветовое пространство                    : YUV
Субдискретизация насыщенности            : 4:2:0
Битовая глубина                          : 8 бит
Тип развёртки                            : Прогрессивная
Бит/(Пиксели*Кадры)                      : 0.190
Размер потока                            : 309 Мбайт (99%)
Заголовок                                : Core Media Video
Дата кодирования                         : UTC 2014-10-02 20:42:39
Дата пометки                             : UTC 2014-10-02 20:45:36
Основные цвета                           : BT.709
Характеристики трансфера                 : BT.709
Коэффициенты матрицы                     : BT.709
colour_range                             : Limited

Аудио
Идентификатор                            : 1
Формат                                   : AAC
Формат/Информация                        : Advanced Audio Codec
Профиль формата                          : LC
Идентификатор кодека                     : 40
Продолжительность                        : 4 м. 22 с.
Продолжительность оригинала              : 4 м. 22 с.
Вид битрейта                             : Постоянный
Битрейт                                  : 128 Кбит/сек
Каналы                                   : 2 канала
Расположение каналов                     : Front: L R
Частота                                  : 48,0 КГц
Метод сжатия                             : С потерями
Размер потока                            : 3,98 Мбайт (1%)
Размер потока оригинала                  : 3,98 Мбайт (1%)
Заголовок                                : Core Media Audio
Язык                                     : English
Дата кодирования                         : UTC 2014-10-02 20:42:39
Дата пометки                             : UTC 2014-10-02 20:45:36
Скриншоты:
 
Не забывайте говорить Спасибо. Не уходите с раздачи!   
Торрент: Зарегистрирован [18 мар 2015, 10:47] Скачать торрент
Скачать торрент
[ Размер 12.95 КБ / Просмотров 15 ]
Статус:
Проверен
 
.torrent скачан: 0 раз
Хэш: b2afe9d2af2774182728505ec3d84be6c73d2fb2
Размер: 313.23 МБ (328 445 241 байт)
Стать Автором раздачи
 
 
Раздал: 6.67 ГБ
Скачал: 302.5 МБ
Ратио: 22.576
Сообщения: 374198
Зарегистрирован: 17 апр 2014, 11:05


  • Похожие торренты
    Ответы
    Просмотры
    Последнее сообщение

Вернуться в Музыкальные клипы (транзит)

Ресурс не предоставляет электронные версии произведений, а занимается лишь коллекционированием и каталогизацией ссылок, присылаемых и публикуемых на форуме нашими читателями. Если вы являетесь правообладателем какого-либо представленного материала и не желаете чтобы ссылка на него находилась в нашем каталоге, свяжитесь с нами и мы незамедлительно удалим её. Файлы для обмена на трекере предоставлены пользователями сайта, и администрация не несёт ответственности за их содержание. Просьба не заливать файлы, защищенные авторскими правами, а также файлы нелегального содержания!
cron