Ходячие мертвецы / The Walking Dead (2014) WEB-DLRip [H.264] (Сезон 5, серии 1-14 из 16) BaibaKo [MP4|720x400]

 
 Статистика раздачи 
Размер: 7.96 ГБ   |  Зарегистрирован: 17 мар 2015, 09:42   |   .torrent скачан: 0 раз
Сидеров: 1  [ 0 байт/сек ]     Личеров: 1  [ 0 байт/сек ]  
  

Ходячие мертвецы / The Walking Dead (2014) WEB-DLRip [H.264] (Сезон 5, серии 1-14 из 16) BaibaKo [MP4|720x400]

Сообщение Thistoll » 17 мар 2015, 09:42

Ходячие мертвецы / The Walking Dead (2014) WEB-DLRip [H.264]
(Сезон 5, серии 1-14 из 16) BaibaKo
«Fight the dead. Fear the living»

Жанр: Ужасы, мистика, триллер
Производство: США

Описание фильма:
Сериал рассказывает историю жизни семьи шерифа после того, как «зомби» — эпидемия апокалипсических масштабов захлестнула земной шар. Шериф Рик Граймс путешествует со своей семьей и небольшой группой выживших в поисках безопасного места для жизни. Но постоянный страх смерти каждый день приносит тяжелые потери, заставляя героев почувствовать глубины человеческой жестокости. Рик пытается спасти свою семью, и открывает для себя, что всепоглощающий страх тех, кто выжил, может быть опаснее бессмысленных мертвецов, бродящих по земле. Сериал является экранизацией одноименной комикс-серии, которая начала выходить в 2003 году...

Режиссер: Эрнест Р. Дикерсон, Билл Джирхарт, Гай Ферленд
Актеры: Эндрю Линкольн, Сара Уэйн Кэллис, Лори Холден, Стивен Юн, Чендлер Риггз, Норман Ридус, Айрон Э. Синглтон, Мелисса Сюзанн МакБрайд, Лорен Коэн, Джон Бернтал и др.

Продолжительность: ~ 00:43:00 серия
Качество видео: WEB-DLRip

Перевод: Многоголосый закадровый, профессиональный - BaibaKo
Автор перевода: Янина Галицкая и Валерия Антипова
Озвучка: Ольга Мотрич, Светлана Доманова, Олекса Мельник и Акмал Гурезов

Сэмпл

Формат: MP4
Видеокодек: MPEG-4 AVC/H.264
Битрейт видео: ~1536 Кбит/сек
Размер кадра: 720x400 (16:9)
Аудио #1: AAC, 2 канала, 192 Кбит/сек - русский (многоголосый закадровый)
Аудио #2: AAC, 2 канала, 192 Кбит/сек - английский (оригинал)
Полное имя : M:\The_Walking_Dead_s5_WEB-DLRip_x264_BaibaKo_[NNM-CLUB]\The.Walking.Dead.s05e01.WEB-DLRip.x264.Rus.Eng.BaibaKo.tv.mp4
Формат : MPEG-4
Профиль формата : Base Media
Идентификатор кодека : isom
Размер файла : 600 Мбайт
Продолжительность : 43 м.
Режим общего битрейта : Переменный
Общий поток : 1920 Кбит/сек
Дата кодирования : UTC 2014-10-13 21:13:52
Дата пометки : UTC 2014-10-13 21:13:52

Видео
Идентификатор : 1
Формат : AVC
Формат/Информация : Advanced Video Codec
Профиль формата :
Параметр CABAC формата : Нет
Параметр ReFrames формата : 3 кадра
Идентификатор кодека : avc1
Идентификатор кодека/Информация : Advanced Video Coding
Продолжительность : 43 м.
Битрейт : 1536 Кбит/сек
Максимальный битрейт : 7308 Кбит/сек
Ширина : 720 пикселей
Высота : 400 пикселей
Соотношение сторон : 16:9
Режим частоты кадров : Переменный
Частота кадров : 23,976 кадра/сек
Минимальная частота кадров : 23,974 кадра/сек
Максимальная частота кадров : 23,981 кадра/сек
Цветовое пространство : YUV
Субдискретизация насыщенности : 4:2:0
Битовая глубина : 8 бит
Тип развёртки : Прогрессивная
Бит/(Пиксели*Кадры) : 0.222
Размер потока : 480 Мбайт (80%)
Библиотека кодирования : x264 core 130 r2273 b3065e6
Настройки программы : cabac=0 / ref=3 / deblock=1:0:0 / analyse=0x1:0x111 / me=hex / subme=7 / psy=1 / psy_rd=1.00:0.00 / mixed_ref=1 / me_range=16 / chroma_me=1 / trellis=1 / 8x8dct=0 / cqm=0 / deadzone=21,11 / fast_pskip=1 / chroma_qp_offset=-2 / threads=12 / lookahead_threads=2 / sliced_threads=0 / nr=0 / decimate=1 / interlaced=0 / bluray_compat=0 / constrained_intra=0 / bframes=0 / weightp=0 / keyint=240 / keyint_min=24 / scenecut=40 / intra_refresh=0 / rc_lookahead=40 / rc=2pass / mbtree=1 / bitrate=1536 / ratetol=1.0 / qcomp=0.60 / qpmin=0 / qpmax=69 / qpstep=4 / cplxblur=20.0 / qblur=0.5 / ip_ratio=1.40 / aq=1:1.00
Дата кодирования : UTC 2014-10-13 18:28:21
Дата пометки : UTC 2014-10-13 21:14:09
Основные цвета : BT.709
Характеристики трансфера : BT.709
Коэффициенты матрицы : BT.709

Аудио #1
Идентификатор : 2
Формат : AAC
Формат/Информация : Advanced Audio Codec
Профиль формата : LC
Идентификатор кодека : 67
Продолжительность : 43 м.
Вид битрейта : Переменный
Битрейт : 192 Кбит/сек
Максимальный битрейт : 195 Кбит/сек
Каналы : 2 канала
Расположение каналов : Front: L R
Частота : 48,0 КГц
Метод сжатия : С потерями
Размер потока : 59,2 Мбайт (10%)
Язык : Russian
Дата кодирования : UTC 2014-10-13 21:14:02
Дата пометки : UTC 2014-10-13 21:14:09

Аудио #2
Идентификатор : 3
Формат : AAC
Формат/Информация : Advanced Audio Codec
Профиль формата : LC
Идентификатор кодека : 67
Продолжительность : 43 м.
Вид битрейта : Переменный
Битрейт : 192 Кбит/сек
Максимальный битрейт : 194 Кбит/сек
Каналы : 2 канала
Расположение каналов : Front: L R
Частота : 48,0 КГц
Метод сжатия : С потерями
Размер потока : 59,2 Мбайт (10%)
Язык : English
Дата кодирования : UTC 2014-10-13 21:14:04
Дата пометки : UTC 2014-10-13 21:14:09
Внимание! Раздача ведётся путём добавления новых серий; при каждом добавлении создаётся новый торрент.
Чтобы начать докачку новой серии, пользователям необходимо сделать следующее:
1. Остановить скачивание;
2. Удалить старый торрент у себя из клиента (старые серии удалять не надо);
3. Скачать новый торрент и запустить его у себя в клиенте вместо старого, при этом указать клиенту путь в старую папку куда и должно происходить скачивание новых серий. Ваш клиент при этом должен произвести хеширование (проверку) старой папки и будет докачивать только те серии, которых у вас ещё нет. Старые серии при этом не удаляются, а продолжают раздаваться! Eсли вы уже удалили старые серии, то предотвратить повторную закачку старых серий можно, отжав галочку в соответствующих местах при запуске нового торрента.


Время раздачи:
24/7 - круглосуточно
(до первых 5-ти сидов - потом по возможности)
 
Не забывайте говорить Спасибо. Не уходите с раздачи!   
Торрент: Зарегистрирован [17 мар 2015, 09:42] Для скачивания .torrent
необходима регистрация
Или скачать с помощью
MediaGet
Статус:
Проверен
 
.torrent скачан: 0 раз
Хэш: 022bf8949d96ce9ef5e2d470cadd73b5f6e1a9c9
Размер: 7.96 ГБ (8 544 971 782 байт)
Стать Автором раздачи
 
 
Раздал: 6.67 ГБ
Скачал: 302.5 МБ
Ратио: 22.576
Сообщения: 374198
Зарегистрирован: 17 апр 2014, 11:05


  • Похожие торренты
    Ответы
    Просмотры
    Последнее сообщение

Вернуться в Видео для мобильных устройств

Ресурс не предоставляет электронные версии произведений, а занимается лишь коллекционированием и каталогизацией ссылок, присылаемых и публикуемых на форуме нашими читателями. Если вы являетесь правообладателем какого-либо представленного материала и не желаете чтобы ссылка на него находилась в нашем каталоге, свяжитесь с нами и мы незамедлительно удалим её. Файлы для обмена на трекере предоставлены пользователями сайта, и администрация не несёт ответственности за их содержание. Просьба не заливать файлы, защищенные авторскими правами, а также файлы нелегального содержания!
cron