Jane - The Best (1972-2011) [MP3|320 кб/с]<Rock, Prog Rock>

 
 Статистика раздачи 
Размер: 130.91 МБ   |  Зарегистрирован: 14 мар 2015, 16:49   |   .torrent скачан: 0 раз
Сидеров: 1  [ 0 байт/сек ]     Личеров: 0  [ 0 байт/сек ]  
  

Jane - The Best (1972-2011) [MP3|320 кб/с]<Rock, Prog Rock>

Сообщение Thistoll » 14 мар 2015, 16:49

Jane - The Best (1972-2011)

Жанр: Rock, Prog Rock
Год: 1972-2011
Страна: Deutschland
Аудио кодек: MP3
Битрейт аудио: 320 CBR
Продолжительность: 00:49:42
Треклист:

01. Daytime (1972) (8:11)
02. Out In The Rain (1973) (5:43)
03. Jane-Session (1974) (4:23)
04. Waiting For The Sunshine (1975) (3:26)
05. Scratches On Your Back (1975) (3:37)
06. (Wishdream) Lady (1975) (3:52)
07. Auroville (1978) (3:43)
08. Moonstone (1979) (4:52)
09. I Know One Day (1979) (3:28)
10. Love Me Tomorrow (2009) (4:06)
11. Rolling Along (2011) (4:23)

Jane – одни из самых интересных представителей германской прогрессивной рок-сцены. Играли мелодичный симфонический хард-рок с периодическими погружениями в психоделию и временами не очень тщательно скрывали свою любовь к Pink Floyd. Корнями группа уходит в психоделическую команду конца шестидесятых Justice of Peace, на самом первом альбоме которой уже играли будущие музыканты Jane: вокалист Питер Панка (Peter Panka), бас-гитарист Клаус Хесс (Klaus Hess) и саксофонист Вернер Надольны (Werner Nadolny). В конце 70-х Justice of Peace распались и была создана группа Jane: вокалист и ударник Панка, Хесс на гитаре вместо баса и Надольны на клавишных. К ним присоединились бас-гитарист Чарли Маучер (Charly Maucher) и второй вокалист Берндт Пульст (Berndt Pulst). В апреле 1972 года группа в новом составе выпустила свой первый альбом Together. Пели они очень страстно, с мощным блюзовым звучанием, изумительными соло-партиями и гипнотизирующим ритмом ударных. Этот стиль стал определяющим для Jane на последующие 40 лет.
Код:
Код: Выделить всё

Полное имя                               : D:\TRACKER\LEAK\Jane - The Best (1972-2011)\01. Daytime.mp3
Формат                                   : MPEG Audio
Размер файла                             : 18,9 Мбайт
Продолжительность                        : 8 м. 10 с.
Режим общего битрейта                    : Постоянный
Общий поток                              : 320 Кбит/сек
Альбом                                   : Together
Трек                                     : Daytime
Трек/Положение                           : 01
Исполнитель                              : Jane
Кодирование произвёл                     : xrecode II 1.0.0.124
Жанр                                     : Krautrock
Дата записи                              : 1972
Программа кодирования                    : ExactAudioCopy v0.95b3
Библиотека кодирования                   : LAME3.98.2
Обложка                                  : Yes
Тип обложки                              : Cover (front)
MIME-тип обложки                         : image/jpeg

Аудио
Формат                                   : MPEG Audio
Версия формата                           : Version 1
Профиль формата                          : Layer 3
Режим                                    : Joint stereo
Продолжительность                        : 8 м. 10 с.
Вид битрейта                             : Постоянный
Битрейт                                  : 320 Кбит/сек
Каналы                                   : 2 канала
Частота                                  : 44,1 КГц
Метод сжатия                             : С потерями
Размер потока                            : 18,7 Мбайт (99%)
Библиотека кодирования                   : LAME3.98.2

Общее
Полное имя                               : D:\TRACKER\LEAK\Jane - The Best (1972-2011)\02. Out In The Rain.mp3
Формат                                   : MPEG Audio
Размер файла                             : 13,9 Мбайт
Продолжительность                        : 5 м. 43 с.
Режим общего битрейта                    : Постоянный
Общий поток                              : 320 Кбит/сек
Альбом                                   : Here We Are
Трек                                     : Out In The Rain
Трек/Положение                           : 2
Трек/Всего                               : 9
Исполнитель                              : Jane
Жанр                                     : Progressive Rock
Дата записи                              : 1973
Программа кодирования                    : ExactAudioCopy v0.95b4
Библиотека кодирования                   : LAME3.99r
Обложка                                  : Yes
Тип обложки                              : Cover (front)
MIME-тип обложки                         : image/jpeg
DISCID                                   : 62096909
REPLAYGAIN_REFERENCE_LOUDNESS            : 89.0 dB

Аудио
Формат                                   : MPEG Audio
Версия формата                           : Version 1
Профиль формата                          : Layer 3
Режим                                    : Joint stereo
Продолжительность                        : 5 м. 43 с.
Вид битрейта                             : Постоянный
Битрейт                                  : 320 Кбит/сек
Каналы                                   : 2 канала
Частота                                  : 44,1 КГц
Метод сжатия                             : С потерями
Размер потока                            : 13,1 Мбайт (94%)
Библиотека кодирования                   : LAME3.99r
Настройки программы                      : -m j -V 4 -q 3 -lowpass 20.5

Общее
Полное имя                               : D:\TRACKER\LEAK\Jane - The Best (1972-2011)\03. Jane-Session.mp3
Формат                                   : MPEG Audio
Размер файла                             : 12,4 Мбайт
Продолжительность                        : 4 м. 22 с.
Режим общего битрейта                    : Постоянный
Общий поток                              : 320 Кбит/сек
Альбом                                   : Jane III
Трек                                     : Jane-Session
Трек/Положение                           : 3
Исполнитель                              : Jane
Кодирование произвёл                     : xrecode II 1.0.0.124
Библиотека кодирования                   : LAME3.98.2
Обложка                                  : Yes
Тип обложки                              : Cover (front)
MIME-тип обложки                         : image/jpeg

Аудио
Формат                                   : MPEG Audio
Версия формата                           : Version 1
Профиль формата                          : Layer 3
Режим                                    : Joint stereo
Продолжительность                        : 4 м. 23 с.
Вид битрейта                             : Постоянный
Битрейт                                  : 320 Кбит/сек
Каналы                                   : 2 канала
Частота                                  : 44,1 КГц
Метод сжатия                             : С потерями
Размер потока                            : 10,0 Мбайт (81%)
Библиотека кодирования                   : LAME3.98.2

Общее
Полное имя                               : D:\TRACKER\LEAK\Jane - The Best (1972-2011)\04. Waiting For The Sunshine.mp3
Формат                                   : MPEG Audio
Размер файла                             : 7,88 Мбайт
Продолжительность                        : 3 м. 25 с.
Режим общего битрейта                    : Постоянный
Общий поток                              : 320 Кбит/сек
Альбом                                   : Lady
Трек                                     : Waiting For The Sunshine
Трек/Положение                           : 4
Исполнитель                              : Jane
Кодирование произвёл                     : xrecode II 1.0.0.124
Библиотека кодирования                   : LAME3.98.2
Обложка                                  : Yes
Тип обложки                              : Cover (front)
MIME-тип обложки                         : image/jpeg

Аудио
Формат                                   : MPEG Audio
Версия формата                           : Version 1
Профиль формата                          : Layer 3
Режим                                    : Joint stereo
Продолжительность                        : 3 м. 25 с.
Вид битрейта                             : Постоянный
Битрейт                                  : 320 Кбит/сек
Каналы                                   : 2 канала
Частота                                  : 44,1 КГц
Метод сжатия                             : С потерями
Размер потока                            : 7,83 Мбайт (99%)
Библиотека кодирования                   : LAME3.98.2

Общее
Полное имя                               : D:\TRACKER\LEAK\Jane - The Best (1972-2011)\05. Scratches On Your Back.mp3
Формат                                   : MPEG Audio
Размер файла                             : 8,32 Мбайт
Продолжительность                        : 3 м. 37 с.
Режим общего битрейта                    : Постоянный
Общий поток                              : 320 Кбит/сек
Альбом                                   : Lady
Трек                                     : Scratches On Your Back
Трек/Положение                           : 5
Исполнитель                              : Jane
Кодирование произвёл                     : xrecode II 1.0.0.124
Библиотека кодирования                   : LAME3.98.2
Обложка                                  : Yes
Тип обложки                              : Cover (front)
MIME-тип обложки                         : image/jpeg

Аудио
Формат                                   : MPEG Audio
Версия формата                           : Version 1
Профиль формата                          : Layer 3
Режим                                    : Joint stereo
Продолжительность                        : 3 м. 37 с.
Вид битрейта                             : Постоянный
Битрейт                                  : 320 Кбит/сек
Каналы                                   : 2 канала
Частота                                  : 44,1 КГц
Метод сжатия                             : С потерями
Размер потока                            : 8,28 Мбайт (99%)
Библиотека кодирования                   : LAME3.98.2

Общее
Полное имя                               : D:\TRACKER\LEAK\Jane - The Best (1972-2011)\06. (Wishdream) Lady.mp3
Формат                                   : MPEG Audio
Размер файла                             : 8,87 Мбайт
Продолжительность                        : 3 м. 51 с.
Режим общего битрейта                    : Постоянный
Общий поток                              : 320 Кбит/сек
Альбом                                   : Lady
Трек                                     : (Wishdream) Lady
Трек/Положение                           : 6
Исполнитель                              : Jane
Кодирование произвёл                     : xrecode II 1.0.0.124
Библиотека кодирования                   : LAME3.98.2
Обложка                                  : Yes
Тип обложки                              : Cover (front)
MIME-тип обложки                         : image/jpeg

Аудио
Формат                                   : MPEG Audio
Версия формата                           : Version 1
Профиль формата                          : Layer 3
Режим                                    : Joint stereo
Продолжительность                        : 3 м. 51 с.
Вид битрейта                             : Постоянный
Битрейт                                  : 320 Кбит/сек
Каналы                                   : 2 канала
Частота                                  : 44,1 КГц
Метод сжатия                             : С потерями
Размер потока                            : 8,83 Мбайт (100%)
Библиотека кодирования                   : LAME3.98.2

Общее
Полное имя                               : D:\TRACKER\LEAK\Jane - The Best (1972-2011)\07. Auroville.mp3
Формат                                   : MPEG Audio
Размер файла                             : 8,54 Мбайт
Продолжительность                        : 3 м. 42 с.
Режим общего битрейта                    : Постоянный
Общий поток                              : 320 Кбит/сек
Альбом                                   : Age Of Madness
Трек                                     : Auroville
Трек/Положение                           : 7
Исполнитель                              : Jane
Кодирование произвёл                     : xrecode II 1.0.0.124
Жанр                                     : Rock
Дата записи                              : 1978
Программа кодирования                    : ExactAudioCopy v0.95b4
Библиотека кодирования                   : LAME3.98.2
Обложка                                  : Yes
Тип обложки                              : Cover (front)
MIME-тип обложки                         : image/jpeg

Аудио
Формат                                   : MPEG Audio
Версия формата                           : Version 1
Профиль формата                          : Layer 3
Режим                                    : Joint stereo
Продолжительность                        : 3 м. 42 с.
Вид битрейта                             : Постоянный
Битрейт                                  : 320 Кбит/сек
Каналы                                   : 2 канала
Частота                                  : 44,1 КГц
Метод сжатия                             : С потерями
Размер потока                            : 8,50 Мбайт (100%)
Библиотека кодирования                   : LAME3.98.2

Общее
Полное имя                               : D:\TRACKER\LEAK\Jane - The Best (1972-2011)\08. Moonstone.mp3
Формат                                   : MPEG Audio
Размер файла                             : 11,2 Мбайт
Продолжительность                        : 4 м. 51 с.
Режим общего битрейта                    : Постоянный
Общий поток                              : 320 Кбит/сек
Альбом                                   : Sign no. 9
Трек                                     : Moonstone
Трек/Положение                           : 8
Исполнитель                              : Jane
Кодирование произвёл                     : xrecode II 1.0.0.124
Жанр                                     : Deutschrock
Дата записи                              : 1979
Программа кодирования                    : ExactAudioCopy v0.95b4
Библиотека кодирования                   : LAME3.98.2
Обложка                                  : Yes
Тип обложки                              : Cover (front)
MIME-тип обложки                         : image/jpeg

Аудио
Формат                                   : MPEG Audio
Версия формата                           : Version 1
Профиль формата                          : Layer 3
Режим                                    : Joint stereo
Продолжительность                        : 4 м. 51 с.
Вид битрейта                             : Постоянный
Битрейт                                  : 320 Кбит/сек
Каналы                                   : 2 канала
Частота                                  : 44,1 КГц
Метод сжатия                             : С потерями
Размер потока                            : 11,1 Мбайт (99%)
Библиотека кодирования                   : LAME3.98.2

Общее
Полное имя                               : D:\TRACKER\LEAK\Jane - The Best (1972-2011)\09. I Know One Day.mp3
Формат                                   : MPEG Audio
Размер файла                             : 8,04 Мбайт
Продолжительность                        : 3 м. 27 с.
Режим общего битрейта                    : Постоянный
Общий поток                              : 320 Кбит/сек
Альбом                                   : Sign no. 9
Трек                                     : I Know One Day
Трек/Положение                           : 09
Исполнитель                              : Jane
Кодирование произвёл                     : xrecode II 1.0.0.124
Жанр                                     : Deutschrock
Дата записи                              : 1979
Программа кодирования                    : ExactAudioCopy v0.95b4
Библиотека кодирования                   : LAME3.98.2
Обложка                                  : Yes
Тип обложки                              : Cover (front)
MIME-тип обложки                         : image/jpeg

Аудио
Формат                                   : MPEG Audio
Версия формата                           : Version 1
Профиль формата                          : Layer 3
Режим                                    : Joint stereo
Расширение режима                        : MS Stereo
Продолжительность                        : 3 м. 28 с.
Вид битрейта                             : Постоянный
Битрейт                                  : 320 Кбит/сек
Каналы                                   : 2 канала
Частота                                  : 44,1 КГц
Метод сжатия                             : С потерями
Размер потока                            : 7,93 Мбайт (99%)
Библиотека кодирования                   : LAME3.98.2

Общее
Полное имя                               : D:\TRACKER\LEAK\Jane - The Best (1972-2011)\10. Love Me Tomorrow.mp3
Формат                                   : MPEG Audio
Размер файла                             : 10,2 Мбайт
Продолжительность                        : 4 м. 5 с.
Режим общего битрейта                    : Постоянный
Общий поток                              : 320 Кбит/сек
Альбом                                   : Traces
Трек                                     : Love Me Tomorrow
Трек/Положение                           : 10
Исполнитель                              : Jane
Жанр                                     : Progressive Rock
Дата записи                              : 2009
Программа кодирования                    : ExactAudioCopy v0.95b4
Библиотека кодирования                   : LAME3.99r
ISRC                                     : DEZ900900912
Обложка                                  : Yes
Тип обложки                              : Cover (front)
MIME-тип обложки                         : image/jpeg
catalog                                  : atalog
DISCID                                   : ISCID

Аудио
Формат                                   : MPEG Audio
Версия формата                           : Version 1
Профиль формата                          : Layer 3
Режим                                    : Joint stereo
Продолжительность                        : 4 м. 5 с.
Вид битрейта                             : Постоянный
Битрейт                                  : 320 Кбит/сек
Каналы                                   : 2 канала
Частота                                  : 44,1 КГц
Метод сжатия                             : С потерями
Размер потока                            : 9,37 Мбайт (92%)
Библиотека кодирования                   : LAME3.99r
Настройки программы                      : -m j -V 4 -q 3 -lowpass 20.5

Общее
Полное имя                               : D:\TRACKER\LEAK\Jane - The Best (1972-2011)\11.  Rolling Along.mp3
Формат                                   : MPEG Audio
Размер файла                             : 10,1 Мбайт
Продолжительность                        : 4 м. 22 с.
Режим общего битрейта                    : Постоянный
Общий поток                              : 320 Кбит/сек
Альбом                                   : Kuxan Suum
Трек                                     : Rolling Along
Трек/Положение                           : 11
Исполнитель                              : Jane
Жанр                                     : Другое
Дата записи                              : 2011
Обложка                                  : Yes
Тип обложки                              : Cover (front)
MIME-тип обложки                         : image/jpeg

Аудио
Формат                                   : MPEG Audio
Версия формата                           : Version 1
Профиль формата                          : Layer 3
Продолжительность                        : 4 м. 23 с.
Вид битрейта                             : Постоянный
Битрейт                                  : 320 Кбит/сек
Каналы                                   : 2 канала
Частота                                  : 44,1 КГц
Метод сжатия                             : С потерями
Размер потока                            : 10,0 Мбайт (99%)




Время раздачи: с 10:00 до 24:00
 
Не забывайте говорить Спасибо. Не уходите с раздачи!   
Торрент: Зарегистрирован [14 мар 2015, 16:49] Скачать торрент
Скачать торрент
[ Размер 11.97 КБ / Просмотров 5 ]
Статус:
Проверен
 
.torrent скачан: 0 раз
Хэш: 698835823b16233c6e07c3173971d95da25b064b
Размер: 130.91 МБ (137 272 231 байт)
Стать Автором раздачи
 
 
Раздал: 6.67 ГБ
Скачал: 302.5 МБ
Ратио: 22.576
Сообщения: 374198
Зарегистрирован: 17 апр 2014, 11:05


  • Похожие торренты
    Ответы
    Просмотры
    Последнее сообщение

Вернуться в Rock, Alternative, Punk, Metal (транзит сборники)

Ресурс не предоставляет электронные версии произведений, а занимается лишь коллекционированием и каталогизацией ссылок, присылаемых и публикуемых на форуме нашими читателями. Если вы являетесь правообладателем какого-либо представленного материала и не желаете чтобы ссылка на него находилась в нашем каталоге, свяжитесь с нами и мы незамедлительно удалим её. Файлы для обмена на трекере предоставлены пользователями сайта, и администрация не несёт ответственности за их содержание. Просьба не заливать файлы, защищенные авторскими правами, а также файлы нелегального содержания!
cron