Сборник видеоклипов 5 - зарубежные хиты (2014 - 2015) WEBRip [H.264/1080p-LQ]

 
 Статистика раздачи 
Размер: 1.61 ГБ   |  Зарегистрирован: 12 мар 2015, 22:10   |   .torrent скачан: 1 раз
Сидеров: 1  [ 0 байт/сек ]     Личеров: 0  [ 0 байт/сек ]  
  

Сборник видеоклипов 5 - зарубежные хиты (2014 - 2015) WEBRip [H.264/1080p-LQ]

Сообщение Thistoll » 12 мар 2015, 22:10

Сборник видеоклипов 5 - зарубежные хиты (2014 - 2015) WEBRip [H.264/1080p-LQ]

Год выпуска: 2015
Жанр: Pop, Dance, Rap, Hip-Hop
Продолжительность: 01:07:01

Описание: Подборка видеоклипов за 2014 - 2015 год.

Качество видео: WEBRip [1080p]
Видеокодек: MPEG-4 AVC/H.264
Битрейт видео: ~ 4101 Кбит/с
Размер кадра: 1920x1080 (16:9), 25,000 кадров/с
Аудиокодек: AAC, 2 ch, stereo
Битрейт аудио: 254 Кбит/с
1.AC-DC - Rock the Blues Away
2.Adelen - Always On My Mind
3.Captain Jack - Say Captain Say Wot 2015 (DJ Valdemossa Sax Mix) Original Video
4.Ciara - I Bet.
5.Darius & Finlay - Tropicali
6.DEE JAMZ feat LaRoxx Project - Don't Kill Me
7.Deepcentral - Hey Girl (Dreaming Of Moscow).
8.Free Deejays - Mi Ritmo
9.Irina Ross - Taragot.
10.Jaden Chase Ft. Karl Wolf - Incredible
11.Mishelle - Ray of Light
12.R3hab & Sander van Doorn - Phoenix
13.Ride Out - Kid Ink, Tyga, Wale, YG, Rich Homie Quan
14.Semitoo & Marc Korn Feat. CvB and Orry Jackson - Holiday
15.The Saturdays - Greatest Hits Megamix.
16.The Script - Man on a Wire.
17.'Undateable' - Bridgit Mendler and the Cast of Undateable
18.Zedd - I Want You To Know ft. Selena Gomez.
Код:
Код: Выделить всё
Общее
Полное имя                               : AC-DC - Rock the Blues Away.mp4
Формат                                   : MPEG-4
Профиль формата                          : Base Media / Version 2
Идентификатор кодека                     : mp42
Размер файла                             : 109 Мбайт
Продолжительность                        : 3 м. 29 с.
Режим общего битрейта                    : Переменный
Общий поток                              : 4360 Кбит/сек

Видео
Идентификатор                            : 1
Формат                                   : AVC
Формат/Информация                        : Advanced Video Codec
Профиль формата                          :
Параметр CABAC формата                   : Да
Параметр ReFrames формата                : 2 кадра
Идентификатор кодека                     : avc1
Идентификатор кодека/Информация          : Advanced Video Coding
Продолжительность                        : 3 м. 29 с.
Продолжительность оригинала              : 3 м. 29 с.
Битрейт                                  : 4101 Кбит/сек
Ширина                                   : 1920 пикселей
Высота                                   : 1080 пикселей
Соотношение сторон                       : 16:9
Режим частоты кадров                     : Переменный
Частота кадров                           : 29,970 кадров/сек
Минимальная частота кадров               : 29,970 кадров/сек
Максимальная частота кадров              : 29,980 кадров/сек
Цветовое пространство                    : YUV
Субдискретизация насыщенности            : 4:2:0
Битовая глубина                          : 8 бит
Тип развёртки                            : Прогрессивная
Бит/(Пиксели*Кадры)                      : 0.066
Размер потока                            : 102 Мбайт (94%)
Размер потока оригинала                  : 102 Мбайт (94%)
Язык                                     : English
mdhd_Duration                            : 209375

Аудио
Идентификатор                            : 2
Формат                                   : AAC
Формат/Информация                        : Advanced Audio Codec
Профиль формата                          : LC
Идентификатор кодека                     : 40
Продолжительность                        : 3 м. 29 с.
Продолжительность оригинала              : 3 м. 29 с.
Вид битрейта                             : Переменный
Битрейт                                  : 254 Кбит/сек
Каналы                                   : 2 канала
Расположение каналов                     : Front: L R
Частота                                  : 44,1 КГц
Метод сжатия                             : С потерями
Размер потока                            : 6,33 Мбайт (6%)
Размер потока оригинала                  : 6,33 Мбайт (6%)
Язык                                     : English
mdhd_Duration                            : 209397

Общее
Полное имя                               : Adelen - Always On My Mind.mp4
Формат                                   : MPEG-4
Профиль формата                          : Base Media / Version 2
Идентификатор кодека                     : mp42
Размер файла                             : 52,7 Мбайт
Продолжительность                        : 3 м. 10 с.
Режим общего битрейта                    : Переменный
Общий поток                              : 2321 Кбит/сек

Видео
Идентификатор                            : 1
Формат                                   : AVC
Формат/Информация                        : Advanced Video Codec
Профиль формата                          :
Параметр CABAC формата                   : Да
Параметр ReFrames формата                : 3 кадра
Идентификатор кодека                     : avc1
Идентификатор кодека/Информация          : Advanced Video Coding
Продолжительность                        : 3 м. 10 с.
Битрейт                                  : 2063 Кбит/сек
Ширина                                   : 1920 пикселей
Высота                                   : 1080 пикселей
Соотношение сторон                       : 16:9
Режим частоты кадров                     : Переменный
Частота кадров                           : 25,000 кадров/сек
Минимальная частота кадров               : 12,500 кадров/сек
Максимальная частота кадров              : 90000,000 кадров/сек
Цветовое пространство                    : YUV
Субдискретизация насыщенности            : 4:2:0
Битовая глубина                          : 8 бит
Тип развёртки                            : Прогрессивная
Бит/(Пиксели*Кадры)                      : 0.040
Размер потока                            : 46,8 Мбайт (89%)
Язык                                     : English

Аудио
Идентификатор                            : 2
Формат                                   : AAC
Формат/Информация                        : Advanced Audio Codec
Профиль формата                          : LC
Идентификатор кодека                     : 40
Продолжительность                        : 3 м. 10 с.
Продолжительность оригинала              : 3 м. 10 с.
Вид битрейта                             : Переменный
Битрейт                                  : 254 Кбит/сек
Каналы                                   : 2 канала
Расположение каналов                     : Front: L R
Частота                                  : 44,1 КГц
Метод сжатия                             : С потерями
Размер потока                            : 5,76 Мбайт (11%)
Размер потока оригинала                  : 5,76 Мбайт (11%)
Язык                                     : English
mdhd_Duration                            : 190473

Общее
Полное имя                               : Captain Jack - Say Captain Say Wot 2015 (DJ Valdemossa Sax Mix) Original Video.mp4
Формат                                   : MPEG-4
Профиль формата                          : Base Media / Version 2
Идентификатор кодека                     : mp42
Размер файла                             : 94,7 Мбайт
Продолжительность                        : 3 м. 1 с.
Режим общего битрейта                    : Переменный
Общий поток                              : 4367 Кбит/сек

Видео
Идентификатор                            : 1
Формат                                   : AVC
Формат/Информация                        : Advanced Video Codec
Профиль формата                          :
Параметр CABAC формата                   : Да
Параметр ReFrames формата                : 2 кадра
Идентификатор кодека                     : avc1
Идентификатор кодека/Информация          : Advanced Video Coding
Продолжительность                        : 3 м. 1 с.
Битрейт                                  : 4109 Кбит/сек
Ширина                                   : 1920 пикселей
Высота                                   : 1080 пикселей
Соотношение сторон                       : 16:9
Режим частоты кадров                     : Постоянный
Частота кадров                           : 25,000 кадров/сек
Цветовое пространство                    : YUV
Субдискретизация насыщенности            : 4:2:0
Битовая глубина                          : 8 бит
Тип развёртки                            : Прогрессивная
Бит/(Пиксели*Кадры)                      : 0.079
Размер потока                            : 89,1 Мбайт (94%)
Язык                                     : English

Аудио
Идентификатор                            : 2
Формат                                   : AAC
Формат/Информация                        : Advanced Audio Codec
Профиль формата                          : LC
Идентификатор кодека                     : 40
Продолжительность                        : 3 м. 1 с.
Продолжительность оригинала              : 3 м. 1 с.
Вид битрейта                             : Переменный
Битрейт                                  : 254 Кбит/сек
Каналы                                   : 2 канала
Расположение каналов                     : Front: L R
Частота                                  : 44,1 КГц
Метод сжатия                             : С потерями
Размер потока                            : 5,50 Мбайт (6%)
Размер потока оригинала                  : 5,50 Мбайт (6%)
Язык                                     : English
mdhd_Duration                            : 181905

Общее
Полное имя                               : Ciara - I Bet..mp4
Формат                                   : MPEG-4
Профиль формата                          : Base Media / Version 2
Идентификатор кодека                     : mp42
Размер файла                             : 109 Мбайт
Продолжительность                        : 5 м. 6 с.
Режим общего битрейта                    : Переменный
Общий поток                              : 2972 Кбит/сек

Видео
Идентификатор                            : 1
Формат                                   : AVC
Формат/Информация                        : Advanced Video Codec
Профиль формата                          :
Параметр CABAC формата                   : Да
Параметр ReFrames формата                : 2 кадра
Идентификатор кодека                     : avc1
Идентификатор кодека/Информация          : Advanced Video Coding
Продолжительность                        : 5 м. 6 с.
Продолжительность оригинала              : 5 м. 6 с.
Битрейт                                  : 2713 Кбит/сек
Ширина                                   : 1920 пикселей
Высота                                   : 1080 пикселей
Соотношение сторон                       : 16:9
Режим частоты кадров                     : Переменный
Частота кадров                           : 23,976 кадра/сек
Минимальная частота кадров               : 23,974 кадра/сек
Максимальная частота кадров              : 23,981 кадра/сек
Цветовое пространство                    : YUV
Субдискретизация насыщенности            : 4:2:0
Битовая глубина                          : 8 бит
Тип развёртки                            : Прогрессивная
Бит/(Пиксели*Кадры)                      : 0.055
Размер потока                            : 99,3 Мбайт (91%)
Размер потока оригинала                  : 99,3 Мбайт (91%)
Язык                                     : English
mdhd_Duration                            : 306932

Аудио
Идентификатор                            : 2
Формат                                   : AAC
Формат/Информация                        : Advanced Audio Codec
Профиль формата                          : LC
Идентификатор кодека                     : 40
Продолжительность                        : 5 м. 6 с.
Продолжительность оригинала              : 5 м. 6 с.
Вид битрейта                             : Переменный
Битрейт                                  : 254 Кбит/сек
Каналы                                   : 2 канала
Расположение каналов                     : Front: L R
Частота                                  : 44,1 КГц
Метод сжатия                             : С потерями
Размер потока                            : 9,28 Мбайт (9%)
Размер потока оригинала                  : 9,28 Мбайт (9%)
Язык                                     : English
mdhd_Duration                            : 306967

Общее
Полное имя                               : Darius & Finlay - Tropicali.mp4
Формат                                   : MPEG-4
Профиль формата                          : Base Media / Version 2
Идентификатор кодека                     : mp42
Размер файла                             : 98,4 Мбайт
Продолжительность                        : 4 м. 40 с.
Режим общего битрейта                    : Переменный
Общий поток                              : 2943 Кбит/сек

Видео
Идентификатор                            : 1
Формат                                   : AVC
Формат/Информация                        : Advanced Video Codec
Профиль формата                          :
Параметр CABAC формата                   : Да
Параметр ReFrames формата                : 3 кадра
Идентификатор кодека                     : avc1
Идентификатор кодека/Информация          : Advanced Video Coding
Продолжительность                        : 4 м. 40 с.
Битрейт                                  : 2684 Кбит/сек
Ширина                                   : 1920 пикселей
Высота                                   : 1080 пикселей
Соотношение сторон                       : 16:9
Режим частоты кадров                     : Переменный
Частота кадров                           : 29,970 кадров/сек
Минимальная частота кадров               : 29,970 кадров/сек
Максимальная частота кадров              : 29,980 кадров/сек
Цветовое пространство                    : YUV
Субдискретизация насыщенности            : 4:2:0
Битовая глубина                          : 8 бит
Тип развёртки                            : Прогрессивная
Бит/(Пиксели*Кадры)                      : 0.043
Размер потока                            : 89,8 Мбайт (91%)
Язык                                     : English

Аудио
Идентификатор                            : 2
Формат                                   : AAC
Формат/Информация                        : Advanced Audio Codec
Профиль формата                          : LC
Идентификатор кодека                     : 40
Продолжительность                        : 4 м. 40 с.
Продолжительность оригинала              : 4 м. 40 с.
Вид битрейта                             : Переменный
Битрейт                                  : 254 Кбит/сек
Каналы                                   : 2 канала
Расположение каналов                     : Front: L R
Частота                                  : 44,1 КГц
Метод сжатия                             : С потерями
Размер потока                            : 8,48 Мбайт (9%)
Размер потока оригинала                  : 8,48 Мбайт (9%)
Язык                                     : English
mdhd_Duration                            : 280612

Общее
Полное имя                               : DEE JAMZ feat LaRoxx Project - Don't Kill Me.mp4
Формат                                   : MPEG-4
Профиль формата                          : Base Media / Version 2
Идентификатор кодека                     : mp42
Размер файла                             : 65,2 Мбайт
Продолжительность                        : 3 м. 1 с.
Режим общего битрейта                    : Переменный
Общий поток                              : 3007 Кбит/сек

Видео
Идентификатор                            : 1
Формат                                   : AVC
Формат/Информация                        : Advanced Video Codec
Профиль формата                          :
Параметр CABAC формата                   : Да
Параметр ReFrames формата                : 3 кадра
Идентификатор кодека                     : avc1
Идентификатор кодека/Информация          : Advanced Video Coding
Продолжительность                        : 3 м. 1 с.
Битрейт                                  : 2749 Кбит/сек
Ширина                                   : 1920 пикселей
Высота                                   : 1080 пикселей
Соотношение сторон                       : 16:9
Режим частоты кадров                     : Переменный
Частота кадров                           : 23,976 кадра/сек
Минимальная частота кадров               : 23,974 кадра/сек
Максимальная частота кадров              : 23,981 кадра/сек
Цветовое пространство                    : YUV
Субдискретизация насыщенности            : 4:2:0
Битовая глубина                          : 8 бит
Тип развёртки                            : Прогрессивная
Бит/(Пиксели*Кадры)                      : 0.055
Размер потока                            : 59,6 Мбайт (91%)
Язык                                     : English

Аудио
Идентификатор                            : 2
Формат                                   : AAC
Формат/Информация                        : Advanced Audio Codec
Профиль формата                          : LC
Идентификатор кодека                     : 40
Продолжительность                        : 3 м. 1 с.
Продолжительность оригинала              : 3 м. 1 с.
Вид битрейта                             : Переменный
Битрейт                                  : 254 Кбит/сек
Каналы                                   : 2 канала
Расположение каналов                     : Front: L R
Частота                                  : 44,1 КГц
Метод сжатия                             : С потерями
Размер потока                            : 5,50 Мбайт (8%)
Размер потока оригинала                  : 5,50 Мбайт (8%)
Язык                                     : English
mdhd_Duration                            : 181974

Общее
Полное имя                               : Deepcentral - Hey Girl (Dreaming Of Moscow)..mp4
Формат                                   : MPEG-4
Профиль формата                          : Base Media / Version 2
Идентификатор кодека                     : mp42
Размер файла                             : 88,6 Мбайт
Продолжительность                        : 4 м. 24 с.
Режим общего битрейта                    : Переменный
Общий поток                              : 2811 Кбит/сек

Видео
Идентификатор                            : 1
Формат                                   : AVC
Формат/Информация                        : Advanced Video Codec
Профиль формата                          :
Параметр CABAC формата                   : Да
Параметр ReFrames формата                : 3 кадра
Идентификатор кодека                     : avc1
Идентификатор кодека/Информация          : Advanced Video Coding
Продолжительность                        : 4 м. 24 с.
Битрейт                                  : 2553 Кбит/сек
Ширина                                   : 1920 пикселей
Высота                                   : 1080 пикселей
Соотношение сторон                       : 16:9
Режим частоты кадров                     : Постоянный
Частота кадров                           : 25,000 кадров/сек
Цветовое пространство                    : YUV
Субдискретизация насыщенности            : 4:2:0
Битовая глубина                          : 8 бит
Тип развёртки                            : Прогрессивная
Бит/(Пиксели*Кадры)                      : 0.049
Размер потока                            : 80,4 Мбайт (91%)
Язык                                     : English

Аудио
Идентификатор                            : 2
Формат                                   : AAC
Формат/Информация                        : Advanced Audio Codec
Профиль формата                          : LC
Идентификатор кодека                     : 40
Продолжительность                        : 4 м. 24 с.
Продолжительность оригинала              : 4 м. 24 с.
Вид битрейта                             : Переменный
Битрейт                                  : 254 Кбит/сек
Каналы                                   : 2 канала
Расположение каналов                     : Front: L R
Частота                                  : 44,1 КГц
Метод сжатия                             : С потерями
Размер потока                            : 7,99 Мбайт (9%)
Размер потока оригинала                  : 7,99 Мбайт (9%)
Язык                                     : English
mdhd_Duration                            : 264359

Общее
Полное имя                               : Free Deejays - Mi Ritmo.mp4
Формат                                   : MPEG-4
Профиль формата                          : Base Media / Version 2
Идентификатор кодека                     : mp42
Размер файла                             : 98,0 Мбайт
Продолжительность                        : 3 м. 14 с.
Режим общего битрейта                    : Переменный
Общий поток                              : 4217 Кбит/сек

Видео
Идентификатор                            : 1
Формат                                   : AVC
Формат/Информация                        : Advanced Video Codec
Профиль формата                          :
Параметр CABAC формата                   : Да
Параметр ReFrames формата                : 3 кадра
Идентификатор кодека                     : avc1
Идентификатор кодека/Информация          : Advanced Video Coding
Продолжительность                        : 3 м. 14 с.
Битрейт                                  : 3958 Кбит/сек
Ширина                                   : 1920 пикселей
Высота                                   : 1080 пикселей
Соотношение сторон                       : 16:9
Режим частоты кадров                     : Постоянный
Частота кадров                           : 25,000 кадров/сек
Цветовое пространство                    : YUV
Субдискретизация насыщенности            : 4:2:0
Битовая глубина                          : 8 бит
Тип развёртки                            : Прогрессивная
Бит/(Пиксели*Кадры)                      : 0.076
Размер потока                            : 92,0 Мбайт (94%)
Язык                                     : English

Аудио
Идентификатор                            : 2
Формат                                   : AAC
Формат/Информация                        : Advanced Audio Codec
Профиль формата                          : LC
Идентификатор кодека                     : 40
Продолжительность                        : 3 м. 14 с.
Продолжительность оригинала              : 3 м. 14 с.
Вид битрейта                             : Переменный
Битрейт                                  : 254 Кбит/сек
Каналы                                   : 2 канала
Расположение каналов                     : Front: L R
Частота                                  : 44,1 КГц
Метод сжатия                             : С потерями
Размер потока                            : 5,89 Мбайт (6%)
Размер потока оригинала                  : 5,89 Мбайт (6%)
Язык                                     : English
mdhd_Duration                            : 194908

Общее
Полное имя                               : Irina Ross - Taragot..mp4
Формат                                   : MPEG-4
Профиль формата                          : Base Media / Version 2
Идентификатор кодека                     : mp42
Размер файла                             : 84,4 Мбайт
Продолжительность                        : 3 м. 37 с.
Режим общего битрейта                    : Переменный
Общий поток                              : 3254 Кбит/сек

Видео
Идентификатор                            : 1
Формат                                   : AVC
Формат/Информация                        : Advanced Video Codec
Профиль формата                          :
Параметр CABAC формата                   : Да
Параметр ReFrames формата                : 2 кадра
Идентификатор кодека                     : avc1
Идентификатор кодека/Информация          : Advanced Video Coding
Продолжительность                        : 3 м. 37 с.
Битрейт                                  : 2996 Кбит/сек
Ширина                                   : 1920 пикселей
Высота                                   : 1080 пикселей
Соотношение сторон                       : 16:9
Режим частоты кадров                     : Постоянный
Частота кадров                           : 25,000 кадров/сек
Цветовое пространство                    : YUV
Субдискретизация насыщенности            : 4:2:0
Битовая глубина                          : 8 бит
Тип развёртки                            : Прогрессивная
Бит/(Пиксели*Кадры)                      : 0.058
Размер потока                            : 77,7 Мбайт (92%)
Язык                                     : English

Аудио
Идентификатор                            : 2
Формат                                   : AAC
Формат/Информация                        : Advanced Audio Codec
Профиль формата                          : LC
Идентификатор кодека                     : 40
Продолжительность                        : 3 м. 37 с.
Продолжительность оригинала              : 3 м. 37 с.
Вид битрейта                             : Переменный
Битрейт                                  : 254 Кбит/сек
Каналы                                   : 2 канала
Расположение каналов                     : Front: L R
Частота                                  : 44,1 КГц
Метод сжатия                             : С потерями
Размер потока                            : 6,57 Мбайт (8%)
Размер потока оригинала                  : 6,58 Мбайт (8%)
Язык                                     : English
mdhd_Duration                            : 217501

Общее
Полное имя                               : Jaden Chase Ft. Karl Wolf - Incredible.mp4
Формат                                   : MPEG-4
Профиль формата                          : Base Media / Version 2
Идентификатор кодека                     : mp42
Размер файла                             : 89,5 Мбайт
Продолжительность                        : 3 м. 4 с.
Режим общего битрейта                    : Переменный
Общий поток                              : 4068 Кбит/сек

Видео
Идентификатор                            : 1
Формат                                   : AVC
Формат/Информация                        : Advanced Video Codec
Профиль формата                          :
Параметр CABAC формата                   : Да
Параметр ReFrames формата                : 2 кадра
Идентификатор кодека                     : avc1
Идентификатор кодека/Информация          : Advanced Video Coding
Продолжительность                        : 3 м. 4 с.
Битрейт                                  : 3809 Кбит/сек
Ширина                                   : 1920 пикселей
Высота                                   : 1080 пикселей
Соотношение сторон                       : 16:9
Режим частоты кадров                     : Переменный
Частота кадров                           : 23,976 кадра/сек
Минимальная частота кадров               : 23,974 кадра/сек
Максимальная частота кадров              : 23,981 кадра/сек
Цветовое пространство                    : YUV
Субдискретизация насыщенности            : 4:2:0
Битовая глубина                          : 8 бит
Тип развёртки                            : Прогрессивная
Бит/(Пиксели*Кадры)                      : 0.077
Размер потока                            : 83,8 Мбайт (94%)
Язык                                     : English
mdhd_Duration                            : 184518

Аудио
Идентификатор                            : 2
Формат                                   : AAC
Формат/Информация                        : Advanced Audio Codec
Профиль формата                          : LC
Идентификатор кодека                     : 40
Продолжительность                        : 3 м. 4 с.
Продолжительность оригинала              : 3 м. 4 с.
Вид битрейта                             : Переменный
Битрейт                                  : 254 Кбит/сек
Каналы                                   : 2 канала
Расположение каналов                     : Front: L R
Частота                                  : 44,1 КГц
Метод сжатия                             : С потерями
Размер потока                            : 5,58 Мбайт (6%)
Размер потока оригинала                  : 5,58 Мбайт (6%)
Язык                                     : English
mdhd_Duration                            : 184505

Общее
Полное имя                               : Mishelle - Ray of Light.mp4
Формат                                   : MPEG-4
Профиль формата                          : Base Media / Version 2
Идентификатор кодека                     : mp42
Размер файла                             : 58,7 Мбайт
Продолжительность                        : 3 м. 53 с.
Режим общего битрейта                    : Переменный
Общий поток                              : 2106 Кбит/сек

Видео
Идентификатор                            : 1
Формат                                   : AVC
Формат/Информация                        : Advanced Video Codec
Профиль формата                          :
Параметр CABAC формата                   : Да
Параметр ReFrames формата                : 3 кадра
Идентификатор кодека                     : avc1
Идентификатор кодека/Информация          : Advanced Video Coding
Продолжительность                        : 3 м. 53 с.
Битрейт                                  : 1848 Кбит/сек
Ширина                                   : 1920 пикселей
Высота                                   : 1080 пикселей
Соотношение сторон                       : 16:9
Режим частоты кадров                     : Постоянный
Частота кадров                           : 25,000 кадров/сек
Цветовое пространство                    : YUV
Субдискретизация насыщенности            : 4:2:0
Битовая глубина                          : 8 бит
Тип развёртки                            : Прогрессивная
Бит/(Пиксели*Кадры)                      : 0.036
Размер потока                            : 51,5 Мбайт (88%)
Язык                                     : English

Аудио
Идентификатор                            : 2
Формат                                   : AAC
Формат/Информация                        : Advanced Audio Codec
Профиль формата                          : LC
Идентификатор кодека                     : 40
Продолжительность                        : 3 м. 53 с.
Продолжительность оригинала              : 3 м. 53 с.
Вид битрейта                             : Переменный
Битрейт                                  : 254 Кбит/сек
Каналы                                   : 2 канала
Расположение каналов                     : Front: L R
Частота                                  : 44,1 КГц
Метод сжатия                             : С потерями
Размер потока                            : 7,07 Мбайт (12%)
Размер потока оригинала                  : 7,07 Мбайт (12%)
Язык                                     : English
mdhd_Duration                            : 233755

Общее
Полное имя                               : R3hab & Sander van Doorn - Phoenix.mp4
Формат                                   : MPEG-4
Профиль формата                          : Base Media / Version 2
Идентификатор кодека                     : mp42
Размер файла                             : 84,3 Мбайт
Продолжительность                        : 3 м. 18 с.
Режим общего битрейта                    : Переменный
Общий поток                              : 3563 Кбит/сек

Видео
Идентификатор                            : 1
Формат                                   : AVC
Формат/Информация                        : Advanced Video Codec
Профиль формата                          :
Параметр CABAC формата                   : Да
Параметр ReFrames формата                : 2 кадра
Идентификатор кодека                     : avc1
Идентификатор кодека/Информация          : Advanced Video Coding
Продолжительность                        : 3 м. 18 с.
Битрейт                                  : 3305 Кбит/сек
Ширина                                   : 1920 пикселей
Высота                                   : 1080 пикселей
Соотношение сторон                       : 16:9
Режим частоты кадров                     : Постоянный
Частота кадров                           : 25,000 кадров/сек
Цветовое пространство                    : YUV
Субдискретизация насыщенности            : 4:2:0
Битовая глубина                          : 8 бит
Тип развёртки                            : Прогрессивная
Бит/(Пиксели*Кадры)                      : 0.064
Размер потока                            : 78,2 Мбайт (93%)
Язык                                     : English

Аудио
Идентификатор                            : 2
Формат                                   : AAC
Формат/Информация                        : Advanced Audio Codec
Профиль формата                          : LC
Идентификатор кодека                     : 40
Продолжительность                        : 3 м. 18 с.
Продолжительность оригинала              : 3 м. 18 с.
Вид битрейта                             : Переменный
Битрейт                                  : 254 Кбит/сек
Каналы                                   : 2 канала
Расположение каналов                     : Front: L R
Частота                                  : 44,1 КГц
Метод сжатия                             : С потерями
Размер потока                            : 6,00 Мбайт (7%)
Размер потока оригинала                  : 6,00 Мбайт (7%)
Язык                                     : English
mdhd_Duration                            : 198391

Общее
Полное имя                               : Ride Out - Kid Ink, Tyga, Wale, YG, Rich Homie Quan.mp4
Формат                                   : MPEG-4
Профиль формата                          : Base Media / Version 2
Идентификатор кодека                     : mp42
Размер файла                             : 89,2 Мбайт
Продолжительность                        : 3 м. 32 с.
Режим общего битрейта                    : Переменный
Общий поток                              : 3520 Кбит/сек

Видео
Идентификатор                            : 1
Формат                                   : AVC
Формат/Информация                        : Advanced Video Codec
Профиль формата                          :
Параметр CABAC формата                   : Да
Параметр ReFrames формата                : 3 кадра
Идентификатор кодека                     : avc1
Идентификатор кодека/Информация          : Advanced Video Coding
Продолжительность                        : 3 м. 32 с.
Битрейт                                  : 3261 Кбит/сек
Ширина                                   : 1920 пикселей
Высота                                   : 1080 пикселей
Соотношение сторон                       : 16:9
Режим частоты кадров                     : Переменный
Частота кадров                           : 23,976 кадра/сек
Минимальная частота кадров               : 23,974 кадра/сек
Максимальная частота кадров              : 23,981 кадра/сек
Цветовое пространство                    : YUV
Субдискретизация насыщенности            : 4:2:0
Битовая глубина                          : 8 бит
Тип развёртки                            : Прогрессивная
Бит/(Пиксели*Кадры)                      : 0.066
Размер потока                            : 82,7 Мбайт (93%)
Язык                                     : English

Аудио
Идентификатор                            : 2
Формат                                   : AAC
Формат/Информация                        : Advanced Audio Codec
Профиль формата                          : LC
Идентификатор кодека                     : 40
Продолжительность                        : 3 м. 32 с.
Продолжительность оригинала              : 3 м. 32 с.
Вид битрейта                             : Переменный
Битрейт                                  : 254 Кбит/сек
Каналы                                   : 2 канала
Расположение каналов                     : Front: L R
Частота                                  : 44,1 КГц
Метод сжатия                             : С потерями
Размер потока                            : 6,43 Мбайт (7%)
Размер потока оригинала                  : 6,43 Мбайт (7%)
Язык                                     : English
mdhd_Duration                            : 212648

Общее
Полное имя                               : Semitoo & Marc Korn Feat. CvB and Orry Jackson - Holiday.mp4
Формат                                   : MPEG-4
Профиль формата                          : Base Media / Version 2
Идентификатор кодека                     : mp42
Размер файла                             : 64,7 Мбайт
Продолжительность                        : 3 м. 40 с.
Режим общего битрейта                    : Переменный
Общий поток                              : 2458 Кбит/сек

Видео
Идентификатор                            : 1
Формат                                   : AVC
Формат/Информация                        : Advanced Video Codec
Профиль формата                          :
Параметр CABAC формата                   : Да
Параметр ReFrames формата                : 3 кадра
Идентификатор кодека                     : avc1
Идентификатор кодека/Информация          : Advanced Video Coding
Продолжительность                        : 3 м. 40 с.
Битрейт                                  : 2200 Кбит/сек
Ширина                                   : 1920 пикселей
Высота                                   : 1080 пикселей
Соотношение сторон                       : 16:9
Режим частоты кадров                     : Постоянный
Частота кадров                           : 25,000 кадров/сек
Цветовое пространство                    : YUV
Субдискретизация насыщенности            : 4:2:0
Битовая глубина                          : 8 бит
Тип развёртки                            : Прогрессивная
Бит/(Пиксели*Кадры)                      : 0.042
Размер потока                            : 57,9 Мбайт (89%)
Язык                                     : English

Аудио
Идентификатор                            : 2
Формат                                   : AAC
Формат/Информация                        : Advanced Audio Codec
Профиль формата                          : LC
Идентификатор кодека                     : 40
Продолжительность                        : 3 м. 40 с.
Продолжительность оригинала              : 3 м. 40 с.
Вид битрейта                             : Переменный
Битрейт                                  : 254 Кбит/сек
Каналы                                   : 2 канала
Расположение каналов                     : Front: L R
Частота                                  : 44,1 КГц
Метод сжатия                             : С потерями
Размер потока                            : 6,67 Мбайт (10%)
Размер потока оригинала                  : 6,67 Мбайт (10%)
Язык                                     : English
mdhd_Duration                            : 220705

Общее
Полное имя                               : The Saturdays - Greatest Hits Megamix..mp4
Формат                                   : MPEG-4
Профиль формата                          : Base Media / Version 2
Идентификатор кодека                     : mp42
Размер файла                             : 163 Мбайт
Продолжительность                        : 7 м. 46 с.
Режим общего битрейта                    : Переменный
Общий поток                              : 2937 Кбит/сек

Видео
Идентификатор                            : 1
Формат                                   : AVC
Формат/Информация                        : Advanced Video Codec
Профиль формата                          :
Параметр CABAC формата                   : Да
Параметр ReFrames формата                : 3 кадра
Идентификатор кодека                     : avc1
Идентификатор кодека/Информация          : Advanced Video Coding
Продолжительность                        : 7 м. 46 с.
Битрейт                                  : 2679 Кбит/сек
Ширина                                   : 1920 пикселей
Высота                                   : 1080 пикселей
Соотношение сторон                       : 16:9
Режим частоты кадров                     : Постоянный
Частота кадров                           : 25,000 кадров/сек
Цветовое пространство                    : YUV
Субдискретизация насыщенности            : 4:2:0
Битовая глубина                          : 8 бит
Тип развёртки                            : Прогрессивная
Бит/(Пиксели*Кадры)                      : 0.052
Размер потока                            : 149 Мбайт (91%)
Язык                                     : English

Аудио
Идентификатор                            : 2
Формат                                   : AAC
Формат/Информация                        : Advanced Audio Codec
Профиль формата                          : LC
Идентификатор кодека                     : 40
Продолжительность                        : 7 м. 46 с.
Продолжительность оригинала              : 7 м. 46 с.
Вид битрейта                             : Переменный
Битрейт                                  : 254 Кбит/сек
Каналы                                   : 2 канала
Расположение каналов                     : Front: L R
Частота                                  : 44,1 КГц
Метод сжатия                             : С потерями
Размер потока                            : 14,1 Мбайт (9%)
Размер потока оригинала                  : 14,1 Мбайт (9%)
Язык                                     : English
mdhd_Duration                            : 466743

Общее
Полное имя                               : The Script - Man on a Wire..mp4
Формат                                   : MPEG-4
Профиль формата                          : Base Media / Version 2
Идентификатор кодека                     : mp42
Размер файла                             : 101 Мбайт
Продолжительность                        : 4 м. 2 с.
Режим общего битрейта                    : Переменный
Общий поток                              : 3514 Кбит/сек

Видео
Идентификатор                            : 1
Формат                                   : AVC
Формат/Информация                        : Advanced Video Codec
Профиль формата                          :
Параметр CABAC формата                   : Да
Параметр ReFrames формата                : 2 кадра
Идентификатор кодека                     : avc1
Идентификатор кодека/Информация          : Advanced Video Coding
Продолжительность                        : 4 м. 2 с.
Битрейт                                  : 3255 Кбит/сек
Ширина                                   : 1920 пикселей
Высота                                   : 1080 пикселей
Соотношение сторон                       : 16:9
Режим частоты кадров                     : Постоянный
Частота кадров                           : 25,000 кадров/сек
Цветовое пространство                    : YUV
Субдискретизация насыщенности            : 4:2:0
Битовая глубина                          : 8 бит
Тип развёртки                            : Прогрессивная
Бит/(Пиксели*Кадры)                      : 0.063
Размер потока                            : 93,9 Мбайт (93%)
Язык                                     : English

Аудио
Идентификатор                            : 2
Формат                                   : AAC
Формат/Информация                        : Advanced Audio Codec
Профиль формата                          : LC
Идентификатор кодека                     : 40
Продолжительность                        : 4 м. 2 с.
Продолжительность оригинала              : 4 м. 1 с.
Вид битрейта                             : Переменный
Битрейт                                  : 254 Кбит/сек
Каналы                                   : 2 канала
Расположение каналов                     : Front: L R
Частота                                  : 44,1 КГц
Метод сжатия                             : С потерями
Размер потока                            : 7,32 Мбайт (7%)
Размер потока оригинала                  : 7,32 Мбайт (7%)
Язык                                     : English
mdhd_Duration                            : 242021

Общее
Полное имя                               : 'Undateable' - Bridgit Mendler and the Cast of Undateable.mp4
Формат                                   : MPEG-4
Профиль формата                          : Base Media / Version 2
Идентификатор кодека                     : mp42
Размер файла                             : 89,2 Мбайт
Продолжительность                        : 2 м. 58 с.
Режим общего битрейта                    : Переменный
Общий поток                              : 4201 Кбит/сек

Видео
Идентификатор                            : 1
Формат                                   : AVC
Формат/Информация                        : Advanced Video Codec
Профиль формата                          :
Параметр CABAC формата                   : Да
Параметр ReFrames формата                : 2 кадра
Идентификатор кодека                     : avc1
Идентификатор кодека/Информация          : Advanced Video Coding
Продолжительность                        : 2 м. 58 с.
Битрейт                                  : 3943 Кбит/сек
Ширина                                   : 1920 пикселей
Высота                                   : 1080 пикселей
Соотношение сторон                       : 16:9
Режим частоты кадров                     : Переменный
Частота кадров                           : 29,970 кадров/сек
Минимальная частота кадров               : 29,970 кадров/сек
Максимальная частота кадров              : 29,980 кадров/сек
Цветовое пространство                    : YUV
Субдискретизация насыщенности            : 4:2:0
Битовая глубина                          : 8 бит
Тип развёртки                            : Прогрессивная
Бит/(Пиксели*Кадры)                      : 0.063
Размер потока                            : 83,7 Мбайт (94%)
Язык                                     : English

Аудио
Идентификатор                            : 2
Формат                                   : AAC
Формат/Информация                        : Advanced Audio Codec
Профиль формата                          : LC
Идентификатор кодека                     : 40
Продолжительность                        : 2 м. 58 с.
Продолжительность оригинала              : 2 м. 58 с.
Вид битрейта                             : Переменный
Битрейт                                  : 254 Кбит/сек
Каналы                                   : 2 канала
Расположение каналов                     : Front: L R
Частота                                  : 44,1 КГц
Метод сжатия                             : С потерями
Размер потока                            : 5,38 Мбайт (6%)
Размер потока оригинала                  : 5,38 Мбайт (6%)
Язык                                     : English
mdhd_Duration                            : 178097

Общее
Полное имя                               : Zedd - I Want You To Know ft. Selena Gomez..mp4
Формат                                   : MPEG-4
Профиль формата                          : Base Media / Version 2
Идентификатор кодека                     : mp42
Размер файла                             : 113 Мбайт
Продолжительность                        : 4 м. 6 с.
Режим общего битрейта                    : Переменный
Общий поток                              : 3849 Кбит/сек

Видео
Идентификатор                            : 1
Формат                                   : AVC
Формат/Информация                        : Advanced Video Codec
Профиль формата                          :
Параметр CABAC формата                   : Да
Параметр ReFrames формата                : 2 кадра
Идентификатор кодека                     : avc1
Идентификатор кодека/Информация          : Advanced Video Coding
Продолжительность                        : 4 м. 6 с.
Продолжительность оригинала              : 4 м. 6 с.
Битрейт                                  : 3590 Кбит/сек
Ширина                                   : 1920 пикселей
Высота                                   : 1080 пикселей
Соотношение сторон                       : 16:9
Режим частоты кадров                     : Переменный
Частота кадров                           : 23,976 кадра/сек
Минимальная частота кадров               : 23,974 кадра/сек
Максимальная частота кадров              : 23,981 кадра/сек
Цветовое пространство                    : YUV
Субдискретизация насыщенности            : 4:2:0
Битовая глубина                          : 8 бит
Тип развёртки                            : Прогрессивная
Бит/(Пиксели*Кадры)                      : 0.072
Размер потока                            : 106 Мбайт (93%)
Размер потока оригинала                  : 106 Мбайт (93%)
Язык                                     : English
mdhd_Duration                            : 246830

Аудио
Идентификатор                            : 2
Формат                                   : AAC
Формат/Информация                        : Advanced Audio Codec
Профиль формата                          : LC
Идентификатор кодека                     : 40
Продолжительность                        : 4 м. 6 с.
Продолжительность оригинала              : 4 м. 6 с.
Вид битрейта                             : Переменный
Битрейт                                  : 254 Кбит/сек
Каналы                                   : 2 канала
Расположение каналов                     : Front: L R
Частота                                  : 44,1 КГц
Метод сжатия                             : С потерями
Размер потока                            : 7,46 Мбайт (7%)
Размер потока оригинала                  : 7,46 Мбайт (7%)
Язык                                     : English
mdhd_Duration                            : 246851
Скриншоты:
 
Не забывайте говорить Спасибо. Не уходите с раздачи!   
Торрент: Зарегистрирован [12 мар 2015, 22:10] Скачать торрент
Скачать торрент
[ Размер 18.16 КБ / Просмотров 36 ]
Статус:
Проверен
 
.torrent скачан: 1 раз
Хэш: 60902b7b9037e6143fbdac568565b2a4bbf64335
Размер: 1.61 ГБ (1 733 623 820 байт)
Стать Автором раздачи
 
 
Раздал: 6.67 ГБ
Скачал: 302.5 МБ
Ратио: 22.576
Сообщения: 374198
Зарегистрирован: 17 апр 2014, 11:05


  • Похожие торренты
    Ответы
    Просмотры
    Последнее сообщение

Вернуться в Музыкальные клипы (транзит)

Ресурс не предоставляет электронные версии произведений, а занимается лишь коллекционированием и каталогизацией ссылок, присылаемых и публикуемых на форуме нашими читателями. Если вы являетесь правообладателем какого-либо представленного материала и не желаете чтобы ссылка на него находилась в нашем каталоге, свяжитесь с нами и мы незамедлительно удалим её. Файлы для обмена на трекере предоставлены пользователями сайта, и администрация не несёт ответственности за их содержание. Просьба не заливать файлы, защищенные авторскими правами, а также файлы нелегального содержания!
cron