(Hard Rock) [LP] [24/48] Август - Ответный Удар - 1989, FLAC (tracks+.cue)

 
 Статистика раздачи 
Размер: 576.16 МБ   |  Зарегистрирован: 11 мар 2015, 08:23   |   .torrent скачан: 0 раз
Сидеров: 1  [ 0 байт/сек ]     Личеров: 0  [ 0 байт/сек ]  
  

(Hard Rock) [LP] [24/48] Август - Ответный Удар - 1989, FLAC (tracks+.cue)

Сообщение bagouser » 11 мар 2015, 08:23

Август - Ответный Удар

Жанр: Hard Rock
Носитель: LP
Год выпуска: 1989
Лейбл: Melodya (VSG)
Страна-производитель: USSR
Аудио кодек: FLAC
Тип рипа: tracks+.cue
Формат записи: 32/192
Формат раздачи: 24/48
Продолжительность: 41.08 min
Треклист:
01. Орел
02. Ответный Удар
03. Гонка
04. Точка
05. Дорога в никуда
06. Металл
07. Рок-н-ролл
08. Цветной сон

Источник оцифровки: автором раздачи
Код класса состояния винила: Ex
Устройство воспроизведения: Электроника ЭП 017С
Головка звукоснимателя: Audio-Technica AT95
Предварительный усилитель: Бриг-001
АЦП: VIA HD audio device
Программа-оцифровщик: Izotope RX 4 Advanced
Обработка: Izotope RX 4 Advanced
foobar2000 1.1.10 / Dynamic Range Meter 1.1.1
log date: 2015-02-25 10:45:38

--------------------------------------------------------------------------------
Analyzed: Август / Ответный Удар
--------------------------------------------------------------------------------

DR Peak RMS Duration Track
--------------------------------------------------------------------------------
DR11 -2.20 dB -14.27 dB 5:25 ?-Орел
DR10 -1.50 dB -13.76 dB 2:50 ?-Ответный Удар
DR10 -2.74 dB -15.18 dB 4:58 ?-Гонка
DR11 -1.69 dB -15.84 dB 6:53 ?-Точка
DR11 -1.53 dB -14.13 dB 4:39 ?-Дорога в никуда
DR10 -1.70 dB -13.92 dB 5:08 ?-Металл
DR10 -1.78 dB -14.49 dB 5:09 ?-Рок-н-ролл
DR11 -1.89 dB -15.60 dB 6:07 ?-Цветной сон
--------------------------------------------------------------------------------

Number of tracks: 8
Official DR value: DR11

Samplerate: 48000 Hz
Channels: 2
Bits per sample: 24
Bitrate: 1862 kbps
Codec: FLAC
================================================================================
 
Не забывайте говорить Спасибо. Не уходите с раздачи!   
Торрент: Зарегистрирован [11 мар 2015, 08:23] Скачать торрент
Скачать торрент
[ Размер 12.6 КБ / Просмотров 22 ]
Статус:
Проверен
 
.torrent скачан: 0 раз
Хэш: 10938acc8e9ead22575f9cba4fb22e8971a54c93
Размер: 576.16 МБ (604 150 202 байт)
Стать Автором раздачи
 
Аватара пользователя
 
Раздал: 3.77 ТБ
Скачал: 406.3 ГБ
Ратио: 9.496
Сообщения: 468709
Зарегистрирован: 20 янв 2011, 21:15


  • Похожие торренты
    Ответы
    Просмотры
    Последнее сообщение

Вернуться в Отечественный рок (собственные оцифровки)

Ресурс не предоставляет электронные версии произведений, а занимается лишь коллекционированием и каталогизацией ссылок, присылаемых и публикуемых на форуме нашими читателями. Если вы являетесь правообладателем какого-либо представленного материала и не желаете чтобы ссылка на него находилась в нашем каталоге, свяжитесь с нами и мы незамедлительно удалим её. Файлы для обмена на трекере предоставлены пользователями сайта, и администрация не несёт ответственности за их содержание. Просьба не заливать файлы, защищенные авторскими правами, а также файлы нелегального содержания!
cron