[SERIAL] Терра Нова / Terra Nova / Сезон: 1 / Серии: 1-13 из 13 (Алекс Грейвз) [2011, драма, фантастика, WEB-DLRip] [AVI, 320x]

 
 Статистика раздачи 
Размер: 1.84 ГБ   |  Зарегистрирован: 10 мар 2015, 14:39   |   .torrent скачан: 0 раз
Сидеров: 1  [ 0 байт/сек ]     Личеров: 3  [ 0 байт/сек ]  
  

[SERIAL] Терра Нова / Terra Nova / Сезон: 1 / Серии: 1-13 из 13 (Алекс Грейвз) [2011, драма, фантастика, WEB-DLRip] [AVI, 320x]

Сообщение Satch » 10 мар 2015, 14:39

Терра Нова / Terra Nova


Год выпуска: 2011

Страна: США, Австралия

Жанр: драма, фантастика

Продолжительность: 00:44:00

Перевод: Профессиональный (дублированный)

Cубтитры: нет

Режиссер: Алекс Грейвз

В ролях: Джейсон О’Мара, Кристин Адамс, Байрон Дж. Брочманн, Джоэль Амос Бернс, Джейсон Чонг, Шелли Конн, Эка Дарвилл, Айша Ди, Дин Гейер, Мидо Хамада, Симона Кессель, Стивен Лэнг, Лэндон Лбуарон, Эллисон Миллер, Дэн Мор, Сэм Парсонсон, Роми Полье, Тоня Рени, Наоми Скотт, Валентино Дель Торо, Дэмиан Уолш-Хаулинг, Лаура Уитнолл и др.

Описание: 2149 год. Земля перенаселена. Большинство растений и животных уже исчезли с её лица. Будущее человечества под сомнением, единственную надежду на выживание ученые видят в прошлом. Неожиданно обнаруженный ими пространственно-временной портал позволяет претворить в жизнь самый смелый план – переселить людей на 85 миллионов лет назад с целью повторного восстановления цивилизации. Семье Шеннонов выпадает честь присоединиться к десятому паломничеству переселенцев на Тerra Nova.

Качество: WEB-DLRip

Формат: AVI

Видео: Video: 320x176 (1.33:1), 25 fps, XviD build 50 ~327 kbps avg, 0.19 bit/pixel
Аудио: Audio: 48 kHz, MPEG Layer 3, 2 ch, ~128.00 kbps avg
GeneralComplete name : G:\Terra\Terra.Nova.S01E03.WEB-DLRip.aviFormat : AVIFormat/Info : Audio Video InterleaveFile size : 144 MiBDuration : 43mn 2sOverall bit rate : 468 KbpsWriting application : Lavf52.57.1

VideoID : 0Format : xvidCodec ID : xvidDuration : 43mn 2sBit rate : 327 KbpsWidth : 320 pixelsHeight : 176 pixelsDisplay aspect ratio : 16:9Frame rate : 23.976 fpsBits/(Pixel*Frame) : 0.242Stream size : 101 MiB (70%)

AudioID : 1Format : MPEG AudioFormat version : Version 1Format profile : Layer 3Codec ID : 55Codec ID/Hint : MP3Duration : 43mn 2sBit rate mode : ConstantBit rate : 128 KbpsChannel(s) : 2 channelsSampling rate : 48.0 KHzCompression mode : LossyStream size : 39.4 MiB (27%)Alignment : Aligned on interleavesInterleave, duration : 24 ms (0.58 video frame)Writing library : LAME3.98rEncoding settings : -m s -V 4 -q 2 -lowpass 17 -b 128








 
Не забывайте говорить Спасибо. Не уходите с раздачи!   
Торрент: Зарегистрирован [10 мар 2015, 14:39] Для скачивания .torrent
необходима регистрация
Или скачать с помощью
MediaGet
Статус:
Проверен
 
.torrent скачан: 0 раз
Хэш: 46e075b8949f938170dd9a8ab883f5d4f4d5da56
Размер: 1.84 ГБ (1 979 816 410 байт)
Стать Автором раздачи
 
Аватара пользователя
 
Раздал: 2.45 ГБ
Скачал: 15.94 МБ
Ратио: 157.696
Сообщения: 337733
Зарегистрирован: 16 янв 2012, 17:03


  • Похожие торренты
    Ответы
    Просмотры
    Последнее сообщение

Вернуться в Видео для мобильных устройств

Ресурс не предоставляет электронные версии произведений, а занимается лишь коллекционированием и каталогизацией ссылок, присылаемых и публикуемых на форуме нашими читателями. Если вы являетесь правообладателем какого-либо представленного материала и не желаете чтобы ссылка на него находилась в нашем каталоге, свяжитесь с нами и мы незамедлительно удалим её. Файлы для обмена на трекере предоставлены пользователями сайта, и администрация не несёт ответственности за их содержание. Просьба не заливать файлы, защищенные авторскими правами, а также файлы нелегального содержания!
cron