(Rock) [LP] [24/48] Аквариум - Аквариум - 1987, FLAC (tracks+.cue)

 
 Статистика раздачи 
Размер: 414.08 МБ   |  Зарегистрирован: 09 мар 2015, 18:18   |   .torrent скачан: 0 раз
Сидеров: 1  [ 0 байт/сек ]     Личеров: 0  [ 0 байт/сек ]  
  

(Rock) [LP] [24/48] Аквариум - Аквариум - 1987, FLAC (tracks+.cue)

Сообщение bagouser » 09 мар 2015, 18:18

Аквариум - Аквариум

Жанр: Rock
Носитель: LP
Год выпуска: 1987
Лейбл: Melodya (VSG)
Страна-производитель: USSR
Аудио кодек: FLAC
Тип рипа: tracks+.cue
Формат записи: 32/192
Формат раздачи: 24/48
Продолжительность: 35.43 min
Треклист:
01. Сидя на красивом холме
02. Иван Бодхидхарма
03. Небо становится ближе
04. Электричество
05. Глаз
06. Сны о чем-то большем
07. Кад Годдо
08. Дети Декабря
09. Деревня

Источник оцифровки: автором раздачи
Код класса состояния винила: Ex
Устройство воспроизведения: Электроника ЭП 017С
Головка звукоснимателя: Audio-Technica AT95
Предварительный усилитель: Бриг-001
АЦП: VIA HD audio device
Программа-оцифровщик: Izotope RX 4 Advanced
Обработка: Izotope RX 4 Advanced
foobar2000 1.1.10 / Dynamic Range Meter 1.1.1
log date: 2015-03-03 16:04:23

--------------------------------------------------------------------------------
Analyzed: Аквариум / Аквариум
--------------------------------------------------------------------------------

DR Peak RMS Duration Track
--------------------------------------------------------------------------------
DR14 -3.02 dB -20.50 dB 1:47 ?-Сидя на красивом холме
DR14 -0.53 dB -17.51 dB 2:58 ?-Иван Бодхидхарма
DR12 -0.49 dB -16.09 dB 6:23 ?-Небо становится ближе
DR12 -0.41 dB -16.07 dB 4:19 ?-Электричество
DR12 -1.43 dB -15.87 dB 3:32 ?-Глаз
DR14 -1.45 dB -18.16 dB 4:43 ?-Сны о чем-то большем
DR14 -1.22 dB -19.92 dB 4:55 ?-Кад Годдо
DR12 -3.52 dB -21.14 dB 2:16 ?-Дети Декабря
DR13 -2.24 dB -19.66 dB 4:48 ?-Деревня
--------------------------------------------------------------------------------

Number of tracks: 9
Official DR value: DR13

Samplerate: 48000 Hz
Channels: 2
Bits per sample: 24
Bitrate: 1396 kbps
Codec: FLAC
================================================================================
 
Не забывайте говорить Спасибо. Не уходите с раздачи!   
Торрент: Зарегистрирован [09 мар 2015, 18:18] Скачать торрент
Скачать торрент
[ Размер 17.67 КБ / Просмотров 19 ]
Статус:
Проверен
 
.torrent скачан: 0 раз
Хэш: 2592a706241b4c320af9ac1c289b83a6db929c5e
Размер: 414.08 МБ (434 190 979 байт)
Стать Автором раздачи
 
Аватара пользователя
 
Раздал: 3.77 ТБ
Скачал: 406.3 ГБ
Ратио: 9.496
Сообщения: 468709
Зарегистрирован: 20 янв 2011, 21:15


  • Похожие торренты
    Ответы
    Просмотры
    Последнее сообщение

Вернуться в Отечественный рок (собственные оцифровки)

Ресурс не предоставляет электронные версии произведений, а занимается лишь коллекционированием и каталогизацией ссылок, присылаемых и публикуемых на форуме нашими читателями. Если вы являетесь правообладателем какого-либо представленного материала и не желаете чтобы ссылка на него находилась в нашем каталоге, свяжитесь с нами и мы незамедлительно удалим её. Файлы для обмена на трекере предоставлены пользователями сайта, и администрация не несёт ответственности за их содержание. Просьба не заливать файлы, защищенные авторскими правами, а также файлы нелегального содержания!
cron