Сборник видеоклипов 3 -зарубежные хиты (2014 - 2015) [H.264/1080p] WEBRip

 
 Статистика раздачи 
Размер: 3.03 ГБ   |  Зарегистрирован: 09 мар 2015, 11:54   |   .torrent скачан: 1 раз
Сидеров: 1  [ 0 байт/сек ]     Личеров: 0  [ 0 байт/сек ]  
  

Сборник видеоклипов 3 -зарубежные хиты (2014 - 2015) [H.264/1080p] WEBRip

Сообщение Thistoll » 09 мар 2015, 11:54

Сборник видеоклипов 3 -зарубежные хиты (2014 - 2015) [H.264/1080p] WEBRip

Год выпуска: 2015
Жанр: Pop, Dance, Rap, Hip-Hop
Продолжительность: 01:59:45

Описание: Подборка видеоклипов за 2014 - 2015 год.

Качество видео: WEBRip [1080p]
Видеокодек: MPEG-4 AVC/H.264
Битрейт видео: ~3100 Кбит/с
Размер кадра: 1920x1080 (16:9), 25,000 кадров/с
Аудиокодек: AAC, 2 ch, stereo
Битрейт аудио: 254 Кбит/с
1.Andreea D - Rompedon
2.Arash feat. T-Pain 'Sex Love Rock N Roll (SLR)'
3.Bassjackers & Thomas Newson - Wave Your Hands
4.Benny Benassi feat. Gary Go - Let This Last Forever
5.Blasterjaxx & DBSTF feat. Ryder - Beautiful World
6.Bodybangers - Are You Ready
7.Borgeous - They Don't Know Us
8.Captain Jack - Say Captain Say Wot
9.Cash Cash - Surrender
10.Cecy B - All I Do Is Werk.
11.CLMD feat. Jared Lee - Keep Dreaming
12.Corina - Autobronzant
13.Demid Rezin - Summertime - Record Dance Label.
14.Eric Bellinger - Focused On You Feat. 2 Chainz
15.Flo Rida - Once In A Lifetime
16.Geo Da Silva & Jack Mazzoni - Awela Hey
17.Gisele & Bob Sinclar - Heart of Glass
18.G-Unit - I'm Grown
19.Katie Bell feat. Claydee - Because Of You
20.Komodo pres. House Of Pain, DJ Wady, Carlos Jimenez - Jump Around The Box
21.Lifelike - Overdrive.
22.Marc Korn & Klubbingman Feat. Craig Smart - Lift Me Up
23.Mocki - 'Weekend'
24.NIELS VAN GOGH ft Nitro - Basskiller
25.P Reign feat. Drake & Future - DnF (Explicit).
26.Prince Royce - My Angel - Furious 7 Soundtrack.
27.Rene Rodrigezz & Mc Yankoo - Around The World
28.Rockefeller - Do It 2 Nite (Lucas & Steve Remix)
29.Sunnery James & Ryan Marciano feat. KiFi - Come Follow
30.The Veronicas - Cruel.
31.Tom Boxer & Morena - Balans
32.Tove Styrke - Ego.
33.Vega Feat Tash, Nicki Minaj, Ru Spits - Love Poison (Bodybangers Remix).
34.Xyloo - Spark in the Night (Steve Modana Remix).
35.Yamira feat. Mattyas - Waterfalls
Код:
Код: Выделить всё
Общее
Полное имя                               : Andreea D - Rompedon.mp4
Формат                                   : MPEG-4
Профиль формата                          : Base Media / Version 2
Идентификатор кодека                     : mp42
Размер файла                             : 75,8 Мбайт
Продолжительность                        : 2 м. 52 с.
Режим общего битрейта                    : Переменный
Общий поток                              : 3681 Кбит/сек

Видео
Идентификатор                            : 1
Формат                                   : AVC
Формат/Информация                        : Advanced Video Codec
Профиль формата                          :
Параметр CABAC формата                   : Да
Параметр ReFrames формата                : 3 кадра
Идентификатор кодека                     : avc1
Идентификатор кодека/Информация          : Advanced Video Coding
Продолжительность                        : 2 м. 52 с.
Продолжительность оригинала              : 2 м. 52 с.
Битрейт                                  : 3423 Кбит/сек
Ширина                                   : 1920 пикселей
Высота                                   : 1080 пикселей
Соотношение сторон                       : 16:9
Режим частоты кадров                     : Постоянный
Частота кадров                           : 25,000 кадров/сек
Цветовое пространство                    : YUV
Субдискретизация насыщенности            : 4:2:0
Битовая глубина                          : 8 бит
Тип развёртки                            : Прогрессивная
Бит/(Пиксели*Кадры)                      : 0.066
Размер потока                            : 70,5 Мбайт (93%)
Размер потока оригинала                  : 70,5 Мбайт (93%)
Язык                                     : English
mdhd_Duration                            : 172680

Аудио
Идентификатор                            : 2
Формат                                   : AAC
Формат/Информация                        : Advanced Audio Codec
Профиль формата                          : LC
Идентификатор кодека                     : 40
Продолжительность                        : 2 м. 52 с.
Продолжительность оригинала              : 2 м. 52 с.
Вид битрейта                             : Переменный
Битрейт                                  : 254 Кбит/сек
Каналы                                   : 2 канала
Расположение каналов                     : Front: L R
Частота                                  : 44,1 КГц
Метод сжатия                             : С потерями
Размер потока                            : 5,22 Мбайт (7%)
Размер потока оригинала                  : 5,22 Мбайт (7%)
Язык                                     : English
mdhd_Duration                            : 172710

Общее
Полное имя                               : Arash feat. T-Pain 'Sex Love Rock N Roll (SLR)'.mp4
Формат                                   : MPEG-4
Профиль формата                          : Base Media / Version 2
Идентификатор кодека                     : mp42
Размер файла                             : 83,8 Мбайт
Продолжительность                        : 3 м. 10 с.
Режим общего битрейта                    : Переменный
Общий поток                              : 3689 Кбит/сек

Видео
Идентификатор                            : 1
Формат                                   : AVC
Формат/Информация                        : Advanced Video Codec
Профиль формата                          :
Параметр CABAC формата                   : Да
Параметр ReFrames формата                : 3 кадра
Идентификатор кодека                     : avc1
Идентификатор кодека/Информация          : Advanced Video Coding
Продолжительность                        : 3 м. 10 с.
Битрейт                                  : 3431 Кбит/сек
Ширина                                   : 1920 пикселей
Высота                                   : 1080 пикселей
Соотношение сторон                       : 16:9
Режим частоты кадров                     : Постоянный
Частота кадров                           : 25,000 кадров/сек
Цветовое пространство                    : YUV
Субдискретизация насыщенности            : 4:2:0
Битовая глубина                          : 8 бит
Тип развёртки                            : Прогрессивная
Бит/(Пиксели*Кадры)                      : 0.066
Размер потока                            : 78,0 Мбайт (93%)
Язык                                     : English

Аудио
Идентификатор                            : 2
Формат                                   : AAC
Формат/Информация                        : Advanced Audio Codec
Профиль формата                          : LC
Идентификатор кодека                     : 40
Продолжительность                        : 3 м. 10 с.
Продолжительность оригинала              : 3 м. 10 с.
Вид битрейта                             : Переменный
Битрейт                                  : 254 Кбит/сек
Каналы                                   : 2 канала
Расположение каналов                     : Front: L R
Частота                                  : 44,1 КГц
Метод сжатия                             : С потерями
Размер потока                            : 5,76 Мбайт (7%)
Размер потока оригинала                  : 5,76 Мбайт (7%)
Язык                                     : English
mdhd_Duration                            : 190589

Общее
Полное имя                               : Bassjackers & Thomas Newson - Wave Your Hands.mp4
Формат                                   : MPEG-4
Профиль формата                          : Base Media / Version 2
Идентификатор кодека                     : mp42
Размер файла                             : 75,3 Мбайт
Продолжительность                        : 3 м. 8 с.
Режим общего битрейта                    : Переменный
Общий поток                              : 3358 Кбит/сек

Видео
Идентификатор                            : 1
Формат                                   : AVC
Формат/Информация                        : Advanced Video Codec
Профиль формата                          :
Параметр CABAC формата                   : Да
Параметр ReFrames формата                : 2 кадра
Идентификатор кодека                     : avc1
Идентификатор кодека/Информация          : Advanced Video Coding
Продолжительность                        : 3 м. 8 с.
Продолжительность оригинала              : 3 м. 8 с.
Битрейт                                  : 3100 Кбит/сек
Ширина                                   : 1920 пикселей
Высота                                   : 1080 пикселей
Соотношение сторон                       : 16:9
Режим частоты кадров                     : Постоянный
Частота кадров                           : 25,000 кадров/сек
Цветовое пространство                    : YUV
Субдискретизация насыщенности            : 4:2:0
Битовая глубина                          : 8 бит
Тип развёртки                            : Прогрессивная
Бит/(Пиксели*Кадры)                      : 0.060
Размер потока                            : 69,5 Мбайт (92%)
Размер потока оригинала                  : 69,5 Мбайт (92%)
Язык                                     : English
mdhd_Duration                            : 188160

Аудио
Идентификатор                            : 2
Формат                                   : AAC
Формат/Информация                        : Advanced Audio Codec
Профиль формата                          : LC
Идентификатор кодека                     : 40
Продолжительность                        : 3 м. 8 с.
Продолжительность оригинала              : 3 м. 8 с.
Вид битрейта                             : Переменный
Битрейт                                  : 254 Кбит/сек
Каналы                                   : 2 канала
Расположение каналов                     : Front: L R
Частота                                  : 44,1 КГц
Метод сжатия                             : С потерями
Размер потока                            : 5,69 Мбайт (8%)
Размер потока оригинала                  : 5,69 Мбайт (8%)
Язык                                     : English
mdhd_Duration                            : 188197

Общее
Полное имя                               : Benny Benassi feat. Gary Go - Let This Last Forever.mp4
Формат                                   : MPEG-4
Профиль формата                          : Base Media / Version 2
Идентификатор кодека                     : mp42
Размер файла                             : 84,2 Мбайт
Продолжительность                        : 2 м. 57 с.
Режим общего битрейта                    : Переменный
Общий поток                              : 3973 Кбит/сек

Видео
Идентификатор                            : 1
Формат                                   : AVC
Формат/Информация                        : Advanced Video Codec
Профиль формата                          :
Параметр CABAC формата                   : Да
Параметр ReFrames формата                : 3 кадра
Идентификатор кодека                     : avc1
Идентификатор кодека/Информация          : Advanced Video Coding
Продолжительность                        : 2 м. 57 с.
Битрейт                                  : 3713 Кбит/сек
Ширина                                   : 1920 пикселей
Высота                                   : 1080 пикселей
Соотношение сторон                       : 16:9
Режим частоты кадров                     : Переменный
Частота кадров                           : 23,976 кадра/сек
Минимальная частота кадров               : 23,974 кадра/сек
Максимальная частота кадров              : 23,981 кадра/сек
Цветовое пространство                    : YUV
Субдискретизация насыщенности            : 4:2:0
Битовая глубина                          : 8 бит
Тип развёртки                            : Прогрессивная
Бит/(Пиксели*Кадры)                      : 0.075
Размер потока                            : 78,7 Мбайт (93%)
Язык                                     : English
mdhd_Duration                            : 177844

Аудио
Идентификатор                            : 2
Формат                                   : AAC
Формат/Информация                        : Advanced Audio Codec
Профиль формата                          : LC
Идентификатор кодека                     : 40
Продолжительность                        : 2 м. 57 с.
Продолжительность оригинала              : 2 м. 57 с.
Вид битрейта                             : Переменный
Битрейт                                  : 254 Кбит/сек
Каналы                                   : 2 канала
Расположение каналов                     : Front: L R
Частота                                  : 44,1 КГц
Метод сжатия                             : С потерями
Размер потока                            : 5,38 Мбайт (6%)
Размер потока оригинала                  : 5,38 Мбайт (6%)
Язык                                     : English
mdhd_Duration                            : 177841

Общее
Полное имя                               : Blasterjaxx & DBSTF feat. Ryder - Beautiful World.mp4
Формат                                   : MPEG-4
Профиль формата                          : Base Media / Version 2
Идентификатор кодека                     : mp42
Размер файла                             : 75,1 Мбайт
Продолжительность                        : 3 м. 47 с.
Режим общего битрейта                    : Переменный
Общий поток                              : 2766 Кбит/сек

Видео
Идентификатор                            : 1
Формат                                   : AVC
Формат/Информация                        : Advanced Video Codec
Профиль формата                          :
Параметр CABAC формата                   : Да
Параметр ReFrames формата                : 3 кадра
Идентификатор кодека                     : avc1
Идентификатор кодека/Информация          : Advanced Video Coding
Продолжительность                        : 3 м. 47 с.
Битрейт                                  : 2507 Кбит/сек
Ширина                                   : 1920 пикселей
Высота                                   : 810 пикселей
Соотношение сторон                       : 2,40:1
Режим частоты кадров                     : Переменный
Частота кадров                           : 24,000 кадра/сек
Минимальная частота кадров               : 24,000 кадра/сек
Максимальная частота кадров              : 24,006 кадра/сек
Цветовое пространство                    : YUV
Субдискретизация насыщенности            : 4:2:0
Битовая глубина                          : 8 бит
Тип развёртки                            : Прогрессивная
Бит/(Пиксели*Кадры)                      : 0.067
Размер потока                            : 68,0 Мбайт (91%)
Язык                                     : English

Аудио
Идентификатор                            : 2
Формат                                   : AAC
Формат/Информация                        : Advanced Audio Codec
Профиль формата                          : LC
Идентификатор кодека                     : 40
Продолжительность                        : 3 м. 47 с.
Продолжительность оригинала              : 3 м. 47 с.
Вид битрейта                             : Переменный
Битрейт                                  : 254 Кбит/сек
Каналы                                   : 2 канала
Расположение каналов                     : Front: L R
Частота                                  : 44,1 КГц
Метод сжатия                             : С потерями
Размер потока                            : 6,88 Мбайт (9%)
Размер потока оригинала                  : 6,88 Мбайт (9%)
Язык                                     : English
mdhd_Duration                            : 227648

Общее
Полное имя                               : Bodybangers - Are You Ready.mp4
Формат                                   : MPEG-4
Профиль формата                          : Base Media / Version 2
Идентификатор кодека                     : mp42
Размер файла                             : 74,6 Мбайт
Продолжительность                        : 3 м. 4 с.
Режим общего битрейта                    : Переменный
Общий поток                              : 3397 Кбит/сек

Видео
Идентификатор                            : 1
Формат                                   : AVC
Формат/Информация                        : Advanced Video Codec
Профиль формата                          :
Параметр CABAC формата                   : Да
Параметр ReFrames формата                : 3 кадра
Идентификатор кодека                     : avc1
Идентификатор кодека/Информация          : Advanced Video Coding
Продолжительность                        : 3 м. 4 с.
Битрейт                                  : 3138 Кбит/сек
Ширина                                   : 1920 пикселей
Высота                                   : 1080 пикселей
Соотношение сторон                       : 16:9
Режим частоты кадров                     : Переменный
Частота кадров                           : 29,970 кадров/сек
Минимальная частота кадров               : 29,960 кадров/сек
Максимальная частота кадров              : 29,980 кадров/сек
Цветовое пространство                    : YUV
Субдискретизация насыщенности            : 4:2:0
Битовая глубина                          : 8 бит
Тип развёртки                            : Прогрессивная
Бит/(Пиксели*Кадры)                      : 0.050
Размер потока                            : 68,9 Мбайт (92%)
Язык                                     : English

Аудио
Идентификатор                            : 2
Формат                                   : AAC
Формат/Информация                        : Advanced Audio Codec
Профиль формата                          : LC
Идентификатор кодека                     : 40
Продолжительность                        : 3 м. 4 с.
Продолжительность оригинала              : 3 м. 4 с.
Вид битрейта                             : Переменный
Битрейт                                  : 254 Кбит/сек
Каналы                                   : 2 канала
Расположение каналов                     : Front: L R
Частота                                  : 44,1 КГц
Метод сжатия                             : С потерями
Размер потока                            : 5,57 Мбайт (7%)
Размер потока оригинала                  : 5,57 Мбайт (7%)
Язык                                     : English
mdhd_Duration                            : 184134

Общее
Полное имя                               : Borgeous - They Don't Know Us.mp4
Формат                                   : MPEG-4
Профиль формата                          : Base Media / Version 2
Идентификатор кодека                     : mp42
Размер файла                             : 74,6 Мбайт
Продолжительность                        : 3 м. 9 с.
Режим общего битрейта                    : Переменный
Общий поток                              : 3307 Кбит/сек

Видео
Идентификатор                            : 1
Формат                                   : AVC
Формат/Информация                        : Advanced Video Codec
Профиль формата                          :
Параметр CABAC формата                   : Да
Параметр ReFrames формата                : 2 кадра
Идентификатор кодека                     : avc1
Идентификатор кодека/Информация          : Advanced Video Coding
Продолжительность                        : 3 м. 9 с.
Битрейт                                  : 3047 Кбит/сек
Ширина                                   : 1920 пикселей
Высота                                   : 1080 пикселей
Соотношение сторон                       : 16:9
Режим частоты кадров                     : Переменный
Частота кадров                           : 23,976 кадра/сек
Минимальная частота кадров               : 23,974 кадра/сек
Максимальная частота кадров              : 23,981 кадра/сек
Цветовое пространство                    : YUV
Субдискретизация насыщенности            : 4:2:0
Битовая глубина                          : 8 бит
Тип развёртки                            : Прогрессивная
Бит/(Пиксели*Кадры)                      : 0.061
Размер потока                            : 68,7 Мбайт (92%)
Язык                                     : English

Аудио
Идентификатор                            : 2
Формат                                   : AAC
Формат/Информация                        : Advanced Audio Codec
Профиль формата                          : LC
Идентификатор кодека                     : 40
Продолжительность                        : 3 м. 9 с.
Продолжительность оригинала              : 3 м. 9 с.
Вид битрейта                             : Переменный
Битрейт                                  : 254 Кбит/сек
Каналы                                   : 2 канала
Расположение каналов                     : Front: L R
Частота                                  : 44,1 КГц
Метод сжатия                             : С потерями
Размер потока                            : 5,72 Мбайт (8%)
Размер потока оригинала                  : 5,72 Мбайт (8%)
Язык                                     : English
mdhd_Duration                            : 189126

Общее
Полное имя                               : Captain Jack - Say Captain Say Wot.mp4
Формат                                   : MPEG-4
Профиль формата                          : Base Media / Version 2
Идентификатор кодека                     : mp42
Размер файла                             : 98,0 Мбайт
Продолжительность                        : 3 м. 15 с.
Режим общего битрейта                    : Переменный
Общий поток                              : 4211 Кбит/сек

Видео
Идентификатор                            : 1
Формат                                   : AVC
Формат/Информация                        : Advanced Video Codec
Профиль формата                          :
Параметр CABAC формата                   : Да
Параметр ReFrames формата                : 2 кадра
Идентификатор кодека                     : avc1
Идентификатор кодека/Информация          : Advanced Video Coding
Продолжительность                        : 3 м. 15 с.
Битрейт                                  : 3953 Кбит/сек
Ширина                                   : 1920 пикселей
Высота                                   : 1080 пикселей
Соотношение сторон                       : 16:9
Режим частоты кадров                     : Постоянный
Частота кадров                           : 25,000 кадров/сек
Цветовое пространство                    : YUV
Субдискретизация насыщенности            : 4:2:0
Битовая глубина                          : 8 бит
Тип развёртки                            : Прогрессивная
Бит/(Пиксели*Кадры)                      : 0.076
Размер потока                            : 92,0 Мбайт (94%)
Язык                                     : English

Аудио
Идентификатор                            : 2
Формат                                   : AAC
Формат/Информация                        : Advanced Audio Codec
Профиль формата                          : LC
Идентификатор кодека                     : 40
Продолжительность                        : 3 м. 15 с.
Продолжительность оригинала              : 3 м. 15 с.
Вид битрейта                             : Переменный
Битрейт                                  : 254 Кбит/сек
Каналы                                   : 2 канала
Расположение каналов                     : Front: L R
Частота                                  : 44,1 КГц
Метод сжатия                             : С потерями
Размер потока                            : 5,90 Мбайт (6%)
Размер потока оригинала                  : 5,90 Мбайт (6%)
Язык                                     : English
mdhd_Duration                            : 195279

Общее
Полное имя                               : Cash Cash - Surrender.mp4
Формат                                   : MPEG-4
Профиль формата                          : Base Media / Version 2
Идентификатор кодека                     : mp42
Размер файла                             : 57,5 Мбайт
Продолжительность                        : 3 м. 30 с.
Режим общего битрейта                    : Переменный
Общий поток                              : 2292 Кбит/сек

Видео
Идентификатор                            : 1
Формат                                   : AVC
Формат/Информация                        : Advanced Video Codec
Профиль формата                          :
Параметр CABAC формата                   : Да
Параметр ReFrames формата                : 3 кадра
Идентификатор кодека                     : avc1
Идентификатор кодека/Информация          : Advanced Video Coding
Продолжительность                        : 3 м. 30 с.
Битрейт                                  : 2033 Кбит/сек
Ширина                                   : 1920 пикселей
Высота                                   : 1080 пикселей
Соотношение сторон                       : 16:9
Режим частоты кадров                     : Переменный
Частота кадров                           : 23,976 кадра/сек
Минимальная частота кадров               : 23,974 кадра/сек
Максимальная частота кадров              : 23,981 кадра/сек
Цветовое пространство                    : YUV
Субдискретизация насыщенности            : 4:2:0
Битовая глубина                          : 8 бит
Тип развёртки                            : Прогрессивная
Бит/(Пиксели*Кадры)                      : 0.041
Размер потока                            : 51,0 Мбайт (89%)
Язык                                     : English
mdhd_Duration                            : 210335

Аудио
Идентификатор                            : 2
Формат                                   : AAC
Формат/Информация                        : Advanced Audio Codec
Профиль формата                          : LC
Идентификатор кодека                     : 40
Продолжительность                        : 3 м. 30 с.
Продолжительность оригинала              : 3 м. 30 с.
Вид битрейта                             : Переменный
Битрейт                                  : 254 Кбит/сек
Каналы                                   : 2 канала
Расположение каналов                     : Front: L R
Частота                                  : 44,1 КГц
Метод сжатия                             : С потерями
Размер потока                            : 6,36 Мбайт (11%)
Размер потока оригинала                  : 6,36 Мбайт (11%)
Язык                                     : English
mdhd_Duration                            : 210326

Общее
Полное имя                               : Cecy B - All I Do Is Werk..mp4
Формат                                   : MPEG-4
Профиль формата                          : Base Media / Version 2
Идентификатор кодека                     : mp42
Размер файла                             : 47,6 Мбайт
Продолжительность                        : 2 м. 49 с.
Режим общего битрейта                    : Переменный
Общий поток                              : 2359 Кбит/сек

Видео
Идентификатор                            : 1
Формат                                   : AVC
Формат/Информация                        : Advanced Video Codec
Профиль формата                          :
Параметр CABAC формата                   : Да
Параметр ReFrames формата                : 3 кадра
Идентификатор кодека                     : avc1
Идентификатор кодека/Информация          : Advanced Video Coding
Продолжительность                        : 2 м. 49 с.
Битрейт                                  : 2099 Кбит/сек
Ширина                                   : 1920 пикселей
Высота                                   : 1080 пикселей
Соотношение сторон                       : 16:9
Режим частоты кадров                     : Переменный
Частота кадров                           : 23,976 кадра/сек
Минимальная частота кадров               : 23,968 кадра/сек
Максимальная частота кадров              : 23,981 кадра/сек
Цветовое пространство                    : YUV
Субдискретизация насыщенности            : 4:2:0
Битовая глубина                          : 8 бит
Тип развёртки                            : Прогрессивная
Бит/(Пиксели*Кадры)                      : 0.042
Размер потока                            : 42,4 Мбайт (89%)
Язык                                     : English
mdhd_Duration                            : 169336

Аудио
Идентификатор                            : 2
Формат                                   : AAC
Формат/Информация                        : Advanced Audio Codec
Профиль формата                          : LC
Идентификатор кодека                     : 40
Продолжительность                        : 2 м. 49 с.
Продолжительность оригинала              : 2 м. 49 с.
Вид битрейта                             : Переменный
Битрейт                                  : 254 Кбит/сек
Каналы                                   : 2 канала
Расположение каналов                     : Front: L R
Частота                                  : 44,1 КГц
Метод сжатия                             : С потерями
Размер потока                            : 5,12 Мбайт (11%)
Размер потока оригинала                  : 5,12 Мбайт (11%)
Язык                                     : English
mdhd_Duration                            : 169320

Общее
Полное имя                               : CLMD feat. Jared Lee - Keep Dreaming.mp4
Формат                                   : MPEG-4
Профиль формата                          : Base Media / Version 2
Идентификатор кодека                     : mp42
Размер файла                             : 89,6 Мбайт
Продолжительность                        : 3 м. 50 с.
Режим общего битрейта                    : Переменный
Общий поток                              : 3256 Кбит/сек

Видео
Идентификатор                            : 1
Формат                                   : AVC
Формат/Информация                        : Advanced Video Codec
Профиль формата                          :
Параметр CABAC формата                   : Да
Параметр ReFrames формата                : 2 кадра
Идентификатор кодека                     : avc1
Идентификатор кодека/Информация          : Advanced Video Coding
Продолжительность                        : 3 м. 50 с.
Продолжительность оригинала              : 3 м. 50 с.
Битрейт                                  : 2997 Кбит/сек
Ширина                                   : 1920 пикселей
Высота                                   : 1080 пикселей
Соотношение сторон                       : 16:9
Режим частоты кадров                     : Постоянный
Частота кадров                           : 25,000 кадров/сек
Цветовое пространство                    : YUV
Субдискретизация насыщенности            : 4:2:0
Битовая глубина                          : 8 бит
Тип развёртки                            : Прогрессивная
Бит/(Пиксели*Кадры)                      : 0.058
Размер потока                            : 82,4 Мбайт (92%)
Размер потока оригинала                  : 82,4 Мбайт (92%)
Язык                                     : English
mdhd_Duration                            : 230720

Аудио
Идентификатор                            : 2
Формат                                   : AAC
Формат/Информация                        : Advanced Audio Codec
Профиль формата                          : LC
Идентификатор кодека                     : 40
Продолжительность                        : 3 м. 50 с.
Продолжительность оригинала              : 3 м. 50 с.
Вид битрейта                             : Переменный
Битрейт                                  : 254 Кбит/сек
Каналы                                   : 2 канала
Расположение каналов                     : Front: L R
Частота                                  : 44,1 КГц
Метод сжатия                             : С потерями
Размер потока                            : 6,98 Мбайт (8%)
Размер потока оригинала                  : 6,98 Мбайт (8%)
Язык                                     : English
mdhd_Duration                            : 230759

Общее
Полное имя                               : Corina - Autobronzant.mp4
Формат                                   : MPEG-4
Профиль формата                          : Base Media / Version 2
Идентификатор кодека                     : mp42
Размер файла                             : 89,3 Мбайт
Продолжительность                        : 3 м. 11 с.
Режим общего битрейта                    : Переменный
Общий поток                              : 3903 Кбит/сек

Видео
Идентификатор                            : 1
Формат                                   : AVC
Формат/Информация                        : Advanced Video Codec
Профиль формата                          :
Параметр CABAC формата                   : Да
Параметр ReFrames формата                : 3 кадра
Идентификатор кодека                     : avc1
Идентификатор кодека/Информация          : Advanced Video Coding
Продолжительность                        : 3 м. 11 с.
Продолжительность оригинала              : 3 м. 11 с.
Битрейт                                  : 3646 Кбит/сек
Ширина                                   : 1920 пикселей
Высота                                   : 1080 пикселей
Соотношение сторон                       : 16:9
Режим частоты кадров                     : Постоянный
Частота кадров                           : 25,000 кадров/сек
Цветовое пространство                    : YUV
Субдискретизация насыщенности            : 4:2:0
Битовая глубина                          : 8 бит
Тип развёртки                            : Прогрессивная
Бит/(Пиксели*Кадры)                      : 0.070
Размер потока                            : 83,4 Мбайт (93%)
Размер потока оригинала                  : 83,4 Мбайт (93%)
Язык                                     : English
mdhd_Duration                            : 191920

Аудио
Идентификатор                            : 2
Формат                                   : AAC
Формат/Информация                        : Advanced Audio Codec
Профиль формата                          : LC
Идентификатор кодека                     : 40
Продолжительность                        : 3 м. 11 с.
Продолжительность оригинала              : 3 м. 11 с.
Вид битрейта                             : Переменный
Битрейт                                  : 254 Кбит/сек
Каналы                                   : 2 канала
Расположение каналов                     : Front: L R
Частота                                  : 44,1 КГц
Метод сжатия                             : С потерями
Размер потока                            : 5,80 Мбайт (6%)
Размер потока оригинала                  : 5,80 Мбайт (6%)
Язык                                     : English
mdhd_Duration                            : 191959

Общее
Полное имя                               : Demid Rezin - Summertime - Record Dance Label..mp4
Формат                                   : MPEG-4
Профиль формата                          : Base Media / Version 2
Идентификатор кодека                     : mp42
Размер файла                             : 98,4 Мбайт
Продолжительность                        : 3 м. 10 с.
Режим общего битрейта                    : Переменный
Общий поток                              : 4334 Кбит/сек

Видео
Идентификатор                            : 1
Формат                                   : AVC
Формат/Информация                        : Advanced Video Codec
Профиль формата                          :
Параметр CABAC формата                   : Да
Параметр ReFrames формата                : 2 кадра
Идентификатор кодека                     : avc1
Идентификатор кодека/Информация          : Advanced Video Coding
Продолжительность                        : 3 м. 10 с.
Продолжительность оригинала              : 3 м. 10 с.
Битрейт                                  : 4076 Кбит/сек
Ширина                                   : 1920 пикселей
Высота                                   : 1080 пикселей
Соотношение сторон                       : 16:9
Режим частоты кадров                     : Постоянный
Частота кадров                           : 25,000 кадров/сек
Цветовое пространство                    : YUV
Субдискретизация насыщенности            : 4:2:0
Битовая глубина                          : 8 бит
Тип развёртки                            : Прогрессивная
Бит/(Пиксели*Кадры)                      : 0.079
Размер потока                            : 92,5 Мбайт (94%)
Размер потока оригинала                  : 92,5 Мбайт (94%)
Язык                                     : English
mdhd_Duration                            : 190400

Аудио
Идентификатор                            : 2
Формат                                   : AAC
Формат/Информация                        : Advanced Audio Codec
Профиль формата                          : LC
Идентификатор кодека                     : 40
Продолжительность                        : 3 м. 10 с.
Продолжительность оригинала              : 3 м. 10 с.
Вид битрейта                             : Переменный
Битрейт                                  : 254 Кбит/сек
Каналы                                   : 2 канала
Расположение каналов                     : Front: L R
Частота                                  : 44,1 КГц
Метод сжатия                             : С потерями
Размер потока                            : 5,76 Мбайт (6%)
Размер потока оригинала                  : 5,76 Мбайт (6%)
Язык                                     : English
mdhd_Duration                            : 190426

Общее
Полное имя                               : Eric Bellinger - Focused On You Feat. 2 Chainz.mp4
Формат                                   : MPEG-4
Профиль формата                          : Base Media / Version 2
Идентификатор кодека                     : mp42
Размер файла                             : 89,5 Мбайт
Продолжительность                        : 3 м. 30 с.
Режим общего битрейта                    : Переменный
Общий поток                              : 3575 Кбит/сек

Видео
Идентификатор                            : 1
Формат                                   : AVC
Формат/Информация                        : Advanced Video Codec
Профиль формата                          :
Параметр CABAC формата                   : Да
Параметр ReFrames формата                : 3 кадра
Идентификатор кодека                     : avc1
Идентификатор кодека/Информация          : Advanced Video Coding
Продолжительность                        : 3 м. 30 с.
Битрейт                                  : 3315 Кбит/сек
Ширина                                   : 1920 пикселей
Высота                                   : 1080 пикселей
Соотношение сторон                       : 16:9
Режим частоты кадров                     : Переменный
Частота кадров                           : 23,976 кадра/сек
Минимальная частота кадров               : 23,974 кадра/сек
Максимальная частота кадров              : 23,981 кадра/сек
Цветовое пространство                    : YUV
Субдискретизация насыщенности            : 4:2:0
Битовая глубина                          : 8 бит
Тип развёртки                            : Прогрессивная
Бит/(Пиксели*Кадры)                      : 0.067
Размер потока                            : 83,0 Мбайт (93%)
Язык                                     : English

Аудио
Идентификатор                            : 2
Формат                                   : AAC
Формат/Информация                        : Advanced Audio Codec
Профиль формата                          : LC
Идентификатор кодека                     : 40
Продолжительность                        : 3 м. 30 с.
Продолжительность оригинала              : 3 м. 30 с.
Вид битрейта                             : Переменный
Битрейт                                  : 254 Кбит/сек
Каналы                                   : 2 канала
Расположение каналов                     : Front: L R
Частота                                  : 44,1 КГц
Метод сжатия                             : С потерями
Размер потока                            : 6,35 Мбайт (7%)
Размер потока оригинала                  : 6,35 Мбайт (7%)
Язык                                     : English
mdhd_Duration                            : 210070

Общее
Полное имя                               : Flo Rida - Once In A Lifetime.mp4
Формат                                   : MPEG-4
Профиль формата                          : Base Media / Version 2
Идентификатор кодека                     : mp42
Размер файла                             : 107 Мбайт
Продолжительность                        : 3 м. 30 с.
Режим общего битрейта                    : Переменный
Общий поток                              : 4257 Кбит/сек

Видео
Идентификатор                            : 1
Формат                                   : AVC
Формат/Информация                        : Advanced Video Codec
Профиль формата                          :
Параметр CABAC формата                   : Да
Параметр ReFrames формата                : 2 кадра
Идентификатор кодека                     : avc1
Идентификатор кодека/Информация          : Advanced Video Coding
Продолжительность                        : 3 м. 30 с.
Продолжительность оригинала              : 3 м. 30 с.
Битрейт                                  : 3998 Кбит/сек
Ширина                                   : 1920 пикселей
Высота                                   : 1080 пикселей
Соотношение сторон                       : 16:9
Режим частоты кадров                     : Переменный
Частота кадров                           : 23,976 кадра/сек
Минимальная частота кадров               : 23,974 кадра/сек
Максимальная частота кадров              : 23,981 кадра/сек
Цветовое пространство                    : YUV
Субдискретизация насыщенности            : 4:2:0
Битовая глубина                          : 8 бит
Тип развёртки                            : Прогрессивная
Бит/(Пиксели*Кадры)                      : 0.080
Размер потока                            : 100 Мбайт (94%)
Размер потока оригинала                  : 100 Мбайт (94%)
Язык                                     : English
mdhd_Duration                            : 210168

Аудио
Идентификатор                            : 2
Формат                                   : AAC
Формат/Информация                        : Advanced Audio Codec
Профиль формата                          : LC
Идентификатор кодека                     : 40
Продолжительность                        : 3 м. 30 с.
Продолжительность оригинала              : 3 м. 30 с.
Вид битрейта                             : Переменный
Битрейт                                  : 254 Кбит/сек
Каналы                                   : 2 канала
Расположение каналов                     : Front: L R
Частота                                  : 44,1 КГц
Метод сжатия                             : С потерями
Размер потока                            : 6,35 Мбайт (6%)
Размер потока оригинала                  : 6,35 Мбайт (6%)
Язык                                     : English
mdhd_Duration                            : 210210

Общее
Полное имя                               : Geo Da Silva & Jack Mazzoni - Awela Hey.mp4
Формат                                   : MPEG-4
Профиль формата                          : Base Media / Version 2
Идентификатор кодека                     : mp42
Размер файла                             : 81,6 Мбайт
Продолжительность                        : 3 м. 33 с.
Режим общего битрейта                    : Переменный
Общий поток                              : 3209 Кбит/сек

Видео
Идентификатор                            : 1
Формат                                   : AVC
Формат/Информация                        : Advanced Video Codec
Профиль формата                          :
Параметр CABAC формата                   : Да
Параметр ReFrames формата                : 3 кадра
Идентификатор кодека                     : avc1
Идентификатор кодека/Информация          : Advanced Video Coding
Продолжительность                        : 3 м. 33 с.
Битрейт                                  : 2951 Кбит/сек
Ширина                                   : 1920 пикселей
Высота                                   : 1080 пикселей
Соотношение сторон                       : 16:9
Режим частоты кадров                     : Постоянный
Частота кадров                           : 25,000 кадров/сек
Цветовое пространство                    : YUV
Субдискретизация насыщенности            : 4:2:0
Битовая глубина                          : 8 бит
Тип развёртки                            : Прогрессивная
Бит/(Пиксели*Кадры)                      : 0.057
Размер потока                            : 75,1 Мбайт (92%)
Язык                                     : English

Аудио
Идентификатор                            : 2
Формат                                   : AAC
Формат/Информация                        : Advanced Audio Codec
Профиль формата                          : LC
Идентификатор кодека                     : 40
Продолжительность                        : 3 м. 33 с.
Продолжительность оригинала              : 3 м. 33 с.
Вид битрейта                             : Переменный
Битрейт                                  : 254 Кбит/сек
Каналы                                   : 2 канала
Расположение каналов                     : Front: L R
Частота                                  : 44,1 КГц
Метод сжатия                             : С потерями
Размер потока                            : 6,45 Мбайт (8%)
Размер потока оригинала                  : 6,45 Мбайт (8%)
Язык                                     : English
mdhd_Duration                            : 213391

Общее
Полное имя                               : Gisele & Bob Sinclar - Heart of Glass.mp4
Формат                                   : MPEG-4
Профиль формата                          : Base Media / Version 2
Идентификатор кодека                     : mp42
Размер файла                             : 39,6 Мбайт
Продолжительность                        : 1 м. 48 с.
Режим общего битрейта                    : Переменный
Общий поток                              : 3063 Кбит/сек

Видео
Идентификатор                            : 1
Формат                                   : AVC
Формат/Информация                        : Advanced Video Codec
Профиль формата                          :
Параметр CABAC формата                   : Да
Параметр ReFrames формата                : 3 кадра
Идентификатор кодека                     : avc1
Идентификатор кодека/Информация          : Advanced Video Coding
Продолжительность                        : 1 м. 48 с.
Битрейт                                  : 2804 Кбит/сек
Ширина                                   : 1920 пикселей
Высота                                   : 1080 пикселей
Соотношение сторон                       : 16:9
Режим частоты кадров                     : Постоянный
Частота кадров                           : 25,000 кадров/сек
Цветовое пространство                    : YUV
Субдискретизация насыщенности            : 4:2:0
Битовая глубина                          : 8 бит
Тип развёртки                            : Прогрессивная
Бит/(Пиксели*Кадры)                      : 0.054
Размер потока                            : 36,3 Мбайт (92%)
Язык                                     : English

Аудио
Идентификатор                            : 2
Формат                                   : AAC
Формат/Информация                        : Advanced Audio Codec
Профиль формата                          : LC
Идентификатор кодека                     : 40
Продолжительность                        : 1 м. 48 с.
Продолжительность оригинала              : 1 м. 48 с.
Вид битрейта                             : Переменный
Битрейт                                  : 254 Кбит/сек
Каналы                                   : 2 канала
Расположение каналов                     : Front: L R
Частота                                  : 44,1 КГц
Метод сжатия                             : С потерями
Размер потока                            : 3,28 Мбайт (8%)
Размер потока оригинала                  : 3,28 Мбайт (8%)
Язык                                     : English
mdhd_Duration                            : 108460

Общее
Полное имя                               : G-Unit - I'm Grown.mp4
Формат                                   : MPEG-4
Профиль формата                          : Base Media / Version 2
Идентификатор кодека                     : mp42
Размер файла                             : 110 Мбайт
Продолжительность                        : 4 м. 9 с.
Режим общего битрейта                    : Переменный
Общий поток                              : 3679 Кбит/сек

Видео
Идентификатор                            : 1
Формат                                   : AVC
Формат/Информация                        : Advanced Video Codec
Профиль формата                          :
Параметр CABAC формата                   : Да
Параметр ReFrames формата                : 2 кадра
Идентификатор кодека                     : avc1
Идентификатор кодека/Информация          : Advanced Video Coding
Продолжительность                        : 4 м. 9 с.
Продолжительность оригинала              : 4 м. 9 с.
Битрейт                                  : 3421 Кбит/сек
Ширина                                   : 1920 пикселей
Высота                                   : 1080 пикселей
Соотношение сторон                       : 16:9
Режим частоты кадров                     : Переменный
Частота кадров                           : 23,976 кадра/сек
Минимальная частота кадров               : 23,974 кадра/сек
Максимальная частота кадров              : 23,981 кадра/сек
Цветовое пространство                    : YUV
Субдискретизация насыщенности            : 4:2:0
Битовая глубина                          : 8 бит
Тип развёртки                            : Прогрессивная
Бит/(Пиксели*Кадры)                      : 0.069
Размер потока                            : 102 Мбайт (93%)
Размер потока оригинала                  : 102 Мбайт (93%)
Язык                                     : English
mdhd_Duration                            : 249875

Аудио
Идентификатор                            : 2
Формат                                   : AAC
Формат/Информация                        : Advanced Audio Codec
Профиль формата                          : LC
Идентификатор кодека                     : 40
Продолжительность                        : 4 м. 9 с.
Продолжительность оригинала              : 4 м. 9 с.
Вид битрейта                             : Переменный
Битрейт                                  : 254 Кбит/сек
Каналы                                   : 2 канала
Расположение каналов                     : Front: L R
Частота                                  : 44,1 КГц
Метод сжатия                             : С потерями
Размер потока                            : 7,55 Мбайт (7%)
Размер потока оригинала                  : 7,55 Мбайт (7%)
Язык                                     : English
mdhd_Duration                            : 249916

Общее
Полное имя                               : Katie Bell feat. Claydee - Because Of You.mp4
Формат                                   : MPEG-4
Профиль формата                          : Base Media / Version 2
Идентификатор кодека                     : mp42
Размер файла                             : 96,1 Мбайт
Продолжительность                        : 3 м. 16 с.
Режим общего битрейта                    : Переменный
Общий поток                              : 4101 Кбит/сек

Видео
Идентификатор                            : 1
Формат                                   : AVC
Формат/Информация                        : Advanced Video Codec
Профиль формата                          :
Параметр CABAC формата                   : Да
Параметр ReFrames формата                : 3 кадра
Идентификатор кодека                     : avc1
Идентификатор кодека/Информация          : Advanced Video Coding
Продолжительность                        : 3 м. 16 с.
Продолжительность оригинала              : 3 м. 16 с.
Битрейт                                  : 3843 Кбит/сек
Ширина                                   : 1920 пикселей
Высота                                   : 1080 пикселей
Соотношение сторон                       : 16:9
Режим частоты кадров                     : Постоянный
Частота кадров                           : 25,000 кадров/сек
Цветовое пространство                    : YUV
Субдискретизация насыщенности            : 4:2:0
Битовая глубина                          : 8 бит
Тип развёртки                            : Прогрессивная
Бит/(Пиксели*Кадры)                      : 0.074
Размер потока                            : 90,1 Мбайт (94%)
Размер потока оригинала                  : 90,1 Мбайт (94%)
Язык                                     : English
mdhd_Duration                            : 196560

Аудио
Идентификатор                            : 2
Формат                                   : AAC
Формат/Информация                        : Advanced Audio Codec
Профиль формата                          : LC
Идентификатор кодека                     : 40
Продолжительность                        : 3 м. 16 с.
Продолжительность оригинала              : 3 м. 16 с.
Вид битрейта                             : Переменный
Битрейт                                  : 254 Кбит/сек
Каналы                                   : 2 канала
Расположение каналов                     : Front: L R
Частота                                  : 44,1 КГц
Метод сжатия                             : С потерями
Размер потока                            : 5,94 Мбайт (6%)
Размер потока оригинала                  : 5,94 Мбайт (6%)
Язык                                     : English
mdhd_Duration                            : 196580

Общее
Полное имя                               : Komodo pres. House Of Pain, DJ Wady, Carlos Jimenez - Jump Around The Box.mp4
Формат                                   : MPEG-4
Профиль формата                          : Base Media / Version 2
Идентификатор кодека                     : mp42
Размер файла                             : 147 Мбайт
Продолжительность                        : 6 м. 4 с.
Режим общего битрейта                    : Переменный
Общий поток                              : 3395 Кбит/сек

Видео
Идентификатор                            : 1
Формат                                   : AVC
Формат/Информация                        : Advanced Video Codec
Профиль формата                          :
Параметр CABAC формата                   : Да
Параметр ReFrames формата                : 3 кадра
Идентификатор кодека                     : avc1
Идентификатор кодека/Информация          : Advanced Video Coding
Продолжительность                        : 6 м. 4 с.
Битрейт                                  : 3137 Кбит/сек
Ширина                                   : 1920 пикселей
Высота                                   : 1080 пикселей
Соотношение сторон                       : 16:9
Режим частоты кадров                     : Постоянный
Частота кадров                           : 25,000 кадров/сек
Цветовое пространство                    : YUV
Субдискретизация насыщенности            : 4:2:0
Битовая глубина                          : 8 бит
Тип развёртки                            : Прогрессивная
Бит/(Пиксели*Кадры)                      : 0.061
Размер потока                            : 136 Мбайт (92%)
Язык                                     : English

Аудио
Идентификатор                            : 2
Формат                                   : AAC
Формат/Информация                        : Advanced Audio Codec
Профиль формата                          : LC
Идентификатор кодека                     : 40
Продолжительность                        : 6 м. 4 с.
Продолжительность оригинала              : 6 м. 4 с.
Вид битрейта                             : Переменный
Битрейт                                  : 254 Кбит/сек
Каналы                                   : 2 канала
Расположение каналов                     : Front: L R
Частота                                  : 44,1 КГц
Метод сжатия                             : С потерями
Размер потока                            : 11,0 Мбайт (7%)
Размер потока оригинала                  : 11,0 Мбайт (7%)
Язык                                     : English
mdhd_Duration                            : 364436

Общее
Полное имя                               : Lifelike - Overdrive..mp4
Формат                                   : MPEG-4
Профиль формата                          : Base Media / Version 2
Идентификатор кодека                     : mp42
Размер файла                             : 70,5 Мбайт
Продолжительность                        : 3 м. 31 с.
Режим общего битрейта                    : Переменный
Общий поток                              : 2802 Кбит/сек

Видео
Идентификатор                            : 1
Формат                                   : AVC
Формат/Информация                        : Advanced Video Codec
Профиль формата                          :
Параметр CABAC формата                   : Да
Параметр ReFrames формата                : 3 кадра
Идентификатор кодека                     : avc1
Идентификатор кодека/Информация          : Advanced Video Coding
Продолжительность                        : 3 м. 31 с.
Битрейт                                  : 2544 Кбит/сек
Ширина                                   : 1920 пикселей
Высота                                   : 1080 пикселей
Соотношение сторон                       : 16:9
Режим частоты кадров                     : Постоянный
Частота кадров                           : 25,000 кадров/сек
Цветовое пространство                    : YUV
Субдискретизация насыщенности            : 4:2:0
Битовая глубина                          : 8 бит
Тип развёртки                            : Прогрессивная
Бит/(Пиксели*Кадры)                      : 0.049
Размер потока                            : 64,0 Мбайт (91%)
Язык                                     : English

Аудио
Идентификатор                            : 2
Формат                                   : AAC
Формат/Информация                        : Advanced Audio Codec
Профиль формата                          : LC
Идентификатор кодека                     : 40
Продолжительность                        : 3 м. 31 с.
Продолжительность оригинала              : 3 м. 31 с.
Вид битрейта                             : Переменный
Битрейт                                  : 254 Кбит/сек
Каналы                                   : 2 канала
Расположение каналов                     : Front: L R
Частота                                  : 44,1 КГц
Метод сжатия                             : С потерями
Размер потока                            : 6,38 Мбайт (9%)
Размер потока оригинала                  : 6,38 Мбайт (9%)
Язык                                     : English
mdhd_Duration                            : 211115

Общее
Полное имя                               : Marc Korn & Klubbingman Feat. Craig Smart - Lift Me Up.mp4
Формат                                   : MPEG-4
Профиль формата                          : Base Media / Version 2
Идентификатор кодека                     : mp42
Размер файла                             : 78,2 Мбайт
Продолжительность                        : 3 м. 43 с.
Режим общего битрейта                    : Переменный
Общий поток                              : 2943 Кбит/сек

Видео
Идентификатор                            : 1
Формат                                   : AVC
Формат/Информация                        : Advanced Video Codec
Профиль формата                          :
Параметр CABAC формата                   : Да
Параметр ReFrames формата                : 3 кадра
Идентификатор кодека                     : avc1
Идентификатор кодека/Информация          : Advanced Video Coding
Продолжительность                        : 3 м. 43 с.
Битрейт                                  : 2685 Кбит/сек
Ширина                                   : 1920 пикселей
Высота                                   : 1080 пикселей
Соотношение сторон                       : 16:9
Режим частоты кадров                     : Постоянный
Частота кадров                           : 25,000 кадров/сек
Цветовое пространство                    : YUV
Субдискретизация насыщенности            : 4:2:0
Битовая глубина                          : 8 бит
Тип развёртки                            : Прогрессивная
Бит/(Пиксели*Кадры)                      : 0.052
Размер потока                            : 71,4 Мбайт (91%)
Язык                                     : English

Аудио
Идентификатор                            : 2
Формат                                   : AAC
Формат/Информация                        : Advanced Audio Codec
Профиль формата                          : LC
Идентификатор кодека                     : 40
Продолжительность                        : 3 м. 43 с.
Продолжительность оригинала              : 3 м. 43 с.
Вид битрейта                             : Переменный
Битрейт                                  : 254 Кбит/сек
Каналы                                   : 2 канала
Расположение каналов                     : Front: L R
Частота                                  : 44,1 КГц
Метод сжатия                             : С потерями
Размер потока                            : 6,74 Мбайт (9%)
Размер потока оригинала                  : 6,74 Мбайт (9%)
Язык                                     : English
mdhd_Duration                            : 223027

Общее
Полное имя                               : Mocki - 'Weekend'.mp4
Формат                                   : MPEG-4
Профиль формата                          : Base Media / Version 2
Идентификатор кодека                     : mp42
Размер файла                             : 104 Мбайт
Продолжительность                        : 3 м. 52 с.
Режим общего битрейта                    : Переменный
Общий поток                              : 3741 Кбит/сек

Видео
Идентификатор                            : 1
Формат                                   : AVC
Формат/Информация                        : Advanced Video Codec
Профиль формата                          :
Параметр CABAC формата                   : Да
Параметр ReFrames формата                : 2 кадра
Идентификатор кодека                     : avc1
Идентификатор кодека/Информация          : Advanced Video Coding
Продолжительность                        : 3 м. 52 с.
Продолжительность оригинала              : 3 м. 52 с.
Битрейт                                  : 3483 Кбит/сек
Ширина                                   : 1920 пикселей
Высота                                   : 1080 пикселей
Соотношение сторон                       : 16:9
Режим частоты кадров                     : Переменный
Частота кадров                           : 24,000 кадра/сек
Минимальная частота кадров               : 24,000 кадра/сек
Максимальная частота кадров              : 24,006 кадра/сек
Цветовое пространство                    : YUV
Субдискретизация насыщенности            : 4:2:0
Битовая глубина                          : 8 бит
Тип развёртки                            : Прогрессивная
Бит/(Пиксели*Кадры)                      : 0.070
Размер потока                            : 96,4 Мбайт (93%)
Размер потока оригинала                  : 96,4 Мбайт (93%)
Язык                                     : English
mdhd_Duration                            : 232208

Аудио
Идентификатор                            : 2
Формат                                   : AAC
Формат/Информация                        : Advanced Audio Codec
Профиль формата                          : LC
Идентификатор кодека                     : 40
Продолжительность                        : 3 м. 52 с.
Продолжительность оригинала              : 3 м. 52 с.
Вид битрейта                             : Переменный
Битрейт                                  : 254 Кбит/сек
Каналы                                   : 2 канала
Расположение каналов                     : Front: L R
Частота                                  : 44,1 КГц
Метод сжатия                             : С потерями
Размер потока                            : 7,02 Мбайт (7%)
Размер потока оригинала                  : 7,02 Мбайт (7%)
Язык                                     : English
mdhd_Duration                            : 232245

Общее
Полное имя                               : NIELS VAN GOGH ft Nitro - Basskiller.mp4
Формат                                   : MPEG-4
Профиль формата                          : Base Media / Version 2
Идентификатор кодека                     : mp42
Размер файла                             : 97,5 Мбайт
Продолжительность                        : 3 м. 23 с.
Режим общего битрейта                    : Переменный
Общий поток                              : 4026 Кбит/сек

Видео
Идентификатор                            : 1
Формат                                   : AVC
Формат/Информация                        : Advanced Video Codec
Профиль формата                          :
Параметр CABAC формата                   : Да
Параметр ReFrames формата                : 3 кадра
Идентификатор кодека                     : avc1
Идентификатор кодека/Информация          : Advanced Video Coding
Продолжительность                        : 3 м. 23 с.
Битрейт                                  : 3768 Кбит/сек
Ширина                                   : 1920 пикселей
Высота                                   : 1080 пикселей
Соотношение сторон                       : 16:9
Режим частоты кадров                     : Постоянный
Частота кадров                           : 25,000 кадров/сек
Цветовое пространство                    : YUV
Субдискретизация насыщенности            : 4:2:0
Битовая глубина                          : 8 бит
Тип развёртки                            : Прогрессивная
Бит/(Пиксели*Кадры)                      : 0.073
Размер потока                            : 91,2 Мбайт (94%)
Язык                                     : English

Аудио
Идентификатор                            : 2
Формат                                   : AAC
Формат/Информация                        : Advanced Audio Codec
Профиль формата                          : LC
Идентификатор кодека                     : 40
Продолжительность                        : 3 м. 23 с.
Продолжительность оригинала              : 3 м. 23 с.
Вид битрейта                             : Переменный
Битрейт                                  : 254 Кбит/сек
Каналы                                   : 2 канала
Расположение каналов                     : Front: L R
Частота                                  : 44,1 КГц
Метод сжатия                             : С потерями
Размер потока                            : 6,14 Мбайт (6%)
Размер потока оригинала                  : 6,14 Мбайт (6%)
Язык                                     : English
mdhd_Duration                            : 203058

Общее
Полное имя                               : P Reign feat. Drake & Future - DnF (Explicit)..mp4
Формат                                   : MPEG-4
Профиль формата                          : Base Media / Version 2
Идентификатор кодека                     : mp42
Размер файла                             : 94,1 Мбайт
Продолжительность                        : 4 м. 36 с.
Режим общего битрейта                    : Переменный
Общий поток                              : 2849 Кбит/сек

Видео
Идентификатор                            : 1
Формат                                   : AVC
Формат/Информация                        : Advanced Video Codec
Профиль формата                          :
Параметр CABAC формата                   : Да
Параметр ReFrames формата                : 3 кадра
Идентификатор кодека                     : avc1
Идентификатор кодека/Информация          : Advanced Video Coding
Продолжительность                        : 4 м. 36 с.
Битрейт                                  : 2590 Кбит/сек
Ширина                                   : 1920 пикселей
Высота                                   : 1080 пикселей
Соотношение сторон                       : 16:9
Режим частоты кадров                     : Переменный
Частота кадров                           : 23,976 кадра/сек
Минимальная частота кадров               : 23,968 кадра/сек
Максимальная частота кадров              : 23,981 кадра/сек
Цветовое пространство                    : YUV
Субдискретизация насыщенности            : 4:2:0
Битовая глубина                          : 8 бит
Тип развёртки                            : Прогрессивная
Бит/(Пиксели*Кадры)                      : 0.052
Размер потока                            : 85,5 Мбайт (91%)
Язык                                     : English
mdhd_Duration                            : 276943

Аудио
Идентификатор                            : 2
Формат                                   : AAC
Формат/Информация                        : Advanced Audio Codec
Профиль формата                          : LC
Идентификатор кодека                     : 40
Продолжительность                        : 4 м. 36 с.
Продолжительность оригинала              : 4 м. 36 с.
Вид битрейта                             : Переменный
Битрейт                                  : 254 Кбит/сек
Каналы                                   : 2 канала
Расположение каналов                     : Front: L R
Частота                                  : 44,1 КГц
Метод сжатия                             : С потерями
Размер потока                            : 8,37 Мбайт (9%)
Размер потока оригинала                  : 8,37 Мбайт (9%)
Язык                                     : English
mdhd_Duration                            : 276921

Общее
Полное имя                               : Prince Royce - My Angel   - Furious 7 Soundtrack..mp4
Формат                                   : MPEG-4
Профиль формата                          : Base Media / Version 2
Идентификатор кодека                     : mp42
Размер файла                             : 108 Мбайт
Продолжительность                        : 3 м. 43 с.
Режим общего битрейта                    : Переменный
Общий поток                              : 4037 Кбит/сек

Видео
Идентификатор                            : 1
Формат                                   : AVC
Формат/Информация                        : Advanced Video Codec
Профиль формата                          :
Параметр CABAC формата                   : Да
Параметр ReFrames формата                : 2 кадра
Идентификатор кодека                     : avc1
Идентификатор кодека/Информация          : Advanced Video Coding
Продолжительность                        : 3 м. 43 с.
Продолжительность оригинала              : 3 м. 43 с.
Битрейт                                  : 3778 Кбит/сек
Ширина                                   : 1920 пикселей
Высота                                   : 1080 пикселей
Соотношение сторон                       : 16:9
Режим частоты кадров                     : Переменный
Частота кадров                           : 23,976 кадра/сек
Минимальная частота кадров               : 11,987 кадров/сек
Максимальная частота кадров              : 90000,000 кадров/сек
Цветовое пространство                    : YUV
Субдискретизация насыщенности            : 4:2:0
Битовая глубина                          : 8 бит
Тип развёртки                            : Прогрессивная
Бит/(Пиксели*Кадры)                      : 0.076
Размер потока                            : 101 Мбайт (94%)
Размер потока оригинала                  : 101 Мбайт (94%)
Язык                                     : English
mdhd_Duration                            : 223557

Аудио
Идентификатор                            : 2
Формат                                   : AAC
Формат/Информация                        : Advanced Audio Codec
Профиль формата                          : LC
Идентификатор кодека                     : 40
Продолжительность                        : 3 м. 43 с.
Продолжительность оригинала              : 3 м. 43 с.
Вид битрейта                             : Переменный
Битрейт                                  : 254 Кбит/сек
Каналы                                   : 2 канала
Расположение каналов                     : Front: L R
Частота                                  : 44,1 КГц
Метод сжатия                             : С потерями
Размер потока                            : 6,76 Мбайт (6%)
Размер потока оригинала                  : 6,76 Мбайт (6%)
Язык                                     : English
mdhd_Duration                            : 223584

Общее
Полное имя                               : Rene Rodrigezz & Mc Yankoo - Around The World.mp4
Формат                                   : MPEG-4
Профиль формата                          : Base Media / Version 2
Идентификатор кодека                     : mp42
Размер файла                             : 71,2 Мбайт
Продолжительность                        : 2 м. 49 с.
Режим общего битрейта                    : Переменный
Общий поток                              : 3530 Кбит/сек

Видео
Идентификатор                            : 1
Формат                                   : AVC
Формат/Информация                        : Advanced Video Codec
Профиль формата                          :
Параметр CABAC формата                   : Да
Параметр ReFrames формата                : 3 кадра
Идентификатор кодека                     : avc1
Идентификатор кодека/Информация          : Advanced Video Coding
Продолжительность                        : 2 м. 49 с.
Битрейт                                  : 3271 Кбит/сек
Ширина                                   : 1920 пикселей
Высота                                   : 1080 пикселей
Соотношение сторон                       : 16:9
Режим частоты кадров                     : Постоянный
Частота кадров                           : 25,000 кадров/сек
Цветовое пространство                    : YUV
Субдискретизация насыщенности            : 4:2:0
Битовая глубина                          : 8 бит
Тип развёртки                            : Прогрессивная
Бит/(Пиксели*Кадры)                      : 0.063
Размер потока                            : 66,0 Мбайт (93%)
Язык                                     : English

Аудио
Идентификатор                            : 2
Формат                                   : AAC
Формат/Информация                        : Advanced Audio Codec
Профиль формата                          : LC
Идентификатор кодека                     : 40
Продолжительность                        : 2 м. 49 с.
Продолжительность оригинала              : 2 м. 49 с.
Вид битрейта                             : Переменный
Битрейт                                  : 254 Кбит/сек
Каналы                                   : 2 канала
Расположение каналов                     : Front: L R
Частота                                  : 44,1 КГц
Метод сжатия                             : С потерями
Размер потока                            : 5,11 Мбайт (7%)
Размер потока оригинала                  : 5,11 Мбайт (7%)
Язык                                     : English
mdhd_Duration                            : 169111

Общее
Полное имя                               : Rockefeller - Do It 2 Nite (Lucas & Steve Remix).mp4
Формат                                   : MPEG-4
Профиль формата                          : Base Media / Version 2
Идентификатор кодека                     : mp42
Размер файла                             : 95,4 Мбайт
Продолжительность                        : 3 м. 27 с.
Режим общего битрейта                    : Переменный
Общий поток                              : 3864 Кбит/сек

Видео
Идентификатор                            : 1
Формат                                   : AVC
Формат/Информация                        : Advanced Video Codec
Профиль формата                          :
Параметр CABAC формата                   : Да
Параметр ReFrames формата                : 2 кадра
Идентификатор кодека                     : avc1
Идентификатор кодека/Информация          : Advanced Video Coding
Продолжительность                        : 3 м. 27 с.
Продолжительность оригинала              : 3 м. 27 с.
Битрейт                                  : 3606 Кбит/сек
Ширина                                   : 1920 пикселей
Высота                                   : 1080 пикселей
Соотношение сторон                       : 16:9
Режим частоты кадров                     : Постоянный
Частота кадров                           : 25,000 кадров/сек
Цветовое пространство                    : YUV
Субдискретизация насыщенности            : 4:2:0
Битовая глубина                          : 8 бит
Тип развёртки                            : Прогрессивная
Бит/(Пиксели*Кадры)                      : 0.070
Размер потока                            : 89,1 Мбайт (93%)
Размер потока оригинала                  : 89,1 Мбайт (93%)
Язык                                     : English
mdhd_Duration                            : 207200

Аудио
Идентификатор                            : 2
Формат                                   : AAC
Формат/Информация                        : Advanced Audio Codec
Профиль формата                          : LC
Идентификатор кодека                     : 40
Продолжительность                        : 3 м. 27 с.
Продолжительность оригинала              : 3 м. 27 с.
Вид битрейта                             : Переменный
Битрейт                                  : 254 Кбит/сек
Каналы                                   : 2 канала
Расположение каналов                     : Front: L R
Частота                                  : 44,1 КГц
Метод сжатия                             : С потерями
Размер потока                            : 6,26 Мбайт (7%)
Размер потока оригинала                  : 6,26 Мбайт (7%)
Язык                                     : English
mdhd_Duration                            : 207238

Общее
Полное имя                               : Sunnery James & Ryan Marciano feat. KiFi - Come Follow.mp4
Формат                                   : MPEG-4
Профиль формата                          : Base Media / Version 2
Идентификатор кодека                     : mp42
Размер файла                             : 114 Мбайт
Продолжительность                        : 3 м. 50 с.
Режим общего битрейта                    : Переменный
Общий поток                              : 4152 Кбит/сек

Видео
Идентификатор                            : 1
Формат                                   : AVC
Формат/Информация                        : Advanced Video Codec
Профиль формата                          :
Параметр CABAC формата                   : Да
Параметр ReFrames формата                : 2 кадра
Идентификатор кодека                     : avc1
Идентификатор кодека/Информация          : Advanced Video Coding
Продолжительность                        : 3 м. 50 с.
Битрейт                                  : 3893 Кбит/сек
Ширина                                   : 1920 пикселей
Высота                                   : 1080 пикселей
Соотношение сторон                       : 16:9
Режим частоты кадров                     : Постоянный
Частота кадров                           : 25,000 кадров/сек
Цветовое пространство                    : YUV
Субдискретизация насыщенности            : 4:2:0
Битовая глубина                          : 8 бит
Тип развёртки                            : Прогрессивная
Бит/(Пиксели*Кадры)                      : 0.075
Размер потока                            : 107 Мбайт (94%)
Язык                                     : English

Аудио
Идентификатор                            : 2
Формат                                   : AAC
Формат/Информация                        : Advanced Audio Codec
Профиль формата                          : LC
Идентификатор кодека                     : 40
Продолжительность                        : 3 м. 50 с.
Продолжительность оригинала              : 3 м. 50 с.
Вид битрейта                             : Переменный
Битрейт                                  : 254 Кбит/сек
Каналы                                   : 2 канала
Расположение каналов                     : Front: L R
Частота                                  : 44,1 КГц
Метод сжатия                             : С потерями
Размер потока                            : 6,97 Мбайт (6%)
Размер потока оригинала                  : 6,97 Мбайт (6%)
Язык                                     : English
mdhd_Duration                            : 230550

Общее
Полное имя                               : The Veronicas - Cruel..mp4
Формат                                   : MPEG-4
Профиль формата                          : Base Media / Version 2
Идентификатор кодека                     : mp42
Размер файла                             : 116 Мбайт
Продолжительность                        : 5 м. 6 с.
Режим общего битрейта                    : Переменный
Общий поток                              : 3174 Кбит/сек

Видео
Идентификатор                            : 1
Формат                                   : AVC
Формат/Информация                        : Advanced Video Codec
Профиль формата                          :
Параметр CABAC формата                   : Да
Параметр ReFrames формата                : 2 кадра
Идентификатор кодека                     : avc1
Идентификатор кодека/Информация          : Advanced Video Coding
Продолжительность                        : 5 м. 6 с.
Битрейт                                  : 2915 Кбит/сек
Ширина                                   : 1920 пикселей
Высота                                   : 1080 пикселей
Соотношение сторон                       : 16:9
Режим частоты кадров                     : Постоянный
Частота кадров                           : 25,000 кадров/сек
Цветовое пространство                    : YUV
Субдискретизация насыщенности            : 4:2:0
Битовая глубина                          : 8 бит
Тип развёртки                            : Прогрессивная
Бит/(Пиксели*Кадры)                      : 0.056
Размер потока                            : 106 Мбайт (92%)
Язык                                     : English

Аудио
Идентификатор                            : 2
Формат                                   : AAC
Формат/Информация                        : Advanced Audio Codec
Профиль формата                          : LC
Идентификатор кодека                     : 40
Продолжительность                        : 5 м. 6 с.
Продолжительность оригинала              : 5 м. 6 с.
Вид битрейта                             : Переменный
Битрейт                                  : 254 Кбит/сек
Каналы                                   : 2 канала
Расположение каналов                     : Front: L R
Частота                                  : 44,1 КГц
Метод сжатия                             : С потерями
Размер потока                            : 9,25 Мбайт (8%)
Размер потока оригинала                  : 9,26 Мбайт (8%)
Язык                                     : English
mdhd_Duration                            : 306154

Общее
Полное имя                               : Tom Boxer & Morena - Balans.mp4
Формат                                   : MPEG-4
Профиль формата                          : Base Media / Version 2
Идентификатор кодека                     : mp42
Размер файла                             : 97,6 Мбайт
Продолжительность                        : 3 м. 25 с.
Режим общего битрейта                    : Переменный
Общий поток                              : 3977 Кбит/сек

Видео
Идентификатор                            : 1
Формат                                   : AVC
Формат/Информация                        : Advanced Video Codec
Профиль формата                          :
Параметр CABAC формата                   : Да
Параметр ReFrames формата                : 3 кадра
Идентификатор кодека                     : avc1
Идентификатор кодека/Информация          : Advanced Video Coding
Продолжительность                        : 3 м. 25 с.
Битрейт                                  : 3719 Кбит/сек
Ширина                                   : 1920 пикселей
Высота                                   : 1080 пикселей
Соотношение сторон                       : 16:9
Режим частоты кадров                     : Постоянный
Частота кадров                           : 25,000 кадров/сек
Цветовое пространство                    : YUV
Субдискретизация насыщенности            : 4:2:0
Битовая глубина                          : 8 бит
Тип развёртки                            : Прогрессивная
Бит/(Пиксели*Кадры)                      : 0.072
Размер потока                            : 91,3 Мбайт (94%)
Язык                                     : English

Аудио
Идентификатор                            : 2
Формат                                   : AAC
Формат/Информация                        : Advanced Audio Codec
Профиль формата                          : LC
Идентификатор кодека                     : 40
Продолжительность                        : 3 м. 25 с.
Продолжительность оригинала              : 3 м. 25 с.
Вид битрейта                             : Переменный
Битрейт                                  : 254 Кбит/сек
Каналы                                   : 2 канала
Расположение каналов                     : Front: L R
Частота                                  : 44,1 КГц
Метод сжатия                             : С потерями
Размер потока                            : 6,22 Мбайт (6%)
Размер потока оригинала                  : 6,22 Мбайт (6%)
Язык                                     : English
mdhd_Duration                            : 205821

Общее
Полное имя                               : Tove Styrke - Ego..mp4
Формат                                   : MPEG-4
Профиль формата                          : Base Media / Version 2
Идентификатор кодека                     : mp42
Размер файла                             : 119 Мбайт
Продолжительность                        : 3 м. 52 с.
Режим общего битрейта                    : Переменный
Общий поток                              : 4294 Кбит/сек

Видео
Идентификатор                            : 1
Формат                                   : AVC
Формат/Информация                        : Advanced Video Codec
Профиль формата                          :
Параметр CABAC формата                   : Да
Параметр ReFrames формата                : 2 кадра
Идентификатор кодека                     : avc1
Идентификатор кодека/Информация          : Advanced Video Coding
Продолжительность                        : 3 м. 52 с.
Битрейт                                  : 4035 Кбит/сек
Ширина                                   : 1920 пикселей
Высота                                   : 1080 пикселей
Соотношение сторон                       : 16:9
Режим частоты кадров                     : Постоянный
Частота кадров                           : 25,000 кадров/сек
Цветовое пространство                    : YUV
Субдискретизация насыщенности            : 4:2:0
Битовая глубина                          : 8 бит
Тип развёртки                            : Прогрессивная
Бит/(Пиксели*Кадры)                      : 0.078
Размер потока                            : 112 Мбайт (94%)
Язык                                     : English

Аудио
Идентификатор                            : 2
Формат                                   : AAC
Формат/Информация                        : Advanced Audio Codec
Профиль формата                          : LC
Идентификатор кодека                     : 40
Продолжительность                        : 3 м. 52 с.
Продолжительность оригинала              : 3 м. 52 с.
Вид битрейта                             : Переменный
Битрейт                                  : 254 Кбит/сек
Каналы                                   : 2 канала
Расположение каналов                     : Front: L R
Частота                                  : 44,1 КГц
Метод сжатия                             : С потерями
Размер потока                            : 7,03 Мбайт (6%)
Размер потока оригинала                  : 7,03 Мбайт (6%)
Язык                                     : English
mdhd_Duration                            : 232431

Общее
Полное имя                               : Vega Feat Tash, Nicki Minaj, Ru Spits - Love Poison (Bodybangers Remix)..mp4
Формат                                   : MPEG-4
Профиль формата                          : Base Media / Version 2
Идентификатор кодека                     : mp42
Размер файла                             : 91,5 Мбайт
Продолжительность                        : 3 м. 36 с.
Режим общего битрейта                    : Переменный
Общий поток                              : 3539 Кбит/сек

Видео
Идентификатор                            : 1
Формат                                   : AVC
Формат/Информация                        : Advanced Video Codec
Профиль формата                          :
Параметр CABAC формата                   : Да
Параметр ReFrames формата                : 2 кадра
Идентификатор кодека                     : avc1
Идентификатор кодека/Информация          : Advanced Video Coding
Продолжительность                        : 3 м. 36 с.
Битрейт                                  : 3280 Кбит/сек
Ширина                                   : 1920 пикселей
Высота                                   : 1080 пикселей
Соотношение сторон                       : 16:9
Режим частоты кадров                     : Постоянный
Частота кадров                           : 25,000 кадров/сек
Цветовое пространство                    : YUV
Субдискретизация насыщенности            : 4:2:0
Битовая глубина                          : 8 бит
Тип развёртки                            : Прогрессивная
Бит/(Пиксели*Кадры)                      : 0.063
Размер потока                            : 84,8 Мбайт (93%)
Язык                                     : English

Аудио
Идентификатор                            : 2
Формат                                   : AAC
Формат/Информация                        : Advanced Audio Codec
Профиль формата                          : LC
Идентификатор кодека                     : 40
Продолжительность                        : 3 м. 36 с.
Продолжительность оригинала              : 3 м. 36 с.
Вид битрейта                             : Переменный
Битрейт                                  : 254 Кбит/сек
Каналы                                   : 2 канала
Расположение каналов                     : Front: L R
Частота                                  : 44,1 КГц
Метод сжатия                             : С потерями
Размер потока                            : 6,56 Мбайт (7%)
Размер потока оригинала                  : 6,56 Мбайт (7%)
Язык                                     : English
mdhd_Duration                            : 216874

Общее
Полное имя                               : Xyloo - Spark in the Night (Steve Modana Remix)..mp4
Формат                                   : MPEG-4
Профиль формата                          : Base Media / Version 2
Идентификатор кодека                     : mp42
Размер файла                             : 61,0 Мбайт
Продолжительность                        : 3 м. 19 с.
Режим общего битрейта                    : Переменный
Общий поток                              : 2568 Кбит/сек

Видео
Идентификатор                            : 1
Формат                                   : AVC
Формат/Информация                        : Advanced Video Codec
Профиль формата                          :
Параметр CABAC формата                   : Да
Параметр ReFrames формата                : 3 кадра
Идентификатор кодека                     : avc1
Идентификатор кодека/Информация          : Advanced Video Coding
Продолжительность                        : 3 м. 19 с.
Битрейт                                  : 2310 Кбит/сек
Ширина                                   : 1920 пикселей
Высота                                   : 1080 пикселей
Соотношение сторон                       : 16:9
Режим частоты кадров                     : Постоянный
Частота кадров                           : 25,000 кадров/сек
Цветовое пространство                    : YUV
Субдискретизация насыщенности            : 4:2:0
Битовая глубина                          : 8 бит
Тип развёртки                            : Прогрессивная
Бит/(Пиксели*Кадры)                      : 0.045
Размер потока                            : 54,9 Мбайт (90%)
Язык                                     : English

Аудио
Идентификатор                            : 2
Формат                                   : AAC
Формат/Информация                        : Advanced Audio Codec
Профиль формата                          : LC
Идентификатор кодека                     : 40
Продолжительность                        : 3 м. 19 с.
Продолжительность оригинала              : 3 м. 19 с.
Вид битрейта                             : Переменный
Битрейт                                  : 254 Кбит/сек
Каналы                                   : 2 канала
Расположение каналов                     : Front: L R
Частота                                  : 44,1 КГц
Метод сжатия                             : С потерями
Размер потока                            : 6,03 Мбайт (10%)
Размер потока оригинала                  : 6,03 Мбайт (10%)
Язык                                     : English
mdhd_Duration                            : 199389

Общее
Полное имя                               : Yamira feat. Mattyas - Waterfalls.mp4
Формат                                   : MPEG-4
Профиль формата                          : Base Media / Version 2
Идентификатор кодека                     : mp42
Размер файла                             : 90,2 Мбайт
Продолжительность                        : 3 м. 19 с.
Режим общего битрейта                    : Переменный
Общий поток                              : 3784 Кбит/сек

Видео
Идентификатор                            : 1
Формат                                   : AVC
Формат/Информация                        : Advanced Video Codec
Профиль формата                          :
Параметр CABAC формата                   : Да
Параметр ReFrames формата                : 2 кадра
Идентификатор кодека                     : avc1
Идентификатор кодека/Информация          : Advanced Video Coding
Продолжительность                        : 3 м. 19 с.
Битрейт                                  : 3525 Кбит/сек
Ширина                                   : 1920 пикселей
Высота                                   : 1080 пикселей
Соотношение сторон                       : 16:9
Режим частоты кадров                     : Постоянный
Частота кадров                           : 25,000 кадров/сек
Цветовое пространство                    : YUV
Субдискретизация насыщенности            : 4:2:0
Битовая глубина                          : 8 бит
Тип развёртки                            : Прогрессивная
Бит/(Пиксели*Кадры)                      : 0.068
Размер потока                            : 84,0 Мбайт (93%)
Язык                                     : English

Аудио
Идентификатор                            : 2
Формат                                   : AAC
Формат/Информация                        : Advanced Audio Codec
Профиль формата                          : LC
Идентификатор кодека                     : 40
Продолжительность                        : 3 м. 19 с.
Продолжительность оригинала              : 3 м. 19 с.
Вид битрейта                             : Переменный
Битрейт                                  : 254 Кбит/сек
Каналы                                   : 2 канала
Расположение каналов                     : Front: L R
Частота                                  : 44,1 КГц
Метод сжатия                             : С потерями
Размер потока                            : 6,04 Мбайт (7%)
Размер потока оригинала                  : 6,04 Мбайт (7%)
Язык                                     : English
mdhd_Duration                            : 199877
Скриншоты:
 
Не забывайте говорить Спасибо. Не уходите с раздачи!   
Торрент: Зарегистрирован [09 мар 2015, 11:54] Скачать торрент
Скачать торрент
[ Размер 18.39 КБ / Просмотров 40 ]
Статус:
Проверен
 
.torrent скачан: 1 раз
Хэш: 1d7feb1174ecc9ad654dba889c0b1972bb331e8c
Размер: 3.03 ГБ (3 252 331 009 байт)
Стать Автором раздачи
 
 
Раздал: 6.67 ГБ
Скачал: 302.5 МБ
Ратио: 22.576
Сообщения: 374198
Зарегистрирован: 17 апр 2014, 11:05


  • Похожие торренты
    Ответы
    Просмотры
    Последнее сообщение

Вернуться в Музыкальные клипы (транзит)

Ресурс не предоставляет электронные версии произведений, а занимается лишь коллекционированием и каталогизацией ссылок, присылаемых и публикуемых на форуме нашими читателями. Если вы являетесь правообладателем какого-либо представленного материала и не желаете чтобы ссылка на него находилась в нашем каталоге, свяжитесь с нами и мы незамедлительно удалим её. Файлы для обмена на трекере предоставлены пользователями сайта, и администрация не несёт ответственности за их содержание. Просьба не заливать файлы, защищенные авторскими правами, а также файлы нелегального содержания!
cron