Моя вина (Расплата) (Mea culpa) (2014) [MP4 | 848x360] <BDRip H.264>

 
 Статистика раздачи 
Размер: 1.24 ГБ   |  Зарегистрирован: 08 мар 2015, 14:18   |   .torrent скачан: 0 раз
Сидеров: 1  [ 0 байт/сек ]     Личеров: 1  [ 0 байт/сек ]  
  

Моя вина (Расплата) (Mea culpa) (2014) [MP4 | 848x360] <BDRip H.264>

Сообщение Thistoll » 08 мар 2015, 14:18

Моя вина (Расплата) (Mea culpa) (2014) BDRip

Производство: Франция
Жанр: Боевик, Триллер

Описание фильма:
Франк и Симон напарники полицейские из Тулона. После трагической аварии Симон теряет всё: свою семейную жизнь, свою работу полицейского. Франк выходит сухим из воды.
Шесть лет спустя под угрозой оказывается ставший случайным свидетелем преступления сын Симона Тео. Бывший полицейский готов на всё, чтобы защитить свою семью. Но для этого ему ему предстоит объединиться со своим бывшим напарником Франком.

Режиссер: Фред Кавайе
Продюсер: Сирил Кольбо-Жюстен, Сидони Дюма, Жан-Батист Дюпон
Актеры: Венсан Линдон, Жиль Леллуш, Надин Лабаки, Жиль Коэн, Макс Биссетт де Малглайв, Меди Садун, Велибор Топик, Сириль Леконт, Жиль Белломи, Саша Петронижевич

Продолжительность: 01:30:20
Перевод: Многоголосый закадровый (Профессиональный)

Дата мировой премьеры: 5 февраля 2014
Формат: MP4 (ISO v.2)
Качество видео: BDRip
Видеокодек: MPEG-4 AVC/H.264
Битрейт видео: ~1800 kb/s
Размер кадра: 848x360
Аудиокодек: AAC
Битрейт аудио: 160 kb/s 2.0 CBR LC
Код:
Код: Выделить всё
General
Complete name               : F:\Моя вина.2014.BDRip.NNM-Club.mp4
Format                      : MPEG-4
Format profile              : Base Media / Version 2
Codec ID                    : mp42
File size                   : 1.24 GiB
Duration                    : 1h 30mn
Overall bit rate            : 1 964 Kbps
Encoded date                : UTC 2015-02-27 00:45:51
Tagged date                 : UTC 2015-02-27 00:45:51
Writing library             : AVS

Video
ID                          : 1
Format                      : AVC
Format/Info                 : Advanced Video Codec
Format profile              :
Format settings, CABAC      : Yes
Format settings, ReFrames   : 5 frames
Codec ID                    : avc1
Codec ID/Info               : Advanced Video Coding
Duration                    : 1h 30mn
Bit rate                    : 1 800 Kbps
Width                       : 848 pixels
Height                      : 360 pixels
Display aspect ratio        : 2.35:1
Frame rate mode             : Constant
Frame rate                  : 24.000 fps
Color space                 : YUV
Chroma subsampling          : 4:2:0
Bit depth                   : 8 bits
Scan type                   : Progressive
Bits/(Pixel*Frame)          : 0.246
Stream size                 : 1.14 GiB (92%)
Language                    : English
Encoded date                : UTC 2015-02-27 00:45:51
Tagged date                 : UTC 2015-02-27 00:45:51
Color primaries             : BT.709
Transfer characteristics    : BT.709
Matrix coefficients         : BT.709

Audio
ID                          : 2
Format                      : AAC
Format/Info                 : Advanced Audio Codec
Format profile              : LC
Codec ID                    : 40
Duration                    : 1h 30mn
Bit rate mode               : Constant
Bit rate                    : 160 Kbps
Channel(s)                  : 2 channels
Channel positions           : Front: L R
Sampling rate               : 44.1 KHz
Compression mode            : Lossy
Stream size                 : 102 MiB (8%)
Language                    : English
Encoded date                : UTC 2015-02-27 00:45:52
Tagged date                 : UTC 2015-02-27 00:45:52
Скриншоты



Время раздачи: Круглосуточно, до первых 10-и скачавших
Приятного просмотра!
 
Не забывайте говорить Спасибо. Не уходите с раздачи!   
Торрент: Зарегистрирован [08 мар 2015, 14:18] Для скачивания .torrent
необходима регистрация
Или скачать с помощью
MediaGet
Статус:
Проверен
 
.torrent скачан: 0 раз
Хэш: db0078e5bbfd5b2d1099e2469479938070fdc253
Размер: 1.24 ГБ (1 330 763 297 байт)
Стать Автором раздачи
 
 
Раздал: 6.67 ГБ
Скачал: 302.5 МБ
Ратио: 22.576
Сообщения: 374198
Зарегистрирован: 17 апр 2014, 11:05


  • Похожие торренты
    Ответы
    Просмотры
    Последнее сообщение

Вернуться в Видео для мобильных устройств

Ресурс не предоставляет электронные версии произведений, а занимается лишь коллекционированием и каталогизацией ссылок, присылаемых и публикуемых на форуме нашими читателями. Если вы являетесь правообладателем какого-либо представленного материала и не желаете чтобы ссылка на него находилась в нашем каталоге, свяжитесь с нами и мы незамедлительно удалим её. Файлы для обмена на трекере предоставлены пользователями сайта, и администрация не несёт ответственности за их содержание. Просьба не заливать файлы, защищенные авторскими правами, а также файлы нелегального содержания!
cron