[VIDEO] Крадущийся тигр, затаившийся дракон / Wo hu cang long (Энг Ли / Ang Lee) [2000, боевик, драма, мелодрама, HDRip] [MP4, 960x] 2xMVO, VO Живов

 
 Статистика раздачи 
Размер: 1.18 ГБ   |  Зарегистрирован: 06 мар 2015, 06:08   |   .torrent скачан: 0 раз
Сидеров: 1  [ 0 байт/сек ]     Личеров: 2  [ 0 байт/сек ]  
  

[VIDEO] Крадущийся тигр, затаившийся дракон / Wo hu cang long (Энг Ли / Ang Lee) [2000, боевик, драма, мелодрама, HDRip] [MP4, 960x] 2xMVO, VO Живов

Сообщение Satch » 06 мар 2015, 06:08

Крадущийся тигр, затаившийся дракон / Wo hu cang long


Год выпуска: 2000
Страна: Тайвань, Гонконг, США, Китай
Жанр: боевик, драма, мелодрама
Продолжительность: 02:00:14
Перевод №1: Русский Профессиональный (многоголосый, закадровый) R5
Перевод №2: Русский Профессиональный (многоголосый, закадровый) (Первый канал, ОРТ)
Перевод №3: Русский Авторский (одноголосый, закадровый) Юрий Живов
Cубтитры: нет
Режиссер: Энг Ли / Ang Lee
В ролях: Чоу Юнь-Фат / Chow Yun-Fat, Мишель Йео / Michelle Yeoh, Чжан Цзыи / Zhang Ziyi, Чан Чэнь / Chang Chen, Сихун Лун / Sihung Lung, Пеи-пеи Ченг / Pei-pei Cheng, Фа Зенг Ли / Fa Zeng Li, Сянь Гао / Xian Gao и другие .
Описание: Легендарный мастер боевых искусств Ли Мубай отправляется на поиски магического меча зеленой стали, похищенного тайными злоумышленниками. Впереди его ждет зловещая фигура давнего противника, наемного убийцы, который после долгого отсутствия снова вернулся на тропу войны…

Китайское название фильма является идиоматическим выражением, наиболее точным смысловым переводом на русский которого было бы «Тихий омут» (в тихом омуте черти водятся).
Для тех, кто знаком с китайскими иероглифами, связь между названием фильма и сюжетом наглядно очевидна: в имени Джен есть слово «дракон», в то время как Ло — «тигр».

Доп. информация:
Релиз группы
Качество: HDRip /
Формат: MP4
Видео кодек: H.264
Аудио кодек: AAC
Видео: 960x400 AR:2.40 1009 kbps, 23.976 fps
Аудио №1: [Russian] 2ch 48 kHz 128 kbps [MVO] R5
Аудио№2: [Russian] 2ch 48 kHz 128 kbps [MVO] (Первый канал) OPT
Аудио №3: [Russian] 2ch 48 kHz 128 kbps [VO] Юрий Живов
...last pass...

x264.exe: --pass 2 --bitrate 1009 --preset medium --profile high --level 4.1 --ref 8 --deblock -3:-3 --merange 24 --no-chroma-me --direct auto --b-adapt 2 --no-fast-pskip --no-dct-decimate --subme 9 --me umh --colorprim bt709 --transfer bt709 --colormatrix bt709 --sar 1:1 --stats "J:\Crouching Tiger Hidden Dragon 2000 BluRay 1080p LoNeWolf.log" --output "J:\Crouching Tiger Hidden Dragon 2000 BluRay 1080p LoNeWolf.mp4" "J:\Temp\0053.avs"

avs [info]: 960x400p 1:1 @ 2500000/104271 fps (cfr)
x264 [info]: using SAR=1/1
x264 [info]: using cpu capabilities: MMX2 SSE2Fast SSSE3 SSE4.2 LZCNT
x264 [info]: profile High, level 4.1

x264 [info]: frame I:1506 Avg QP:16.89 size: 43376
x264 [info]: frame P:49493 Avg QP:19.62 size: 10319
x264 [info]: frame B:121968 Avg QP:22.00 size: 2732
x264 [info]: consecutive B-frames: 2.5% 5.2% 15.8% 76.5%
x264 [info]: mb I I16..4: 13.6% 65.4% 21.1%
x264 [info]: mb P I16..4: 1.5% 5.6% 1.4% P16..4: 47.4% 17.5% 15.0% 0.0% 0.0% skip:11.7%
x264 [info]: mb B I16..4: 0.1% 0.8% 0.3% B16..8: 40.4% 4.7% 1.2% direct: 1.8% skip:50.8% L0:42.7% L1:52.3% BI: 5.1%
x264 [info]: 8x8 transform intra:66.8% inter:67.1%
x264 [info]: direct mvs spatial:95.8% temporal:4.2%
x264 [info]: coded y,uvDC,uvAC intra: 79.0% 77.5% 41.6% inter: 17.6% 22.3% 6.3%
x264 [info]: i16 v,h,dc,p: 38% 16% 9% 37%
x264 [info]: i8 v,h,dc,ddl,ddr,vr,hd,vl,hu: 7% 6% 2% 11% 17% 15% 15% 12% 13%
x264 [info]: i4 v,h,dc,ddl,ddr,vr,hd,vl,hu: 8% 6% 2% 10% 17% 16% 16% 12% 13%
x264 [info]: i8c dc,h,v,p: 41% 25% 19% 15%
x264 [info]: Weighted P-Frames: Y:5.0% UV:1.5%
x264 [info]: ref P L0: 51.9% 10.0% 15.6% 6.2% 5.1% 4.4% 3.9% 2.3% 0.5% 0.0%
x264 [info]: ref B L0: 75.1% 11.0% 6.4% 2.8% 2.3% 1.6% 0.8%
x264 [info]: ref B L1: 92.6% 7.4%
x264 [info]: kb/s:1008.35

x264 [total]: encoded 172967 frames, 16.10 fps, 1008.35 kb/s
GeneralComplete name : J:\Torrents\Crouching Tiger Hidden Dragon.2000.HDRip.x264.960x.rip by Frost O.S.mp4Format : MPEG-4Codec ID : M4VFile size : 1.18 GiBDuration : 2h 0mnOverall bit rate mode : VariableOverall bit rate : 1 408 KbpsMovie name : Crouching Tiger Hidden Dragon 2000 HDRip x264 960x rip by Frost O SPerformer : Chow Yun-FatGenre : ActionContentType : Short FilmEncoded date : UTC 2015-03-04 13:37:35Tagged date : UTC 2015-03-04 13:41:39Writing application : MkvToMp4 version: 0.224 (x64)Copyright : Frost O.SCover : YesContentRating : mpaa|PG-13|300|iTunMOVI : <?xml version="1.0" encoding="UTF-8"?> / <!DOCTYPE plist PUBLIC "-/Apple/DTD PLIST 1.0/EN" "http://www.apple.com/DTDs/PropertyList-1.0.dtd"> / <plist version="1.0"> / <dict> / <key>directors</key> / <array> / <dict> / <key>name</key> / <string>Ang Lee</string> / </dict> / </array> / </dict> / </plist>

VideoID : 1Format : AVCFormat/Info : Advanced Video CodecFormat profile : settings, CABAC : YesFormat settings, ReFrames : 8 framesCodec ID : avc1Codec ID/Info : Advanced Video CodingDuration : 2h 0mnBit rate : 1 009 KbpsMaximum bit rate : 8 987 KbpsWidth : 960 pixelsHeight : 400 pixelsDisplay aspect ratio : 2.40:1Frame rate mode : ConstantFrame rate : 23.976 fpsColor space : YUVChroma subsampling : 4:2:0Bit depth : 8 bitsScan type : ProgressiveBits/(Pixel*Frame) : 0.110Stream size : 867 MiB (72%)Writing library : x264 core 130 r2273 b3065e6Encoding settings : cabac=1 / ref=8 / deblock=1:-3:-3 / analyse=0x3:0x113 / me=umh / subme=9 / psy=1 / psy_rd=1.00:0.00 / mixed_ref=1 / me_range=24 / chroma_me=0 / trellis=1 / 8x8dct=1 / cqm=0 / deadzone=21,11 / fast_pskip=0 / chroma_qp_offset=-2 / threads=3 / lookahead_threads=1 / sliced_threads=0 / nr=0 / decimate=0 / interlaced=0 / bluray_compat=0 / constrained_intra=0 / bframes=3 / b_pyramid=2 / b_adapt=2 / b_bias=0 / direct=3 / weightb=1 / open_gop=0 / weightp=2 / keyint=250 / keyint_min=23 / scenecut=40 / intra_refresh=0 / rc_lookahead=40 / rc=2pass / mbtree=1 / bitrate=1009 / ratetol=1.0 / qcomp=0.60 / qpmin=0 / qpmax=69 / qpstep=4 / cplxblur=20.0 / qblur=0.5 / ip_ratio=1.40 / aq=1:1.00Language : EnglishEncoded date : UTC 2015-03-04 13:37:35Tagged date : UTC 2015-03-04 13:38:17Color primaries : BT.709Transfer characteristics : BT.709Matrix coefficients : BT.709

Audio #1ID : 2Format : AACFormat/Info : Advanced Audio CodecFormat profile : LCCodec ID : 40Duration : 2h 0mnBit rate mode : VariableBit rate : 128 KbpsMaximum bit rate : 135 KbpsChannel(s) : 2 channelsChannel positions : Front: L RSampling rate : 48.0 KHzCompression mode : LossyStream size : 110 MiB (9%)Title : [MVO] R5Language : RussianEncoded date : UTC 2015-03-04 13:37:56Tagged date : UTC 2015-03-04 13:38:17

Audio #2ID : 3Format : AACFormat/Info : Advanced Audio CodecFormat profile : LCCodec ID : 40Duration : 2h 0mnBit rate mode : VariableBit rate : 128 KbpsMaximum bit rate : 132 KbpsChannel(s) : 2 channelsChannel positions : Front: L RSampling rate : 48.0 KHzCompression mode : LossyStream size : 110 MiB (9%)Title : [MVO] OPTLanguage : RussianEncoded date : UTC 2015-03-04 13:38:02Tagged date : UTC 2015-03-04 13:38:17

Audio #3ID : 4Format : AACFormat/Info : Advanced Audio CodecFormat profile : LCCodec ID : 40Duration : 2h 0mnBit rate mode : VariableBit rate : 128 KbpsMaximum bit rate : 133 KbpsChannel(s) : 2 channelsChannel positions : Front: L RSampling rate : 48.0 KHzCompression mode : LossyStream size : 110 MiB (9%)Title : [VO] ZhuvovLanguage : RussianEncoded date : UTC 2015-03-04 13:38:10Tagged date : UTC 2015-03-04 13:38:17


 
Не забывайте говорить Спасибо. Не уходите с раздачи!   
Торрент: Зарегистрирован [06 мар 2015, 06:08] Для скачивания .torrent
необходима регистрация
Или скачать с помощью
MediaGet
Статус:
Проверен
 
.torrent скачан: 0 раз
Хэш: 50331bfcb01d76559e9d9d1b5511a9c0733e0aa7
Размер: 1.18 ГБ (1 269 314 832 байт)
Стать Автором раздачи
 
Аватара пользователя
 
Раздал: 2.45 ГБ
Скачал: 15.94 МБ
Ратио: 157.696
Сообщения: 337733
Зарегистрирован: 16 янв 2012, 17:03


  • Похожие торренты
    Ответы
    Просмотры
    Последнее сообщение

Вернуться в Видео для мобильных устройств

Ресурс не предоставляет электронные версии произведений, а занимается лишь коллекционированием и каталогизацией ссылок, присылаемых и публикуемых на форуме нашими читателями. Если вы являетесь правообладателем какого-либо представленного материала и не желаете чтобы ссылка на него находилась в нашем каталоге, свяжитесь с нами и мы незамедлительно удалим её. Файлы для обмена на трекере предоставлены пользователями сайта, и администрация не несёт ответственности за их содержание. Просьба не заливать файлы, защищенные авторскими правами, а также файлы нелегального содержания!
cron