12 обезьян (12 Monkeys) / (Сезон 1, серии 1-7 из 13) BaibaKo (2015) [MP4|720x400] <WEB-DLRip [H.264]>

 
 Статистика раздачи 
Размер: 3.95 ГБ   |  Зарегистрирован: 02 мар 2015, 21:21   |   .torrent скачан: 0 раз
Сидеров: 1  [ 0 байт/сек ]     Личеров: 1  [ 0 байт/сек ]  
  

12 обезьян (12 Monkeys) / (Сезон 1, серии 1-7 из 13) BaibaKo (2015) [MP4|720x400] <WEB-DLRip [H.264]>

Сообщение Thistoll » 02 мар 2015, 21:21

12 обезьян (12 Monkeys) / (Сезон 1, серии 1-7 из 13) BaibaKo (2015) WEB-DLRip
«Unmake history»

Жанр: фантастика, триллер, драма, детектив, приключения
Производство: США

Описание фильма:
Коул - уголовник из постапокалиптического будущего. Его осудили за дерзкое поведение и неподчинение властям. В конце девяностых некий вирус уничтожил почти всю популяцию людей, а те, кому удалось выжить, укрылись под землей. В то время ученые уже изобрели технологию путешествия во времени, и Коул стал «морской свинкой», на которой эту технологию решили испытать. Он должен добыть для изучения образцы вируса из прошлого и за это получит полное прощение за все содеянное.

Режиссер: Джеффри Рейнер
Актеры: Аарон Стэнфорд, Аманда Шулл, Желько Иванек, Шеннон Лучио, Кирк Асеведо, Ной Бин, Джоди Лин Броктон, Рамон Де Окампо, Билл Таймони, Рики Уэйн и др.

Продолжительность: ~ 00:47:00 серия
Качество видео: WEB-DLRip

Перевод: Многоголосый закадровый, профессиональный - BaibaKo
Автор перевода: Татьяна Saavick
Озвучка: Лира Грим, Татьяна Оболевич, Сергей Корчак, Александр Фурман и Валерий Смекалов
Монтаж: Виталий Ткаченко

Сэмпл

Формат: MP4
Видеокодек: MPEG-4 AVC/H.264
Битрейт видео: ~1536 Кбит/сек
Размер кадра: 720x400 (16:9)
Аудио #1: AAC, 2 канала, 163 Кбит/сек - русский (многоголосый закадровый)
Аудио #2: AAC, 2 канала, 163 Кбит/сек - английский (оригинал)
Полное имя : D:\12_Monkeys_s1_WEB-DLRip_x264_BaibaKo_[NNM-CLUB]\12.Monkeys.s01e01.WEB-DLRip.x264.Rus.Eng.BaibaKo.tv.mp4
Формат : MPEG-4
Профиль формата : Base Media
Идентификатор кодека : isom
Размер файла : 630 Мбайт
Продолжительность : 47 м.
Режим общего битрейта : Переменный
Общий поток : 1866 Кбит/сек
Дата кодирования : UTC 2015-01-17 22:15:38
Дата пометки : UTC 2015-01-17 22:15:38

Видео
Идентификатор : 1
Формат : AVC
Формат/Информация : Advanced Video Codec
Профиль формата :
Параметр CABAC формата : Нет
Параметр ReFrames формата : 3 кадра
Идентификатор кодека : avc1
Идентификатор кодека/Информация : Advanced Video Coding
Продолжительность : 47 м.
Продолжительность оригинала : 47 м.
Битрейт : 1536 Кбит/сек
Максимальный битрейт : 6097 Кбит/сек
Ширина : 720 пикселей
Высота : 400 пикселей
Соотношение сторон : 16:9
Режим частоты кадров : Постоянный
Частота кадров : 24,000 кадра/сек
Цветовое пространство : YUV
Субдискретизация насыщенности : 4:2:0
Битовая глубина : 8 бит
Тип развёртки : Прогрессивная
Бит/(Пиксели*Кадры) : 0.222
Размер потока : 518 Мбайт (82%)
Размер потока оригинала : 518 Мбайт (82%)
Библиотека кодирования : x264 core 142 r2479 dd79a61
Настройки программы : cabac=0 / ref=3 / deblock=1:0:0 / analyse=0x1:0x111 / me=hex / subme=7 / psy=1 / psy_rd=1.00:0.00 / mixed_ref=1 / me_range=16 / chroma_me=1 / trellis=1 / 8x8dct=0 / cqm=0 / deadzone=21,11 / fast_pskip=1 / chroma_qp_offset=-2 / threads=12 / lookahead_threads=2 / sliced_threads=0 / nr=0 / decimate=1 / interlaced=0 / bluray_compat=0 / constrained_intra=0 / bframes=0 / weightp=0 / keyint=240 / keyint_min=24 / scenecut=40 / intra_refresh=0 / rc_lookahead=40 / rc=2pass / mbtree=1 / bitrate=1536 / ratetol=1.0 / qcomp=0.60 / qpmin=0 / qpmax=69 / qpstep=4 / cplxblur=20.0 / qblur=0.5 / vbv_maxrate=10000 / vbv_bufsize=10000 / nal_hrd=none / filler=0 / ip_ratio=1.40 / aq=1:1.00
Дата пометки : UTC 2015-01-17 22:15:54
Основные цвета : BT.709
Характеристики трансфера : BT.709
Коэффициенты матрицы : BT.709

Аудио #1
Идентификатор : 2
Формат : AAC
Формат/Информация : Advanced Audio Codec
Профиль формата : LC
Идентификатор кодека : 40
Продолжительность : 47 м.
Вид битрейта : Переменный
Битрейт : 163 Кбит/сек
Максимальный битрейт : 214 Кбит/сек
Каналы : 2 канала
Расположение каналов : Front: L R
Частота : 48,0 КГц
Метод сжатия : С потерями
Размер потока : 55,0 Мбайт (9%)
Язык : Russian
Дата кодирования : UTC 2015-01-17 22:15:46
Дата пометки : UTC 2015-01-17 22:15:54

Аудио #2
Идентификатор : 3
Формат : AAC
Формат/Информация : Advanced Audio Codec
Профиль формата : LC
Идентификатор кодека : 40
Продолжительность : 47 м.
Вид битрейта : Переменный
Битрейт : 163 Кбит/сек
Максимальный битрейт : 234 Кбит/сек
Каналы : 2 канала
Расположение каналов : Front: L R
Частота : 48,0 КГц
Метод сжатия : С потерями
Размер потока : 54,9 Мбайт (9%)
Язык : English
Дата кодирования : UTC 2015-01-17 22:15:49
Дата пометки : UTC 2015-01-17 22:15:54
01 - Пилот / Pilot
02 - Душевнобольной / Mentally Divergent
03 - Комплекс Кассандры / Cassandra Complex
04 - Атари / Atari
05 - Ночная комната / The Night Room
06 - Красный лес / The Red Forest
Внимание! Раздача ведётся путём добавления новых серий; при каждом добавлении создаётся новый торрент.
Чтобы начать докачку новой серии, пользователям необходимо сделать следующее:
1. Остановить скачивание;
2. Удалить старый торрент у себя из клиента (старые серии удалять не надо);
3. Скачать новый торрент и запустить его у себя в клиенте вместо старого, при этом указать клиенту путь в старую папку куда и должно происходить скачивание новых серий. Ваш клиент при этом должен произвести хеширование (проверку) старой папки и будет докачивать только те серии, которых у вас ещё нет. Старые серии при этом не удаляются, а продолжают раздаваться! Eсли вы уже удалили старые серии, то предотвратить повторную закачку старых серий можно, отжав галочку в соответствующих местах при запуске нового торрента.
Скриншоты:



Время раздачи:
24/7 - круглосуточно
(до первых 5-ти сидов - потом по возможности)
 
Не забывайте говорить Спасибо. Не уходите с раздачи!   
Торрент: Зарегистрирован [02 мар 2015, 21:21] Для скачивания .torrent
необходима регистрация
Или скачать с помощью
MediaGet
Статус:
Проверен
 
.torrent скачан: 0 раз
Хэш: ebe261a1f19ed66c6b4991efebda87613b801021
Размер: 3.95 ГБ (4 239 159 708 байт)
Стать Автором раздачи
 
 
Раздал: 6.67 ГБ
Скачал: 302.5 МБ
Ратио: 22.576
Сообщения: 374198
Зарегистрирован: 17 апр 2014, 11:05


  • Похожие торренты
    Ответы
    Просмотры
    Последнее сообщение

Вернуться в Видео для мобильных устройств

Ресурс не предоставляет электронные версии произведений, а занимается лишь коллекционированием и каталогизацией ссылок, присылаемых и публикуемых на форуме нашими читателями. Если вы являетесь правообладателем какого-либо представленного материала и не желаете чтобы ссылка на него находилась в нашем каталоге, свяжитесь с нами и мы незамедлительно удалим её. Файлы для обмена на трекере предоставлены пользователями сайта, и администрация не несёт ответственности за их содержание. Просьба не заливать файлы, защищенные авторскими правами, а также файлы нелегального содержания!
cron