ABBA - The Definitive Collection (2002) DVDRip

 
 Статистика раздачи 
Размер: 2.29 ГБ   |  Зарегистрирован: 01 мар 2015, 12:58   |   .torrent скачан: 3 раз
Сидеров: 1  [ 0 байт/сек ]     Личеров: 0  [ 0 байт/сек ]  
  

ABBA - The Definitive Collection (2002) DVDRip

Сообщение Thistoll » 01 мар 2015, 12:58

ABBA - The Definitive Collection (2002) DVDRip

Жанр: Музыкальный
Год выпуска: 2002
Оригинальное название: ABBA - The Definitive Collection

Режиссер: Лассе Халльстрём, Челль Сундвалль
Актеры: Анни-Фрид Люнгстад, Бенни Андерссон, Бьёрн Ульвеус, Агнета Фельтског, Йонас Бергштром, Лассе Халльстрём

Описание фильма:
DVD-коллекция клипов знаменитой шведской поп-группы "ABBA", охватывающая период с 1974 по 1982 год. Помимо 30 основных, содержит 5 бонусных клипов (включая представление песни "Dancing Queen" шведской королевской семье в Royal Swedish Opera).



Дата мировой премьеры: 30 июля 2002
Качество видео: DVDRip
Перевод: Отсутствует
Продолжительность: 02:16:14

Видеокодек: Xvid
Битрейт видео: ~1900-2100 Kbps
Размер кадра: 704x512
Аудиокодек: AC3 2.0
Битрейт аудио: 384 Kbps
Код:
Код: Выделить всё
Общее
Полное имя                               : Y:\Музыкальные клипы, концерты\ABBA - The Definitive Collection\VIdeo\01. WATERLOO.avi
Формат                                   : AVI
Формат/Информация                        : Audio Video Interleave
Размер файла                             : 47,0 Мбайт
Продолжительность                        : 2 м. 46 с.
Общий поток                              : 2365 Кбит/сек
Программа кодирования                    : VirtualDubMod 1.5.10.2 (build 2540/release)
Библиотека кодирования                   : VirtualDubMod build 2540/release

Видео
Идентификатор                            : 0
Формат                                   : MPEG-4 Visual
Профиль формата                          : Advanced Simple@L5
Параметр BVOP формата                    : 2
Параметр QPel формата                    : Нет
Параметр GMC формата                     : Без точки перехода
Параметр матрицы формата                 : Default (H.263)
Режим смешивания                         : Сжатый битовый поток
Идентификатор кодека                     : XVID
Идентификатор кодека/Подсказка           : XviD
Продолжительность                        : 2 м. 46 с.
Битрейт                                  : 1971 Кбит/сек
Ширина                                   : 704 пикселя
Высота                                   : 512 пикселей
Соотношение сторон                       : 1,375
Частота кадров                           : 25,000 кадров/сек
Цветовое пространство                    : YUV
Субдискретизация насыщенности            : 4:2:0
Битовая глубина                          : 8 бит
Тип развёртки                            : Прогрессивная
Метод сжатия                             : С потерями
Бит/(Пиксели*Кадры)                      : 0.219
Размер потока                            : 39,1 Мбайт (83%)
Библиотека кодирования                   : XviD 64

Аудио
Идентификатор                            : 1
Формат                                   : AC-3
Формат/Информация                        : Audio Coding 3
Расширение режима                        : CM (complete main)
Параметр Endianness формата              : Big
Идентификатор кодека                     : 2000
Продолжительность                        : 2 м. 46 с.
Вид битрейта                             : Постоянный
Битрейт                                  : 384 Кбит/сек
Каналы                                   : 2 канала
Расположение каналов                     : Front: L R
Частота                                  : 48,0 КГц
Битовая глубина                          : 16 бит
Метод сжатия                             : С потерями
Задержка видео                           : 24 мс.
Размер потока                            : 7,62 Мбайт (16%)
Выравнивание                             : Разделение по промежуткам
Продолжительность промежутка             : 40  мс. (1,00 видеокадр)
Время предзагрузки промежутка            : 500  мс.
Скриншоты:
Все релизы ABBA - The Definitive Collection на NNM-Club

Время раздачи: По выходным 12-24, иногда вечером в будни
 
Не забывайте говорить Спасибо. Не уходите с раздачи!   
Торрент: Зарегистрирован [01 мар 2015, 12:58] Скачать торрент
Скачать торрент
[ Размер 14.46 КБ / Просмотров 35 ]
Статус:
Проверен
 
.torrent скачан: 3 раз
Хэш: cf8d18401f94b87159fda3c363b79ad463511553
Размер: 2.29 ГБ (2 458 941 440 байт)
Стать Автором раздачи
 
 
Раздал: 6.67 ГБ
Скачал: 302.5 МБ
Ратио: 22.576
Сообщения: 374198
Зарегистрирован: 17 апр 2014, 11:05


  • Похожие торренты
    Ответы
    Просмотры
    Последнее сообщение

Вернуться в Музыкальные клипы (транзит)

Ресурс не предоставляет электронные версии произведений, а занимается лишь коллекционированием и каталогизацией ссылок, присылаемых и публикуемых на форуме нашими читателями. Если вы являетесь правообладателем какого-либо представленного материала и не желаете чтобы ссылка на него находилась в нашем каталоге, свяжитесь с нами и мы незамедлительно удалим её. Файлы для обмена на трекере предоставлены пользователями сайта, и администрация не несёт ответственности за их содержание. Просьба не заливать файлы, защищенные авторскими правами, а также файлы нелегального содержания!
cron