[VIDEO] Пряности и страсти / The Hundred-Foot Journey (Лассе Халльстрём / Lasse Hallström) [2014, драма, комедия, HDRip] [MP4, 960x] Dub, Original, Sub Rus

 
 Статистика раздачи 
Размер: 1.47 ГБ   |  Зарегистрирован: 28 фев 2015, 15:52   |   .torrent скачан: 0 раз
Сидеров: 1  [ 0 байт/сек ]     Личеров: 3  [ 0 байт/сек ]  
  

[VIDEO] Пряности и страсти / The Hundred-Foot Journey (Лассе Халльстрём / Lasse Hallström) [2014, драма, комедия, HDRip] [MP4, 960x] Dub, Original, Sub Rus

Сообщение Satch » 28 фев 2015, 15:52

Пряности и страсти
The Hundred-Foot Journey

Год выпуска: 2014
Страна: Индия, ОАЭ, США (Touchstone Pictures, Harpo Films, Reliance Entertainment)
Жанр: Драма, комедия
Продолжительность: 02:02:30
Перевод: Профессиональный (дублированный)
Оригинальная дорожка: Английский
Cубтитры: Русские отключаемые, полные
Режиссер: Лассе Халльстрём / Lasse Hallström
В ролях: Хелен Миррен, Ом Пури, Маниш Дайал, Шарлотта Ле Бон, Амит Шах, Фарзана Дуа Элахе, Диллон Митра, Ариа Пандья, Мишель Блан, Клеман Сибони
Описание: Семья индийских эмигрантов, которых судьба забросила в маленький городок в Провансе, решает открыть кафе с восточной кухней... прямо напротив знаменитого на всю округу ресторана «Плакучая ива», бастиона французских кулинарных традиций, хозяйка которого, Мадам Малори, больше всего на свете гордится тем, что её заведение удостоено звезды в каталоге «Мишлен».

Качество: HDRip (Рип с BDRip 1080p)
Формат: MP4
Видео: AVC, 960x400 (2.40:1), 1451 kbps, 23.976 fps
Аудио 1: Русский, AAC, 2 ch, 48 kHz, 128 kbps [Dub]
Аудио 2: Английский, AAC, 2 ch, 48 kHz, 128 kbps [Original]
Фильм снят по роману «Путь длиною в сто шагов» (The Hundred-Foot Journey) Ричарда Ч. Мораиса.
Во время поисков экстерьеров ресторана «Усадьба Мумбаи» скауты надеялись найти здание вблизи дороги, чтобы можно было впоследствии сделать окружение ресторана максимально похожим на экстерьер «Плакучей ивы». Был найден большой нежилой дом в городе Карлюс с населением всего в 650 человек. Город находился в десяти километрах от Сент-Антонена. К сожалению, дом находился вдали от дороги, однако хозяин любезно разрешил рабочим съемочной группы проложить дорогу и обнести постройку стеной из фальшивого камня. Более того, фермер даже позволил выстроить фасад «Плакучей ивы» на другой стороне дороги, прямо в одном из его полей. Сцены, действие которых происходило между двумя ресторанами, снималось на этой проложенной кинематографистами дороге. Двухэтажный каркас «Плакучей ивы» окружал массивный хромакейный экран. Кроме того, для удерживания внушительной осветительной установки использовался огромный кран высотой с пятиэтажный дом.
Фильм снимался на живописном юге Франции, в полном соответствии с описанными в сценарии пейзажами Южных Пиренеев. Рестораны «Плакучая ива» и «Усадьба Мумбаи» были выстроены в городке Сент-Антонен-Нобль-Валь. Кроме того, интерьеры ресторанов снимались в домах соседнего городка Карлю.
Когда в фильме Гассан делает омлет для мадам Малори, он пользуется рецептом, по которому отец актера Маниша Дайала, исполняющего роль Гассана, делал омлет своему сыну.
Каждый уик-энд во время съемок актер Ом Пури приглашал коллег домой и потчевал традиционными индийскими блюдами. На этих званых ужинах все актеры передружились, что сделало отношения их героев более естественными.
Локацией идеально подошедшей для съемок экстерьеров «Плакучей ивы» стал небольшой деревенский дом в сельской местности невдалеке от проселочной дороги, элегантная постройка XIX века, спрятанная за массивными живыми изгородями. Здание в буржуазном архитектурном стиле, которое называется Ла Дюранти, было выстроено на рубеже столетий двумя сестрами. Интерьеры постройки использовались для съемки сцен в спальне мадам Малори, а также сцен в самом ресторане (кухня «Плакучей ивы» впоследствии была выстроена в павильоне киностудии).
Съемки во Франции продолжались 52 дня. И еще четыре дня съемочная группа отработала в Индии.
Золотой глобус, 2015 год
Номинации (1):
Лучшая женская роль (комедия или мюзикл) (Хелен Миррен)
x264 [info]: frame I:1217 Avg QP:14.62 size: 70398
x264 [info]: frame P:35475 Avg QP:18.21 size: 19418
x264 [info]: frame B:139528 Avg QP:21.25 size: 4003

x264 [total]: encoded 176220 frames, 8.11 fps, 1450.96 kb/s
General
Complete name : [VIDEO] The.Hundred.Foot.Journey.2014.HDRip.x264.960x(semen_52-TNC).mp4
Format : MPEG-4
Format profile : Base Media
Codec ID : isom
File size : 1.47 GiB
Duration : 2h 2mn
Overall bit rate mode : Variable
Overall bit rate : 1 716 Kbps
Movie name : [VIDEO] The Hundred Foot Journey 2014 HDRip x264 960x(semen_52-TNC)
ContentType : Short Film
Encoded date : UTC 2015-02-28 07:54:26
Tagged date : UTC 2015-02-28 07:55:55
Writing application : MkvToMp4 version: 0.224 (x64)
Comment : Rip by semen_52-TNC

Video
ID : 1
Format : AVC
Format/Info : Advanced Video Codec
Format profile :
Format settings, CABAC : Yes
Format settings, ReFrames : 8 frames
Codec ID : avc1
Codec ID/Info : Advanced Video Coding
Duration : 2h 2mn
Bit rate : 1 451 Kbps
Maximum bit rate : 8 420 Kbps
Width : 960 pixels
Height : 400 pixels
Display aspect ratio : 2.40:1
Frame rate mode : Constant
Frame rate : 23.976 fps
Color space : YUV
Chroma subsampling : 4:2:0
Bit depth : 8 bits
Scan type : Progressive
Bits/(Pixel*Frame) : 0.158
Stream size : 1.24 GiB (84%)
Writing library : x264 core 130 r2273 b3065e6
Encoding settings : cabac=1 / ref=8 / deblock=1:-3:-3 / analyse=0x3:0x133 / me=esa / subme=9 / psy=1 / psy_rd=1.00:0.10 / mixed_ref=1 / me_range=32 / chroma_me=1 / trellis=2 / 8x8dct=1 / cqm=0 / deadzone=21,11 / fast_pskip=0 / chroma_qp_offset=-3 / threads=12 / lookahead_threads=2 / sliced_threads=0 / nr=0 / decimate=1 / interlaced=0 / bluray_compat=0 / constrained_intra=0 / bframes=11 / b_pyramid=2 / b_adapt=2 / b_bias=0 / direct=1 / weightb=1 / open_gop=0 / weightp=2 / keyint=250 / keyint_min=25 / scenecut=40 / intra_refresh=0 / rc_lookahead=60 / rc=crf / mbtree=1 / crf=18.5 / qcomp=0.60 / qpmin=0 / qpmax=69 / qpstep=4 / ip_ratio=1.40 / aq=1:0.90
Language : English
Encoded date : UTC 2015-02-28 07:54:26
Tagged date : UTC 2015-02-28 07:54:56

Audio #1
ID : 2
Format : AAC
Format/Info : Advanced Audio Codec
Format profile : LC
Codec ID : 40
Duration : 2h 2mn
Bit rate mode : Variable
Bit rate : 128 Kbps
Maximum bit rate : 135 Kbps
Channel(s) : 2 channels
Channel positions : Front: L R
Sampling rate : 48.0 KHz
Compression mode : Lossy
Stream size : 112 MiB (7%)
Title : Dub / Dub
Language : Russian
Encoded date : UTC 2015-02-28 07:54:43
Tagged date : UTC 2015-02-28 07:54:56

Audio #2
ID : 3
Format : AAC
Format/Info : Advanced Audio Codec
Format profile : LC
Codec ID : 40
Duration : 2h 2mn
Bit rate mode : Variable
Bit rate : 128 Kbps
Maximum bit rate : 135 Kbps
Channel(s) : 2 channels
Channel positions : Front: L R
Sampling rate : 48.0 KHz
Compression mode : Lossy
Stream size : 112 MiB (7%)
Title : Original / Original
Language : English
Encoded date : UTC 2015-02-28 07:54:50
Tagged date : UTC 2015-02-28 07:54:56

Text
ID : 4
Format : Timed Text
Muxing mode : sbtl
Codec ID : tx3g
Duration : 1h 55mn
Bit rate mode : Variable
Bit rate : 74 bps
Stream size : 63.2 KiB (0%)
Title : Full / Full
Language : Russian
Encoded date : UTC 2015-02-28 07:54:56
Tagged date : UTC 2015-02-28 07:54:56
 
Не забывайте говорить Спасибо. Не уходите с раздачи!   
Торрент: Зарегистрирован [28 фев 2015, 15:52] Для скачивания .torrent
необходима регистрация
Или скачать с помощью
MediaGet
Статус:
Проверен
 
.torrent скачан: 0 раз
Хэш: 8933aa826ba21f427813d3ed178767471fb9452f
Размер: 1.47 ГБ (1 578 851 930 байт)
Стать Автором раздачи
 
Аватара пользователя
 
Раздал: 2.45 ГБ
Скачал: 15.94 МБ
Ратио: 157.696
Сообщения: 337733
Зарегистрирован: 16 янв 2012, 17:03


  • Похожие торренты
    Ответы
    Просмотры
    Последнее сообщение

Вернуться в Видео для мобильных устройств

Ресурс не предоставляет электронные версии произведений, а занимается лишь коллекционированием и каталогизацией ссылок, присылаемых и публикуемых на форуме нашими читателями. Если вы являетесь правообладателем какого-либо представленного материала и не желаете чтобы ссылка на него находилась в нашем каталоге, свяжитесь с нами и мы незамедлительно удалим её. Файлы для обмена на трекере предоставлены пользователями сайта, и администрация не несёт ответственности за их содержание. Просьба не заливать файлы, защищенные авторскими правами, а также файлы нелегального содержания!
cron