Rammstein - Feuer Frei! (Live at Gilford, USA) (2001) VHS-Rip

 
 Статистика раздачи 
Размер: 213.19 МБ   |  Зарегистрирован: 27 фев 2015, 08:51   |   .torrent скачан: 0 раз
Сидеров: 1  [ 0 байт/сек ]     Личеров: 0  [ 0 байт/сек ]  
  

Rammstein - Feuer Frei! (Live at Gilford, USA) (2001) VHS-Rip

Сообщение Thistoll » 27 фев 2015, 08:51

Rammstein - Feuer Frei! (Live at Gilford, USA) (2001) DVD5

Жанр: Industrial Metal
Актеры: Тилль Линдеманн, Рихард Круспе, Пауль Ландерс, Оливер Ридель, Кристоф Шнайдер, Кристиан Лоренц

Продолжительность: 00:03:22
Качество видео: VHS-Rip
Сэмпл: Ссылка

Видеокодек: MPEG-2
Битрейт видео: ~8 500 Kbps
Размер кадра: 704x576 (AR 4:3)
Аудиокодек: MPEG Audio
Битрейт аудио: 224 Kbps

Скриншоты:
Код:
Код: Выделить всё
Общее
Полное имя                               : D:\Live\Rammstein - Feuer Frei! (Live at Gilford, USA) (2001).VOB
Формат                                   : MPEG-PS
Размер файла                             : 213 Мбайт
Продолжительность                        : 3 м. 22 с.
Режим общего битрейта                    : Переменный
Общий поток                              : 8842 Кбит/сек
Библиотека кодирования                   : (c) 1998-2008 Womble Multimedia, Inc. / MPEG Video Wizard (08/2008) / Dec 31 2008

Видео
Идентификатор                            : 224 (0xE0)
Формат                                   : MPEG Video
Версия формата                           : Version 2
Профиль формата                          : Main@Main
Параметр BVOP формата                    : Да
Параметр матрицы формата                 : Выборочная
Параметр GOP формата                     : Variable
Продолжительность                        : 3 м. 22 с.
Вид битрейта                             : Переменный
Битрейт                                  : 8500 Кбит/сек
Ширина                                   : 720 пикселей
Высота                                   : 576 пикселей
Соотношение сторон                       : 4:3
Частота кадров                           : 25,000 кадров/сек
Стандарт вещания                         : PAL
Цветовое пространство                    : YUV
Субдискретизация насыщенности            : 4:2:0
Битовая глубина                          : 8 бит
Тип развёртки                            : Прогрессивная
Метод сжатия                             : С потерями
Бит/(Пиксели*Кадры)                      : 0.820
Временной код первого кадра              : 00:00:00:00
Оригинал временного кода                 : Group of pictures header
Размер потока                            : 204 Мбайт (95%)
Библиотека кодирования                   : (c) 1998-2008 Womble Multimedia, Inc. / MPEG Video Wizard (08/2008) / Dec 31 2008
Основные цвета                           : BT.601 NTSC
Характеристики трансфера                 : BT.601
Коэффициенты матрицы                     : BT.601
Gop_OpenClosed_FirstFrame                : Closed

Аудио
Идентификатор                            : 192 (0xC0)
Формат                                   : MPEG Audio
Версия формата                           : Version 1
Профиль формата                          : Layer 2
Продолжительность                        : 3 м. 22 с.
Вид битрейта                             : Постоянный
Битрейт                                  : 224 Кбит/сек
Каналы                                   : 2 канала
Частота                                  : 48,0 КГц
Метод сжатия                             : С потерями
Размер потока                            : 5,40 Мбайт (3%)

Меню
Время раздачи: с 20:00 до 9:00
 
Не забывайте говорить Спасибо. Не уходите с раздачи!   
Торрент: Зарегистрирован [27 фев 2015, 08:51] Скачать торрент
Скачать торрент
[ Размер 17.37 КБ / Просмотров 28 ]
Статус:
Проверен
 
.torrent скачан: 0 раз
Хэш: 574070a4bc03503255c87c18371465fefb0ce15b
Размер: 213.19 МБ (223 545 344 байт)
Стать Автором раздачи
 
 
Раздал: 6.67 ГБ
Скачал: 302.5 МБ
Ратио: 22.576
Сообщения: 374198
Зарегистрирован: 17 апр 2014, 11:05


  • Похожие торренты
    Ответы
    Просмотры
    Последнее сообщение

Вернуться в Музыкальные клипы (транзит)

Ресурс не предоставляет электронные версии произведений, а занимается лишь коллекционированием и каталогизацией ссылок, присылаемых и публикуемых на форуме нашими читателями. Если вы являетесь правообладателем какого-либо представленного материала и не желаете чтобы ссылка на него находилась в нашем каталоге, свяжитесь с нами и мы незамедлительно удалим её. Файлы для обмена на трекере предоставлены пользователями сайта, и администрация не несёт ответственности за их содержание. Просьба не заливать файлы, защищенные авторскими правами, а также файлы нелегального содержания!
cron