[SERIAL] Под куполом / Under The Dome / Сезон: 2 / Серии: 1-13 (13) (Джек Бендер, Нильс Арден Оплев) [2014, фантастика, ужасы, WEB-DLRip] [MP4, 800x] MVO Lostfilm

 
 Статистика раздачи 
Размер: 4.25 ГБ   |  Зарегистрирован: 25 фев 2015, 00:40   |   .torrent скачан: 0 раз
Сидеров: 1  [ 0 байт/сек ]     Личеров: 2  [ 0 байт/сек ]  
  

[SERIAL] Под куполом / Under The Dome / Сезон: 2 / Серии: 1-13 (13) (Джек Бендер, Нильс Арден Оплев) [2014, фантастика, ужасы, WEB-DLRip] [MP4, 800x] MVO Lostfilm

Сообщение Satch » 25 фев 2015, 00:40

Под куполом / Under The Dome


Год выпуска: 2014

Страна: США
Жанр: фантастика, ужасы
Продолжительность: ~ 42 минуты
Перевод: Профессиональный (многоголосый закадровый) Lostfilm
Cубтитры: нет

Режиссер: Джек Бендер, Нильс Арден Оплев

В ролях: Майк Фогель, Колин Форд, Аиша Хиндс, Александр Кох, Рашель Лефевр, Натали Мартинез, Дин Норрис, Джолин Парди, Бриттани Робертсон, Николас Стронг и др.

Описание: Сериал по Стивену Кингу. Обычным пригожим летним днем город Честерс-Миллз, штат Мэн, был внезапно отрезан от остального мира невидимым силовым барьером. Всё, что ни врезается в него - разлетается вдребезги, нисколько его не повреждая; садовнику отрезает руку этим внезапно возникшим силовым полем, люди, выехавшие в соседний город по делам, не могут вернуться к своим близким. Никто не понимает, что это за барьер, откуда он взялся и исчезнет ли он. Несколько сотен людей почти совсем отрезаны куполом от остального мира и предоставлены только самим себе. Ни с одной из сторон нельзя проникнуть через купол, который не пропускает никаких звуков, только свет и минимальные, случайные обрывки радиосигнала. Со внешней стороны к куполу ввиду ощущаемой угрозы никто не приближается, только военные и то изредка. Оставшиеся под куполом должны решить проблему выживания в полной изоляции от внешнего мира.

Качество: WEB-DLRip
Формат: MP4
Видео: H.264 800x450 (16:9) 23.976fps 1000Kbps
Аудио: AAC 48000Hz 128Kbps stereo 2ch
Format : MPEG-4Format profile : Base Media / Version 2Codec ID : mp42File size : 354 MiBDuration : 43mn 38sOverall bit rate mode : VariableOverall bit rate : 1 133 KbpsEncoded date : UTC 2015-02-21 15:40:20Tagged date : UTC 2015-02-21 16:16:41Writing application : HandBrake 0.9.9 2013052900

VideoID : 1Format : AVCFormat/Info : Advanced Video CodecFormat profile : settings, CABAC : YesFormat settings, ReFrames : 12 framesCodec ID : avc1Codec ID/Info : Advanced Video CodingDuration : 43mn 38sBit rate : 1 000 KbpsWidth : 800 pixelsHeight : 450 pixelsDisplay aspect ratio : 16:9Frame rate mode : VariableFrame rate : 23.976 fpsMinimum frame rate : 23.810 fpsMaximum frame rate : 1 000.000 fpsColor space : YUVChroma subsampling : 4:2:0Bit depth : 8 bitsScan type : ProgressiveBits/(Pixel*Frame) : 0.116Stream size : 312 MiB (88%)Writing library : x264 core 130 r2273 b3065e6Encoding settings : cabac=1 / ref=12 / deblock=1:-1:-1 / analyse=0x1:0x131 / me=umh / subme=10 / psy=1 / psy_rd=1.00:0.15 / mixed_ref=1 / me_range=24 / chroma_me=1 / trellis=2 / 8x8dct=0 / cqm=0 / deadzone=21,11 / fast_pskip=1 / chroma_qp_offset=-3 / threads=12 / lookahead_threads=2 / sliced_threads=0 / nr=0 / decimate=1 / interlaced=0 / bluray_compat=0 / constrained_intra=0 / bframes=8 / b_pyramid=2 / b_adapt=2 / b_bias=0 / direct=3 / weightb=1 / open_gop=0 / weightp=2 / keyint=240 / keyint_min=24 / scenecut=40 / intra_refresh=0 / rc_lookahead=60 / rc=2pass / mbtree=1 / bitrate=1000 / ratetol=1.0 / qcomp=0.60 / qpmin=0 / qpmax=69 / qpstep=4 / cplxblur=20.0 / qblur=0.5 / vbv_maxrate=14000 / vbv_bufsize=14000 / nal_hrd=none / ip_ratio=1.40 / aq=1:1.00Encoded date : UTC 2015-02-21 15:40:20Tagged date : UTC 2015-02-21 16:16:41Color primaries : BT.709Transfer characteristics : BT.709Matrix coefficients : BT.709

AudioID : 2Format : AACFormat/Info : Advanced Audio CodecFormat profile : LCCodec ID : 40Duration : 43mn 38sBit rate mode : VariableBit rate : 128 KbpsMaximum bit rate : 286 KbpsChannel(s) : 2 channelsChannel positions : Front: L RSampling rate : 48.0 KHzCompression mode : LossyStream size : 39.9 MiB (11%)Encoded date : UTC 2015-02-21 15:40:20Tagged date : UTC 2015-02-21 16:16:40
 
Не забывайте говорить Спасибо. Не уходите с раздачи!   
Торрент: Зарегистрирован [25 фев 2015, 00:40] Для скачивания .torrent
необходима регистрация
Или скачать с помощью
MediaGet
Статус:
Проверен
 
.torrent скачан: 0 раз
Хэш: ba8e5f131405dd16a939bc395acb99057b35b19a
Размер: 4.25 ГБ (4 560 146 469 байт)
Стать Автором раздачи
 
Аватара пользователя
 
Раздал: 2.45 ГБ
Скачал: 15.94 МБ
Ратио: 157.696
Сообщения: 337733
Зарегистрирован: 16 янв 2012, 17:03


  • Похожие торренты
    Ответы
    Просмотры
    Последнее сообщение

Вернуться в Видео для мобильных устройств

Ресурс не предоставляет электронные версии произведений, а занимается лишь коллекционированием и каталогизацией ссылок, присылаемых и публикуемых на форуме нашими читателями. Если вы являетесь правообладателем какого-либо представленного материала и не желаете чтобы ссылка на него находилась в нашем каталоге, свяжитесь с нами и мы незамедлительно удалим её. Файлы для обмена на трекере предоставлены пользователями сайта, и администрация не несёт ответственности за их содержание. Просьба не заливать файлы, защищенные авторскими правами, а также файлы нелегального содержания!
cron