Scorpions - We Built This House (2015) [H.264/1080p] WEBRip

 
 Статистика раздачи 
Размер: 99.23 МБ   |  Зарегистрирован: 23 фев 2015, 02:57   |   .torrent скачан: 1 раз
Сидеров: 1  [ 0 байт/сек ]     Личеров: 0  [ 0 байт/сек ]  
  

Scorpions - We Built This House (2015) [H.264/1080p] WEBRip

Сообщение Thistoll » 23 фев 2015, 02:57

Scorpions - We Built This House (2015) [H.264/1080p] WEBRip

Исполнитель: Scorpions
Год выпуска: 2015
Жанр: Rock
Продолжительность: 00:03:52

Описание: Известная немецкая группа Scorpions представила новый Видеоклип We Built This House. Видео снято в честь 50-летия группы. Да-да, Scorpions уже полвека радуют поклонников рок-музыки своим творчеством. Они горячо любимы и узнаваемы во всем мире. Scorpions во главе со своим лидером и создателем Рудольфом Шенкером – это успешный бренд. Эту группу любят в Европе, в США, на постсоветском пространстве.

Качество видео: WEBRip [1080p]
Видеокодек: MPEG-4 AVC/H.264
Битрейт видео: ~ 3325 Кбит/с
Размер кадра: 1920x1080 (16:9), 25,000 кадров/с
Аудиокодек: AAC, 2 ch, stereo
Битрейт аудио: 254 Кбит/с
Код:
Код: Выделить всё
Общее
Полное имя                               : Scorpions - We Built This House..mp4
Формат                                   : MPEG-4
Профиль формата                          : Base Media / Version 2
Идентификатор кодека                     : mp42
Размер файла                             : 99,2 Мбайт
Продолжительность                        : 3 м. 52 с.
Режим общего битрейта                    : Переменный
Общий поток                              : 3583 Кбит/сек

Видео
Идентификатор                            : 1
Формат                                   : AVC
Формат/Информация                        : Advanced Video Codec
Профиль формата                          :
Параметр CABAC формата                   : Да
Параметр ReFrames формата                : 2 кадра
Идентификатор кодека                     : avc1
Идентификатор кодека/Информация          : Advanced Video Coding
Продолжительность                        : 3 м. 52 с.
Продолжительность оригинала              : 3 м. 52 с.
Битрейт                                  : 3325 Кбит/сек
Ширина                                   : 1920 пикселей
Высота                                   : 1080 пикселей
Соотношение сторон                       : 16:9
Режим частоты кадров                     : Постоянный
Частота кадров                           : 25,000 кадров/сек
Цветовое пространство                    : YUV
Субдискретизация насыщенности            : 4:2:0
Битовая глубина                          : 8 бит
Тип развёртки                            : Прогрессивная
Бит/(Пиксели*Кадры)                      : 0.064
Размер потока                            : 92,1 Мбайт (93%)
Размер потока оригинала                  : 92,1 Мбайт (93%)
Язык                                     : English
mdhd_Duration                            : 232280

Аудио
Идентификатор                            : 2
Формат                                   : AAC
Формат/Информация                        : Advanced Audio Codec
Профиль формата                          : LC
Идентификатор кодека                     : 40
Продолжительность                        : 3 м. 52 с.
Продолжительность оригинала              : 3 м. 52 с.
Вид битрейта                             : Переменный
Битрейт                                  : 254 Кбит/сек
Каналы                                   : 2 канала
Расположение каналов                     : Front: L R
Частота                                  : 44,1 КГц
Метод сжатия                             : С потерями
Размер потока                            : 7,02 Мбайт (7%)
Размер потока оригинала                  : 7,02 Мбайт (7%)
Язык                                     : English
mdhd_Duration                            : 232315
Скриншоты:
 
Не забывайте говорить Спасибо. Не уходите с раздачи!   
Торрент: Зарегистрирован [23 фев 2015, 02:57] Скачать торрент
Скачать торрент
[ Размер 16.19 КБ / Просмотров 19 ]
Статус:
Проверен
 
.torrent скачан: 1 раз
Хэш: ede2f7ded99ad5e120d31daa23c2ff6ad93d2799
Размер: 99.23 МБ (104 045 798 байт)
Стать Автором раздачи
 
 
Раздал: 6.67 ГБ
Скачал: 302.5 МБ
Ратио: 22.576
Сообщения: 374198
Зарегистрирован: 17 апр 2014, 11:05


  • Похожие торренты
    Ответы
    Просмотры
    Последнее сообщение

Вернуться в Музыкальные клипы (транзит)

Ресурс не предоставляет электронные версии произведений, а занимается лишь коллекционированием и каталогизацией ссылок, присылаемых и публикуемых на форуме нашими читателями. Если вы являетесь правообладателем какого-либо представленного материала и не желаете чтобы ссылка на него находилась в нашем каталоге, свяжитесь с нами и мы незамедлительно удалим её. Файлы для обмена на трекере предоставлены пользователями сайта, и администрация не несёт ответственности за их содержание. Просьба не заливать файлы, защищенные авторскими правами, а также файлы нелегального содержания!
cron