Истребители Второй Мировой войны (2013) DVDRip [Фильм: 1-4 из 4]

 
 Статистика раздачи 
Размер: 2.12 ГБ   |  Зарегистрирован: 20 фев 2015, 23:44   |   .torrent скачан: 266 раз
Сидеров: 14  [ 0 байт/сек ]     Личеров: 1  [ 0 байт/сек ]  
  

Истребители Второй Мировой войны (2013) DVDRip [Фильм: 1-4 из 4]

Сообщение Thistoll » 20 фев 2015, 23:44

Истребители Второй Мировой войны (2013) DVDRip [Фильм: 1-4 из 4]

Телекомпания: Россия, Студия «Крылья России»
Жанр: Документальный, история, авиация, вооружение

Описание:
«Мустанги» и «Спитфайры», «Яки» и «Лавочкины», «Мессершмитты» и «Зеро». Это названия истребителей Второй Мировой войны - войны моторов и скоростей. Мировые державы, опираясь на самые передовые достижения науки и техники, создали грозные боевые машины. Каждая из них интересна по своему и каждая занимает своё место в истории военной техники. В сериале представлены истребители СССР, Германии, Франции, Италии, Японии, США, Великобритании.

Доп. информация: DVDRip by alf62


ОГРОМНОЕ СПАСИБО Dog67 за предоставленный первоисточник ДВД!

Продолжительность: 4 x ~ 00:38:00
Качество видео: DVDRip

Видеокодек: DivX 5
Битрейт видео: ~1797 kb/s
Размер кадра: 720x400
Аудиокодек: AC3
Битрейт аудио: 192 kb/s (2 канала, stereo) CBR
Фильм 1
«Мустанги» и «Спитфайры», «Яки» «Лавочкины», «Мессершмитты» и «Зеро». Это название истребителей Второй Мировой войны – войны моторов и скоростей. Мировые державы, опираясь на самые передовые достижения науки и техники, создали грозные боевые машины. Фильм рассказывает об истребителях нового поколения, появившихся в предвоенные годы и вступивших в боевые действия на начальном этапе Второй Мировой.

Фильм 2
Пожар Второй Мировой разгорался. Всё новые и новые государства вступали в эту войну. Это расширило палитру применяемой военной техники, в том числе и самолётов-истребителей. В этом фильме показаны самолёты, поступившие на вооружение авиации Италии и немецких Люфтваффе. Рассказывается и о советских истребителях первого периода Великой Отечественной войны и машинах, которые союзники поставляли в СССР по ленд-лизу.

Фильм 3
В годы войны шло непрерывное совершенствование авиационной техники. Это касалось и самолётов-истребителей. Появились не только новые модификации, но и новые типы таких машин. Для защиты бомбардировщиков, совершавших рейды в глубокий тыл противника, стали применяться истребители сопровождения, обладавшие большой дальностью полёта. В тёмное время суток действовали ночные перехватчики, оснащённые технической новинкой тех лет – радиолокатором.

Фильм 4
Местом боевых действий во время Второй Мировой войны были не только суша, но и бескрайние океанские просторы. Палубная авиация сыграла большую роль в противостоянии Соединённых Штатов и Японии. Во второй половине войны на вооружение поступили машины с ещё более высокими характеристиками. Но век поршневых истребителей заканчивался. Наступала реактивная эра.
Istrebiteli.Vtoroj.Mirovoj.vojny.(4.serii.iz.4).2013.DivX.DVDRip.alf62\Istrebiteli.Vtoroj.Mirovoj.vojny.(1.serija.iz.4).2013.DivX.DVDRip.alf62.avi
Формат : AVI
Формат/Информация : Audio Video Interleave
Размер файла : 542 Мбайт
Продолжительность : 37 м.
Общий поток : 1999 Кбит/сек
Программа кодирования : VirtualDubMod 1.5.10.3 | (build 2550/release)
Библиотека кодирования : VirtualDubMod build 2550/release

Видео
Идентификатор : 0
Формат : MPEG-4 Visual
Профиль формата : Advanced [email protected]
Параметр BVOP формата : 2
Параметр QPel формата : Нет
Параметр GMC формата : Без точки перехода
Параметр матрицы формата : Default (H.263)
Идентификатор кодека : DX50
Идентификатор кодека/Подсказка : DivX 5
Продолжительность : 37 м.
Битрейт : 1797 Кбит/сек
Ширина : 720 пикселей
Высота : 400 пикселей
Соотношение сторон : 16:9
Частота кадров : 25,000 кадров/сек
Цветовое пространство : YUV
Субдискретизация насыщенности : 4:2:0
Битовая глубина : 8 бит
Тип развёртки : Прогрессивная
Метод сжатия : С потерями
Бит/(Пиксели*Кадры) : 0.250
Размер потока : 488 Мбайт (90%)
Библиотека кодирования : XviD 73

Аудио
Идентификатор : 1
Формат : AC-3
Формат/Информация : Audio Coding 3
Расширение режима : CM (complete main)
Параметр Endianness формата : Big
Идентификатор кодека : 2000
Продолжительность : 37 м.
Вид битрейта : Постоянный
Битрейт : 192 Кбит/сек
Каналы : 2 канала
Расположение каналов : Front: L R
Частота : 48,0 КГц
Битовая глубина : 16 бит
Метод сжатия : С потерями
Размер потока : 52,1 Мбайт (10%)
Выравнивание : Разделение по промежуткам
Продолжительность промежутка : 40 мс. (1,00 видеокадр)
Время предзагрузки промежутка : 500 мс.
Скриншоты:


Время раздачи: 24/7 (круглосуточно)

 
Не забывайте говорить Спасибо. Не уходите с раздачи!   
Торрент: Зарегистрирован [20 фев 2015, 23:44] Для скачивания .torrent
необходима регистрация
Или скачать с помощью
MediaGet
Статус:
Проверен
 
.torrent скачан: 266 раз
Хэш: f44af4c16c4bbd0985ec02ca4dd60569912a912c
Размер: 2.12 ГБ (2 275 786 752 байт)
Стать Автором раздачи
 
 
Раздал: 6.67 ГБ
Скачал: 302.5 МБ
Ратио: 22.576
Сообщения: 374198
Зарегистрирован: 17 апр 2014, 11:05


  • Похожие торренты
    Ответы
    Просмотры
    Последнее сообщение

Вернуться в Крылья России

Кто сейчас на конференции

Сейчас эту тему просматривают: нет зарегистрированных пользователей и гости: 1

Ресурс не предоставляет электронные версии произведений, а занимается лишь коллекционированием и каталогизацией ссылок, присылаемых и публикуемых на форуме нашими читателями. Если вы являетесь правообладателем какого-либо представленного материала и не желаете чтобы ссылка на него находилась в нашем каталоге, свяжитесь с нами и мы незамедлительно удалим её. Файлы для обмена на трекере предоставлены пользователями сайта, и администрация не несёт ответственности за их содержание. Просьба не заливать файлы, защищенные авторскими правами, а также файлы нелегального содержания!