Флэш (The Flash) / (Сезон 1, серии 1-14 из 23) BaibaKo (2014) [MP4|720x400] <WEB-DLRip [H.264]>

 
 Статистика раздачи 
Размер: 7.9 ГБ   |  Зарегистрирован: 19 фев 2015, 10:02   |   .torrent скачан: 0 раз
Сидеров: 1  [ 0 байт/сек ]     Личеров: 0  [ 0 байт/сек ]  
  

Флэш (The Flash) / (Сезон 1, серии 1-14 из 23) BaibaKo (2014) [MP4|720x400] <WEB-DLRip [H.264]>

Сообщение Thistoll » 19 фев 2015, 10:02

Флэш (The Flash) / (Сезон 1, серии 1-14 из 23) BaibaKo (2014) WEB-DLRip
«Discover what makes a hero»

Жанр: фантастика, фэнтези, боевик, драма, приключения
Производство: США

Описание фильма:
Сериал основан на супергерое DC Comics по имени Флэш (Барри Аллен), борце с преступностью в костюме, который был создан Робертом Кнайгером, Джоном Брумом и Кармином Инфантино. Является спин-оффом сериала «Стрела» и происходит в той же вселенной.

Из-за несчастного случая судмедэксперт Барри Аллен приобретает способность передвигаться с невероятной скоростью. Этот случай делает из него супергероя, которым он всегда мечтал стать. Защищая город, как ангел-хранитель, делая невозможное, спасая жизни со скоростью вспышки, по подсказке Оливера Куина (Стрела), он берёт себе и соответствующее имя - Флэш...

Режиссер: Дэвид Наттер
Актеры: Грант Гастин, Кэндис Паттон, Рик Коснетт, Даниэль Панабэйкер, Карлос Вальдес, Томас Кэвэна, Джесси Л. Мартин, Джон Уэсли Шипп, Стивен Амелл, Ёсиэ Бэнкрофт и др.

Продолжительность: ~ 00:44:00 серия
Качество видео: WEB-DLRip

Перевод: Многоголосый закадровый, профессиональный - BaibaKo
Автор перевода: Наталья Черненко
Озвучка: Артемий Мирон, Владимир Курдов, Алексей Кузнецов, Светлана Доманова и Юлия Котурбаш

Сэмпл

Формат: MP4
Видеокодек: MPEG-4 AVC/H.264
Битрейт видео: ~1536 Кбит/сек
Размер кадра: 720x400 (16:9)
Аудио #1: AAC, 2 канала, 192 Кбит/сек - русский (многоголосый закадровый)
Аудио #2: AAC, 2 канала, 192 Кбит/сек - английский (оригинал)
Полное имя : D:\The_Flash_(all.sezon's)_WEBRip_x264_BaibaKo_[NNM-CLUB]\The.Flash.s01e01.WEB-DLRip.x264.Rus-Eng.BaibaKo.tv.mp4
Формат : MPEG-4
Профиль формата : Base Media
Идентификатор кодека : isom
Размер файла : 612 Мбайт
Продолжительность : 44 м.
Режим общего битрейта : Переменный
Общий поток : 1920 Кбит/сек
Дата кодирования : UTC 2014-10-08 10:29:12
Дата пометки : UTC 2014-10-08 10:29:12

Видео
Идентификатор : 1
Формат : AVC
Формат/Информация : Advanced Video Codec
Профиль формата :
Параметр CABAC формата : Нет
Параметр ReFrames формата : 3 кадра
Идентификатор кодека : avc1
Идентификатор кодека/Информация : Advanced Video Coding
Продолжительность : 44 м.
Битрейт : 1536 Кбит/сек
Максимальный битрейт : 9995 Кбит/сек
Ширина : 720 пикселей
Высота : 400 пикселей
Соотношение сторон : 16:9
Режим частоты кадров : Переменный
Частота кадров : 23,976 кадра/сек
Минимальная частота кадров : 23,974 кадра/сек
Максимальная частота кадров : 23,981 кадра/сек
Цветовое пространство : YUV
Субдискретизация насыщенности : 4:2:0
Битовая глубина : 8 бит
Тип развёртки : Прогрессивная
Бит/(Пиксели*Кадры) : 0.222
Размер потока : 490 Мбайт (80%)
Библиотека кодирования : x264 core 130 r2273 b3065e6
Настройки программы : cabac=0 / ref=3 / deblock=1:0:0 / analyse=0x1:0x111 / me=hex / subme=7 / psy=1 / psy_rd=1.00:0.00 / mixed_ref=1 / me_range=16 / chroma_me=1 / trellis=1 / 8x8dct=0 / cqm=0 / deadzone=21,11 / fast_pskip=1 / chroma_qp_offset=-2 / threads=12 / lookahead_threads=2 / sliced_threads=0 / nr=0 / decimate=1 / interlaced=0 / bluray_compat=0 / constrained_intra=0 / bframes=0 / weightp=0 / keyint=240 / keyint_min=24 / scenecut=40 / intra_refresh=0 / rc_lookahead=40 / rc=2pass / mbtree=1 / bitrate=1536 / ratetol=1.0 / qcomp=0.60 / qpmin=0 / qpmax=69 / qpstep=4 / cplxblur=20.0 / qblur=0.5 / ip_ratio=1.40 / aq=1:1.00
Дата кодирования : UTC 2014-10-08 07:34:04
Дата пометки : UTC 2014-10-08 10:30:09
Основные цвета : BT.709
Характеристики трансфера : BT.709
Коэффициенты матрицы : BT.709

Аудио #1
Идентификатор : 2
Формат : AAC
Формат/Информация : Advanced Audio Codec
Профиль формата : LC
Идентификатор кодека : 67
Продолжительность : 44 м.
Вид битрейта : Переменный
Битрейт : 192 Кбит/сек
Максимальный битрейт : 195 Кбит/сек
Каналы : 2 канала
Расположение каналов : Front: L R
Частота : 48,0 КГц
Метод сжатия : С потерями
Размер потока : 60,4 Мбайт (10%)
Язык : Russian
Дата кодирования : UTC 2014-10-08 10:30:00
Дата пометки : UTC 2014-10-08 10:30:09

Аудио #2
Идентификатор : 3
Формат : AAC
Формат/Информация : Advanced Audio Codec
Профиль формата : LC
Идентификатор кодека : 67
Продолжительность : 44 м.
Вид битрейта : Переменный
Битрейт : 192 Кбит/сек
Максимальный битрейт : 194 Кбит/сек
Каналы : 2 канала
Расположение каналов : Front: L R
Частота : 48,0 КГц
Метод сжатия : С потерями
Размер потока : 60,4 Мбайт (10%)
Язык : English
Дата кодирования : UTC 2014-10-08 10:30:05
Дата пометки : UTC 2014-10-08 10:30:09
01 - Пилот / Pilot
02 - Самый быстрый человек в мире / Fastest Man Alive
03 - Кое-что перегнать нельзя / Things You Can't Outrun
04 - Самоволка / Going Rogue
05 - ПластИк / Plastique
06 - Рождение Флэша / The Flash is Born
07 - Отключение электроэнергии / Power Outage
08 - Флэш против Стрелы / Flash vs Arrow
09 - Человек в жёлтом костюме / The Man In The Yellow Suit
10 - Месть негодяев / Revenge of the Rogues
11 - Звук и ярость / The Sound And The Fury
Внимание! Раздача ведётся путём добавления новых серий; при каждом добавлении создаётся новый торрент.
Чтобы начать докачку новой серии, пользователям необходимо сделать следующее:
1. Остановить скачивание;
2. Удалить старый торрент у себя из клиента (старые серии удалять не надо);
3. Скачать новый торрент и запустить его у себя в клиенте вместо старого, при этом указать клиенту путь в старую папку куда и должно происходить скачивание новых серий. Ваш клиент при этом должен произвести хеширование (проверку) старой папки и будет докачивать только те серии, которых у вас ещё нет. Старые серии при этом не удаляются, а продолжают раздаваться! Eсли вы уже удалили старые серии, то предотвратить повторную закачку старых серий можно, отжав галочку в соответствующих местах при запуске нового торрента.


Время раздачи:
24/7 - круглосуточно
(до первых 5-ти сидов - потом по возможности)
 
Не забывайте говорить Спасибо. Не уходите с раздачи!   
Торрент: Зарегистрирован [19 фев 2015, 10:02] Для скачивания .torrent
необходима регистрация
Или скачать с помощью
MediaGet
Статус:
Проверен
 
.torrent скачан: 0 раз
Хэш: c5e51bfed196a8f92c849efad0635ed74956779a
Размер: 7.9 ГБ (8 478 896 374 байт)
Стать Автором раздачи
 
 
Раздал: 6.67 ГБ
Скачал: 302.5 МБ
Ратио: 22.576
Сообщения: 374198
Зарегистрирован: 17 апр 2014, 11:05


  • Похожие торренты
    Ответы
    Просмотры
    Последнее сообщение

Вернуться в Видео для мобильных устройств

Ресурс не предоставляет электронные версии произведений, а занимается лишь коллекционированием и каталогизацией ссылок, присылаемых и публикуемых на форуме нашими читателями. Если вы являетесь правообладателем какого-либо представленного материала и не желаете чтобы ссылка на него находилась в нашем каталоге, свяжитесь с нами и мы незамедлительно удалим её. Файлы для обмена на трекере предоставлены пользователями сайта, и администрация не несёт ответственности за их содержание. Просьба не заливать файлы, защищенные авторскими правами, а также файлы нелегального содержания!
cron