VA - Зимний марафон № 156 / Видеоклипы (Наилучший Дансинг Всплесков) (2015) WEBRip [H.264/1080p-LQ]

 
 Статистика раздачи 
Размер: 3.04 ГБ   |  Зарегистрирован: 17 фев 2015, 13:55   |   .torrent скачан: 0 раз
Сидеров: 1  [ 0 байт/сек ]     Личеров: 0  [ 0 байт/сек ]  
  

VA - Зимний марафон № 156 / Видеоклипы (Наилучший Дансинг Всплесков) (2015) WEBRip [H.264/1080p-LQ]

Сообщение Satch » 17 фев 2015, 13:55

VA - Зимний марафон № 156 / (Наилучший Дансинг Всплесков) (2015) WEBRip

Русское название: Зимний марафон № 156
Оригинальное название: (Наилучший Дансинг Всплесков)
Год выпуска: 2015
Жанр: Pop, Dance, Latino, Country, Relax, Chill Out
Контейнер: MP4
Кол-во клипов: 25
Продолжительность: 01.31.14

Описание:
Зимние (14.02.2015) поп. новинки зарубежной эстрады. Не пропустите, держите новые треки.

Видеокодек: MPEG-4 AVC/H.264
Битрейт видео: 4.496 - 4.246 kbps avg, 0.087- 0.082 bit.pixel
Размер кадра: 1920x1080 (16:9), 25.000 fps
Качество видео: WEBRip
Аудиокодек: AAC, 2 ch, stereo
Битрейт аудио: 144 - 152 Kbps avg
1. Andreea D - Telegrama (Official Video) (00:04:06)
2. Avril Lavigne - Give You What You Like (Official Video) (00:03:44)
3. Babou - Manjana (Official Video) (00:03:06)
4. Besa ft. Mattyas - Amelia (Official Video) (00:03:11)
5. Brighi ft. The Guy - My reason (Official Video) (00:03:51)
6. Carrie Underwood - Little Toy Guns (Official Video) (00:04:12)
7. Cheryl - Only Human (Official Video) (00:03:41)
8. Cristiana - Spune-mi (Official Video) (00:03:10)
9. DJ Valdi, Marcos Rodríguez & Quique Tejada Ft. Estela Martin - Run Baby Run (Official Video) (00:03:35)
10. Enrique Iglesias ft. Pitbull - Let Me Be Your Lover (Official Video) (00:04:34)
11. Giorgio Moroder ft. Kylie Minogue - Right Here, Right Now (Official Video) (00:03:30)
12. Jay Love - My Favorite Girl (Official Video) (00:03:56)
13. Jessica Mauboy - The Day Before I Met You (Official Video) (00:03:55)
14. JO - Soapte (Official Video) (00:03:41)
15. Kelly Clarkson - Heartbeat Song (Official Video) (00:03:29)
16. Kirpi - Wind's Melody (Official Video) (00:04:26)
17. Le Youth - R E A L (Tough Love Remix) (Official Video) (00:03:22)
18. Madonna - Living For Love (Official Video) (00:04:05)
19. Mana & Shakira - Mi Verdad (Official Video) (00:04:33)
20. Medina - Når Intet Er Godt Nok (Official Video) (00:03:49)
21. Nicholle Rae - What Do You Want From Me (Official Video) (00:03:36)
22. Paulina Starborn - Paint Me (Official Video) (00:03:30)
23. Raluka - Never Give Up (Vannys & Adrian Funk Remix Edit) (Official Video) (00:03:16)
24. Smash Ft. Livingstone - The Edge (Official Video) (00:03:33)
25. Taylor Swift - Style (Official Video) (00:04:03)
Общее
Полное имя : E:\VA - Зимний марафон № 156 (Наилучший Дансинг Всплесков)\Andreea D - Telegrama (Official Video).mp4
Формат : MPEG-4
Профиль формата : Base Media
Идентификатор кодека : isom
Размер файла : 136 Мбайт
Продолжительность : 4 м. 6 с.
Режим общего битрейта : Переменный
Общий поток : 4620 Кбит/сек
Дата кодирования : UTC 2015-02-12 15:55:03
Дата пометки : UTC 2015-02-12 15:55:03
Программа кодирования : Lavf54.63.104

Видео
Идентификатор : 1
Формат : AVC
Формат/Информация : Advanced Video Codec
Профиль формата :
Параметр CABAC формата : Да
Параметр ReFrames формата : 1 кадр
Параметр GOP формата : N=1
Идентификатор кодека : avc1
Идентификатор кодека/Информация : Advanced Video Coding
Продолжительность : 4 м. 6 с.
Битрейт : 4496 Кбит/сек
Ширина : 1920 пикселей
Высота : 1080 пикселей
Соотношение сторон : 16:9
Режим частоты кадров : Постоянный
Частота кадров : 25,000 кадров/сек
Цветовое пространство : YUV
Субдискретизация насыщенности : 4:2:0
Битовая глубина : 8 бит
Тип развёртки : Прогрессивная
Бит/(Пиксели*Кадры) : 0.087
Размер потока : 131 Мбайт (97%)
Библиотека кодирования : x264 core 129
Настройки программы : cabac=1 / ref=1 / deblock=1:0:0 / analyse=0x1:0x131 / me=dia / subme=2 / psy=1 / psy_rd=1.00:0.00 / mixed_ref=0 / me_range=16 / chroma_me=1 / trellis=0 / 8x8dct=0 / cqm=0 / deadzone=21,11 / fast_pskip=1 / chroma_qp_offset=0 / threads=2 / lookahead_threads=1 / sliced_threads=0 / nr=0 / decimate=1 / interlaced=0 / bluray_compat=0 / constrained_intra=0 / bframes=0 / weightp=2 / keyint=250 / keyint_min=25 / scenecut=40 / intra_refresh=0 / rc_lookahead=40 / rc=abr / mbtree=1 / bitrate=4496 / ratetol=1.0 / qcomp=0.60 / qpmin=10 / qpmax=51 / qpstep=4 / ip_ratio=1.41 / aq=1:1.00
Дата кодирования : UTC 2015-02-12 15:55:03
Дата пометки : UTC 2015-02-12 15:55:03

Аудио
Идентификатор : 2
Формат : AAC
Формат/Информация : Advanced Audio Codec
Профиль формата : LC
Идентификатор кодека : 40
Продолжительность : 4 м. 6 с.
Duration_FirstFrame : 70 мс.
Вид битрейта : Переменный
Битрейт : 148 Кбит/сек
Максимальный битрейт : 176 Кбит/сек
Каналы : 2 канала
Расположение каналов : Front: L R
Частота : 44,1 КГц
Метод сжатия : С потерями
Размер потока : 4,35 Мбайт (3%)
Дата кодирования : UTC 2015-02-12 15:55:03
Дата пометки : UTC 2015-02-12 15:55:03
Общее
Полное имя : E:\VA - Зимний марафон № 156 (Наилучший Дансинг Всплесков)\Avril Lavigne - Give You What You Like (Official Video).mp4
Формат : MPEG-4
Профиль формата : Base Media
Идентификатор кодека : isom
Размер файла : 122 Мбайт
Продолжительность : 3 м. 44 с.
Режим общего битрейта : Переменный
Общий поток : 4552 Кбит/сек
Дата кодирования : UTC 2015-02-09 20:40:29
Дата пометки : UTC 2015-02-09 20:40:29
Программа кодирования : Lavf54.63.104

Видео
Идентификатор : 1
Формат : AVC
Формат/Информация : Advanced Video Codec
Профиль формата :
Параметр CABAC формата : Да
Параметр ReFrames формата : 1 кадр
Идентификатор кодека : avc1
Идентификатор кодека/Информация : Advanced Video Coding
Продолжительность : 3 м. 44 с.
Битрейт : 4496 Кбит/сек
Ширина : 1920 пикселей
Высота : 1080 пикселей
Соотношение сторон : 16:9
Режим частоты кадров : Постоянный
Частота кадров : 25,000 кадров/сек
Цветовое пространство : YUV
Субдискретизация насыщенности : 4:2:0
Битовая глубина : 8 бит
Тип развёртки : Прогрессивная
Бит/(Пиксели*Кадры) : 0.087
Размер потока : 117 Мбайт (97%)
Библиотека кодирования : x264 core 129
Настройки программы : cabac=1 / ref=1 / deblock=1:0:0 / analyse=0x1:0x131 / me=dia / subme=2 / psy=1 / psy_rd=1.00:0.00 / mixed_ref=0 / me_range=16 / chroma_me=1 / trellis=0 / 8x8dct=0 / cqm=0 / deadzone=21,11 / fast_pskip=1 / chroma_qp_offset=0 / threads=2 / lookahead_threads=1 / sliced_threads=0 / nr=0 / decimate=1 / interlaced=0 / bluray_compat=0 / constrained_intra=0 / bframes=0 / weightp=2 / keyint=250 / keyint_min=25 / scenecut=40 / intra_refresh=0 / rc_lookahead=40 / rc=abr / mbtree=1 / bitrate=4496 / ratetol=1.0 / qcomp=0.60 / qpmin=10 / qpmax=51 / qpstep=4 / ip_ratio=1.41 / aq=1:1.00
Дата кодирования : UTC 2015-02-09 20:40:29
Дата пометки : UTC 2015-02-09 20:40:29

Аудио
Идентификатор : 2
Формат : AAC
Формат/Информация : Advanced Audio Codec
Профиль формата : LC
Идентификатор кодека : 40
Продолжительность : 3 м. 44 с.
Duration_FirstFrame : 70 мс.
Вид битрейта : Переменный
Битрейт : 151 Кбит/сек
Максимальный битрейт : 176 Кбит/сек
Каналы : 2 канала
Расположение каналов : Front: L R
Частота : 44,1 КГц
Метод сжатия : С потерями
Размер потока : 4,03 Мбайт (3%)
Дата кодирования : UTC 2015-02-09 20:40:29
Дата пометки : UTC 2015-02-09 20:40:29
Общее
Полное имя : E:\VA - Зимний марафон № 156 (Наилучший Дансинг Всплесков)\Babou - Manjana (Official Video).mp4
Формат : MPEG-4
Профиль формата : Base Media
Идентификатор кодека : isom
Размер файла : 105 Мбайт
Продолжительность : 3 м. 6 с.
Режим общего битрейта : Переменный
Общий поток : 4744 Кбит/сек
Дата кодирования : UTC 2015-02-09 10:35:34
Дата пометки : UTC 2015-02-09 10:35:34
Программа кодирования : Lavf54.63.104

Видео
Идентификатор : 1
Формат : AVC
Формат/Информация : Advanced Video Codec
Профиль формата :
Параметр CABAC формата : Да
Параметр ReFrames формата : 1 кадр
Идентификатор кодека : avc1
Идентификатор кодека/Информация : Advanced Video Coding
Продолжительность : 3 м. 6 с.
Битрейт : 4496 Кбит/сек
Ширина : 1920 пикселей
Высота : 1080 пикселей
Соотношение сторон : 16:9
Режим частоты кадров : Постоянный
Частота кадров : 25,000 кадров/сек
Цветовое пространство : YUV
Субдискретизация насыщенности : 4:2:0
Битовая глубина : 8 бит
Тип развёртки : Прогрессивная
Бит/(Пиксели*Кадры) : 0.087
Размер потока : 102 Мбайт (97%)
Библиотека кодирования : x264 core 129
Настройки программы : cabac=1 / ref=1 / deblock=1:0:0 / analyse=0x1:0x131 / me=dia / subme=2 / psy=1 / psy_rd=1.00:0.00 / mixed_ref=0 / me_range=16 / chroma_me=1 / trellis=0 / 8x8dct=0 / cqm=0 / deadzone=21,11 / fast_pskip=1 / chroma_qp_offset=0 / threads=2 / lookahead_threads=1 / sliced_threads=0 / nr=0 / decimate=1 / interlaced=0 / bluray_compat=0 / constrained_intra=0 / bframes=0 / weightp=2 / keyint=250 / keyint_min=25 / scenecut=40 / intra_refresh=0 / rc_lookahead=40 / rc=abr / mbtree=1 / bitrate=4496 / ratetol=1.0 / qcomp=0.60 / qpmin=10 / qpmax=51 / qpstep=4 / ip_ratio=1.41 / aq=1:1.00
Дата кодирования : UTC 2015-02-09 10:35:34
Дата пометки : UTC 2015-02-09 10:35:34

Аудио
Идентификатор : 2
Формат : AAC
Формат/Информация : Advanced Audio Codec
Профиль формата : LC
Идентификатор кодека : 40
Продолжительность : 3 м. 6 с.
Duration_FirstFrame : 70 мс.
Вид битрейта : Переменный
Битрейт : 151 Кбит/сек
Максимальный битрейт : 176 Кбит/сек
Каналы : 2 канала
Расположение каналов : Front: L R
Частота : 44,1 КГц
Метод сжатия : С потерями
Размер потока : 3,37 Мбайт (3%)
Дата кодирования : UTC 2015-02-09 10:35:34
Дата пометки : UTC 2015-02-09 10:35:34
Общее
Полное имя : E:\VA - Зимний марафон № 156 (Наилучший Дансинг Всплесков)\Besa ft. Mattyas - Amelia (Official Video).mp4
Формат : MPEG-4
Профиль формата : Base Media
Идентификатор кодека : isom
Размер файла : 105 Мбайт
Продолжительность : 3 м. 11 с.
Режим общего битрейта : Переменный
Общий поток : 4608 Кбит/сек
Дата кодирования : UTC 2015-02-11 16:38:14
Дата пометки : UTC 2015-02-11 16:38:14
Программа кодирования : Lavf54.63.104

Видео
Идентификатор : 1
Формат : AVC
Формат/Информация : Advanced Video Codec
Профиль формата :
Параметр CABAC формата : Да
Параметр ReFrames формата : 1 кадр
Идентификатор кодека : avc1
Идентификатор кодека/Информация : Advanced Video Coding
Продолжительность : 3 м. 11 с.
Битрейт : 4496 Кбит/сек
Ширина : 1920 пикселей
Высота : 1080 пикселей
Соотношение сторон : 16:9
Режим частоты кадров : Постоянный
Частота кадров : 25,000 кадров/сек
Цветовое пространство : YUV
Субдискретизация насыщенности : 4:2:0
Битовая глубина : 8 бит
Тип развёртки : Прогрессивная
Бит/(Пиксели*Кадры) : 0.087
Размер потока : 102 Мбайт (97%)
Библиотека кодирования : x264 core 129
Настройки программы : cabac=1 / ref=1 / deblock=1:0:0 / analyse=0x1:0x131 / me=dia / subme=2 / psy=1 / psy_rd=1.00:0.00 / mixed_ref=0 / me_range=16 / chroma_me=1 / trellis=0 / 8x8dct=0 / cqm=0 / deadzone=21,11 / fast_pskip=1 / chroma_qp_offset=0 / threads=2 / lookahead_threads=1 / sliced_threads=0 / nr=0 / decimate=1 / interlaced=0 / bluray_compat=0 / constrained_intra=0 / bframes=0 / weightp=2 / keyint=250 / keyint_min=25 / scenecut=40 / intra_refresh=0 / rc_lookahead=40 / rc=abr / mbtree=1 / bitrate=4496 / ratetol=1.0 / qcomp=0.60 / qpmin=10 / qpmax=51 / qpstep=4 / ip_ratio=1.41 / aq=1:1.00
Дата кодирования : UTC 2015-02-11 16:38:14
Дата пометки : UTC 2015-02-11 16:38:14

Аудио
Идентификатор : 2
Формат : AAC
Формат/Информация : Advanced Audio Codec
Профиль формата : LC
Идентификатор кодека : 40
Продолжительность : 3 м. 11 с.
Duration_FirstFrame : 70 мс.
Вид битрейта : Переменный
Битрейт : 148 Кбит/сек
Максимальный битрейт : 176 Кбит/сек
Каналы : 2 канала
Расположение каналов : Front: L R
Частота : 44,1 КГц
Метод сжатия : С потерями
Размер потока : 3,37 Мбайт (3%)
Дата кодирования : UTC 2015-02-11 16:38:14
Дата пометки : UTC 2015-02-11 16:38:14
Общее
Полное имя : E:\VA - Зимний марафон № 156 (Наилучший Дансинг Всплесков)\Brighi ft. The Guy - My reason (Official Video).mp4
Формат : MPEG-4
Профиль формата : Base Media
Идентификатор кодека : isom
Размер файла : 128 Мбайт
Продолжительность : 3 м. 51 с.
Режим общего битрейта : Переменный
Общий поток : 4628 Кбит/сек
Дата кодирования : UTC 2015-02-06 08:05:36
Дата пометки : UTC 2015-02-06 08:05:36
Программа кодирования : Lavf54.63.104

Видео
Идентификатор : 1
Формат : AVC
Формат/Информация : Advanced Video Codec
Профиль формата :
Параметр CABAC формата : Да
Параметр ReFrames формата : 1 кадр
Идентификатор кодека : avc1
Идентификатор кодека/Информация : Advanced Video Coding
Продолжительность : 3 м. 51 с.
Битрейт : 4496 Кбит/сек
Ширина : 1920 пикселей
Высота : 1080 пикселей
Соотношение сторон : 16:9
Режим частоты кадров : Постоянный
Частота кадров : 25,000 кадров/сек
Цветовое пространство : YUV
Субдискретизация насыщенности : 4:2:0
Битовая глубина : 8 бит
Тип развёртки : Прогрессивная
Бит/(Пиксели*Кадры) : 0.087
Размер потока : 123 Мбайт (97%)
Библиотека кодирования : x264 core 129
Настройки программы : cabac=1 / ref=1 / deblock=1:0:0 / analyse=0x1:0x131 / me=dia / subme=2 / psy=1 / psy_rd=1.00:0.00 / mixed_ref=0 / me_range=16 / chroma_me=1 / trellis=0 / 8x8dct=0 / cqm=0 / deadzone=21,11 / fast_pskip=1 / chroma_qp_offset=0 / threads=2 / lookahead_threads=1 / sliced_threads=0 / nr=0 / decimate=1 / interlaced=0 / bluray_compat=0 / constrained_intra=0 / bframes=0 / weightp=2 / keyint=250 / keyint_min=25 / scenecut=40 / intra_refresh=0 / rc_lookahead=40 / rc=abr / mbtree=1 / bitrate=4496 / ratetol=1.0 / qcomp=0.60 / qpmin=10 / qpmax=51 / qpstep=4 / ip_ratio=1.41 / aq=1:1.00
Дата кодирования : UTC 2015-02-06 08:05:36
Дата пометки : UTC 2015-02-06 08:05:36

Аудио
Идентификатор : 2
Формат : AAC
Формат/Информация : Advanced Audio Codec
Профиль формата : LC
Идентификатор кодека : 40
Продолжительность : 3 м. 51 с.
Duration_FirstFrame : 70 мс.
Вид битрейта : Переменный
Битрейт : 150 Кбит/сек
Максимальный битрейт : 176 Кбит/сек
Каналы : 2 канала
Расположение каналов : Front: L R
Частота : 44,1 КГц
Метод сжатия : С потерями
Размер потока : 4,14 Мбайт (3%)
Дата кодирования : UTC 2015-02-06 08:05:36
Дата пометки : UTC 2015-02-06 08:05:36
Общее
Полное имя : E:\VA - Зимний марафон № 156 (Наилучший Дансинг Всплесков)\Carrie Underwood - Little Toy Guns (Official Video).mp4
Формат : MPEG-4
Профиль формата : Base Media
Идентификатор кодека : isom
Размер файла : 140 Мбайт
Продолжительность : 4 м. 12 с.
Режим общего битрейта : Переменный
Общий поток : 4654 Кбит/сек
Дата кодирования : UTC 2015-02-01 07:12:00
Дата пометки : UTC 2015-02-01 07:12:00
Программа кодирования : Lavf54.63.104

Видео
Идентификатор : 1
Формат : AVC
Формат/Информация : Advanced Video Codec
Профиль формата :
Параметр CABAC формата : Да
Параметр ReFrames формата : 1 кадр
Идентификатор кодека : avc1
Идентификатор кодека/Информация : Advanced Video Coding
Продолжительность : 4 м. 12 с.
Битрейт : 4496 Кбит/сек
Ширина : 1920 пикселей
Высота : 1080 пикселей
Соотношение сторон : 16:9
Режим частоты кадров : Постоянный
Частота кадров : 25,000 кадров/сек
Цветовое пространство : YUV
Субдискретизация насыщенности : 4:2:0
Битовая глубина : 8 бит
Тип развёртки : Прогрессивная
Бит/(Пиксели*Кадры) : 0.087
Размер потока : 136 Мбайт (97%)
Библиотека кодирования : x264 core 129
Настройки программы : cabac=1 / ref=1 / deblock=1:0:0 / analyse=0x1:0x131 / me=dia / subme=2 / psy=1 / psy_rd=1.00:0.00 / mixed_ref=0 / me_range=16 / chroma_me=1 / trellis=0 / 8x8dct=0 / cqm=0 / deadzone=21,11 / fast_pskip=1 / chroma_qp_offset=0 / threads=2 / lookahead_threads=1 / sliced_threads=0 / nr=0 / decimate=1 / interlaced=0 / bluray_compat=0 / constrained_intra=0 / bframes=0 / weightp=2 / keyint=250 / keyint_min=25 / scenecut=40 / intra_refresh=0 / rc_lookahead=40 / rc=abr / mbtree=1 / bitrate=4496 / ratetol=1.0 / qcomp=0.60 / qpmin=10 / qpmax=51 / qpstep=4 / ip_ratio=1.41 / aq=1:1.00
Дата кодирования : UTC 2015-02-01 07:12:00
Дата пометки : UTC 2015-02-01 07:12:00

Аудио
Идентификатор : 2
Формат : AAC
Формат/Информация : Advanced Audio Codec
Профиль формата : LC
Идентификатор кодека : 40
Продолжительность : 4 м. 12 с.
Duration_FirstFrame : 70 мс.
Вид битрейта : Переменный
Битрейт : 144 Кбит/сек
Максимальный битрейт : 176 Кбит/сек
Каналы : 2 канала
Расположение каналов : Front: L R
Частота : 44,1 КГц
Метод сжатия : С потерями
Размер потока : 4,40 Мбайт (3%)
Дата кодирования : UTC 2015-02-01 07:12:00
Дата пометки : UTC 2015-02-01 07:12:00
Общее
Полное имя : E:\VA - Зимний марафон № 156 (Наилучший Дансинг Всплесков)\Cheryl - Only Human (Official Video).mp4
Формат : MPEG-4
Профиль формата : Base Media
Идентификатор кодека : isom
Размер файла : 120 Мбайт
Продолжительность : 3 м. 41 с.
Режим общего битрейта : Переменный
Общий поток : 4539 Кбит/сек
Дата кодирования : UTC 2015-01-30 11:12:13
Дата пометки : UTC 2015-01-30 11:12:13
Программа кодирования : Lavf54.63.104

Видео
Идентификатор : 1
Формат : AVC
Формат/Информация : Advanced Video Codec
Профиль формата :
Параметр CABAC формата : Да
Параметр ReFrames формата : 1 кадр
Идентификатор кодека : avc1
Идентификатор кодека/Информация : Advanced Video Coding
Продолжительность : 3 м. 41 с.
Битрейт : 4496 Кбит/сек
Ширина : 1920 пикселей
Высота : 1080 пикселей
Соотношение сторон : 16:9
Режим частоты кадров : Постоянный
Частота кадров : 25,000 кадров/сек
Цветовое пространство : YUV
Субдискретизация насыщенности : 4:2:0
Битовая глубина : 8 бит
Тип развёртки : Прогрессивная
Бит/(Пиксели*Кадры) : 0.087
Размер потока : 116 Мбайт (97%)
Библиотека кодирования : x264 core 129
Настройки программы : cabac=1 / ref=1 / deblock=1:0:0 / analyse=0x1:0x131 / me=dia / subme=2 / psy=1 / psy_rd=1.00:0.00 / mixed_ref=0 / me_range=16 / chroma_me=1 / trellis=0 / 8x8dct=0 / cqm=0 / deadzone=21,11 / fast_pskip=1 / chroma_qp_offset=0 / threads=2 / lookahead_threads=1 / sliced_threads=0 / nr=0 / decimate=1 / interlaced=0 / bluray_compat=0 / constrained_intra=0 / bframes=0 / weightp=2 / keyint=250 / keyint_min=25 / scenecut=40 / intra_refresh=0 / rc_lookahead=40 / rc=abr / mbtree=1 / bitrate=4496 / ratetol=1.0 / qcomp=0.60 / qpmin=10 / qpmax=51 / qpstep=4 / ip_ratio=1.41 / aq=1:1.00
Дата кодирования : UTC 2015-01-30 11:12:13
Дата пометки : UTC 2015-01-30 11:12:13

Аудио
Идентификатор : 2
Формат : AAC
Формат/Информация : Advanced Audio Codec
Профиль формата : LC
Идентификатор кодека : 40
Продолжительность : 3 м. 41 с.
Duration_FirstFrame : 70 мс.
Вид битрейта : Переменный
Битрейт : 148 Кбит/сек
Максимальный битрейт : 176 Кбит/сек
Каналы : 2 канала
Расположение каналов : Front: L R
Частота : 44,1 КГц
Метод сжатия : С потерями
Размер потока : 3,90 Мбайт (3%)
Дата кодирования : UTC 2015-01-30 11:12:13
Дата пометки : UTC 2015-01-30 11:12:13
Общее
Полное имя : E:\VA - Зимний марафон № 156 (Наилучший Дансинг Всплесков)\Cristiana - Spune-mi (Official Video).mp4
Формат : MPEG-4
Профиль формата : Base Media
Идентификатор кодека : isom
Размер файла : 105 Мбайт
Продолжительность : 3 м. 10 с.
Режим общего битрейта : Переменный
Общий поток : 4617 Кбит/сек
Дата кодирования : UTC 2015-02-10 11:40:47
Дата пометки : UTC 2015-02-10 11:40:47
Программа кодирования : Lavf54.63.104

Видео
Идентификатор : 1
Формат : AVC
Формат/Информация : Advanced Video Codec
Профиль формата :
Параметр CABAC формата : Да
Параметр ReFrames формата : 1 кадр
Идентификатор кодека : avc1
Идентификатор кодека/Информация : Advanced Video Coding
Продолжительность : 3 м. 10 с.
Битрейт : 4496 Кбит/сек
Ширина : 1920 пикселей
Высота : 1080 пикселей
Соотношение сторон : 16:9
Режим частоты кадров : Постоянный
Частота кадров : 25,000 кадров/сек
Цветовое пространство : YUV
Субдискретизация насыщенности : 4:2:0
Битовая глубина : 8 бит
Тип развёртки : Прогрессивная
Бит/(Пиксели*Кадры) : 0.087
Размер потока : 101 Мбайт (97%)
Библиотека кодирования : x264 core 129
Настройки программы : cabac=1 / ref=1 / deblock=1:0:0 / analyse=0x1:0x131 / me=dia / subme=2 / psy=1 / psy_rd=1.00:0.00 / mixed_ref=0 / me_range=16 / chroma_me=1 / trellis=0 / 8x8dct=0 / cqm=0 / deadzone=21,11 / fast_pskip=1 / chroma_qp_offset=0 / threads=2 / lookahead_threads=1 / sliced_threads=0 / nr=0 / decimate=1 / interlaced=0 / bluray_compat=0 / constrained_intra=0 / bframes=0 / weightp=2 / keyint=250 / keyint_min=25 / scenecut=40 / intra_refresh=0 / rc_lookahead=40 / rc=abr / mbtree=1 / bitrate=4496 / ratetol=1.0 / qcomp=0.60 / qpmin=10 / qpmax=51 / qpstep=4 / ip_ratio=1.41 / aq=1:1.00
Дата кодирования : UTC 2015-02-10 11:40:47
Дата пометки : UTC 2015-02-10 11:40:47

Аудио
Идентификатор : 2
Формат : AAC
Формат/Информация : Advanced Audio Codec
Профиль формата : LC
Идентификатор кодека : 40
Продолжительность : 3 м. 10 с.
Duration_FirstFrame : 70 мс.
Вид битрейта : Переменный
Битрейт : 149 Кбит/сек
Максимальный битрейт : 176 Кбит/сек
Каналы : 2 канала
Расположение каналов : Front: L R
Частота : 44,1 КГц
Метод сжатия : С потерями
Размер потока : 3,39 Мбайт (3%)
Дата кодирования : UTC 2015-02-10 11:40:47
Дата пометки : UTC 2015-02-10 11:40:47
Общее
Полное имя : E:\VA - Зимний марафон № 156 (Наилучший Дансинг Всплесков)\DJ Valdi, Marcos Rodríguez & Quique Tejada Ft. Estela Martin - Run Baby Run (Official Video).mp4
Формат : MPEG-4
Профиль формата : Base Media
Идентификатор кодека : isom
Размер файла : 120 Мбайт
Продолжительность : 3 м. 35 с.
Режим общего битрейта : Переменный
Общий поток : 4658 Кбит/сек
Дата кодирования : UTC 2015-02-10 13:10:12
Дата пометки : UTC 2015-02-10 13:10:12
Программа кодирования : Lavf54.63.104

Видео
Идентификатор : 1
Формат : AVC
Формат/Информация : Advanced Video Codec
Профиль формата :
Параметр CABAC формата : Да
Параметр ReFrames формата : 1 кадр
Идентификатор кодека : avc1
Идентификатор кодека/Информация : Advanced Video Coding
Продолжительность : 3 м. 35 с.
Битрейт : 4496 Кбит/сек
Ширина : 1920 пикселей
Высота : 1080 пикселей
Соотношение сторон : 16:9
Режим частоты кадров : Постоянный
Частота кадров : 25,000 кадров/сек
Цветовое пространство : YUV
Субдискретизация насыщенности : 4:2:0
Битовая глубина : 8 бит
Тип развёртки : Прогрессивная
Бит/(Пиксели*Кадры) : 0.087
Размер потока : 116 Мбайт (97%)
Библиотека кодирования : x264 core 129
Настройки программы : cabac=1 / ref=1 / deblock=1:0:0 / analyse=0x1:0x131 / me=dia / subme=2 / psy=1 / psy_rd=1.00:0.00 / mixed_ref=0 / me_range=16 / chroma_me=1 / trellis=0 / 8x8dct=0 / cqm=0 / deadzone=21,11 / fast_pskip=1 / chroma_qp_offset=0 / threads=2 / lookahead_threads=1 / sliced_threads=0 / nr=0 / decimate=1 / interlaced=0 / bluray_compat=0 / constrained_intra=0 / bframes=0 / weightp=2 / keyint=250 / keyint_min=25 / scenecut=40 / intra_refresh=0 / rc_lookahead=40 / rc=abr / mbtree=1 / bitrate=4496 / ratetol=1.0 / qcomp=0.60 / qpmin=10 / qpmax=51 / qpstep=4 / ip_ratio=1.41 / aq=1:1.00
Дата кодирования : UTC 2015-02-10 13:10:12
Дата пометки : UTC 2015-02-10 13:10:12

Аудио
Идентификатор : 2
Формат : AAC
Формат/Информация : Advanced Audio Codec
Профиль формата : LC
Идентификатор кодека : 40
Продолжительность : 3 м. 35 с.
Duration_FirstFrame : 70 мс.
Вид битрейта : Переменный
Битрейт : 151 Кбит/сек
Максимальный битрейт : 176 Кбит/сек
Каналы : 2 канала
Расположение каналов : Front: L R
Частота : 44,1 КГц
Метод сжатия : С потерями
Размер потока : 3,89 Мбайт (3%)
Дата кодирования : UTC 2015-02-10 13:10:12
Дата пометки : UTC 2015-02-10 13:10:12
Общее
Полное имя : E:\VA - Зимний марафон № 156 (Наилучший Дансинг Всплесков)\Enrique Iglesias ft. Pitbull - Let Me Be Your Lover.mp4
Формат : MPEG-4
Профиль формата : Base Media
Идентификатор кодека : isom
Размер файла : 147 Мбайт
Продолжительность : 4 м. 34 с.
Режим общего битрейта : Переменный
Общий поток : 4493 Кбит/сек
Дата кодирования : UTC 2015-02-12 12:51:50
Дата пометки : UTC 2015-02-12 12:51:50
Программа кодирования : Lavf54.63.104

Видео
Идентификатор : 1
Формат : AVC
Формат/Информация : Advanced Video Codec
Профиль формата :
Параметр CABAC формата : Да
Параметр ReFrames формата : 1 кадр
Идентификатор кодека : avc1
Идентификатор кодека/Информация : Advanced Video Coding
Продолжительность : 4 м. 34 с.
Битрейт : 4496 Кбит/сек
Ширина : 1920 пикселей
Высота : 1080 пикселей
Соотношение сторон : 16:9
Режим частоты кадров : Постоянный
Частота кадров : 25,000 кадров/сек
Цветовое пространство : YUV
Субдискретизация насыщенности : 4:2:0
Битовая глубина : 8 бит
Тип развёртки : Прогрессивная
Бит/(Пиксели*Кадры) : 0.087
Размер потока : 142 Мбайт (97%)
Библиотека кодирования : x264 core 129
Настройки программы : cabac=1 / ref=1 / deblock=1:0:0 / analyse=0x1:0x131 / me=dia / subme=2 / psy=1 / psy_rd=1.00:0.00 / mixed_ref=0 / me_range=16 / chroma_me=1 / trellis=0 / 8x8dct=0 / cqm=0 / deadzone=21,11 / fast_pskip=1 / chroma_qp_offset=0 / threads=2 / lookahead_threads=1 / sliced_threads=0 / nr=0 / decimate=1 / interlaced=0 / bluray_compat=0 / constrained_intra=0 / bframes=0 / weightp=2 / keyint=250 / keyint_min=25 / scenecut=40 / intra_refresh=0 / rc_lookahead=40 / rc=abr / mbtree=1 / bitrate=4496 / ratetol=1.0 / qcomp=0.60 / qpmin=10 / qpmax=51 / qpstep=4 / ip_ratio=1.41 / aq=1:1.00
Дата кодирования : UTC 2015-02-12 12:51:50
Дата пометки : UTC 2015-02-12 12:51:50

Аудио
Идентификатор : 2
Формат : AAC
Формат/Информация : Advanced Audio Codec
Профиль формата : LC
Идентификатор кодека : 40
Продолжительность : 4 м. 34 с.
Duration_FirstFrame : 70 мс.
Вид битрейта : Переменный
Битрейт : 144 Кбит/сек
Максимальный битрейт : 176 Кбит/сек
Каналы : 2 канала
Расположение каналов : Front: L R
Частота : 44,1 КГц
Метод сжатия : С потерями
Размер потока : 4,76 Мбайт (3%)
Дата кодирования : UTC 2015-02-12 12:51:50
Дата пометки : UTC 2015-02-12 12:51:50
Общее
Полное имя : E:\VA - Зимний марафон № 156 (Наилучший Дансинг Всплесков)\Giorgio Moroder ft. Kylie Minogue - Right Here, Right Now (Official Video).mp4
Формат : MPEG-4
Профиль формата : Base Media
Идентификатор кодека : isom
Размер файла : 117 Мбайт
Продолжительность : 3 м. 30 с.
Режим общего битрейта : Переменный
Общий поток : 4683 Кбит/сек
Дата кодирования : UTC 2015-01-30 18:03:51
Дата пометки : UTC 2015-01-30 18:03:51
Программа кодирования : Lavf54.63.104

Видео
Идентификатор : 1
Формат : AVC
Формат/Информация : Advanced Video Codec
Профиль формата :
Параметр CABAC формата : Да
Параметр ReFrames формата : 1 кадр
Идентификатор кодека : avc1
Идентификатор кодека/Информация : Advanced Video Coding
Продолжительность : 3 м. 30 с.
Битрейт : 4496 Кбит/сек
Ширина : 1920 пикселей
Высота : 1080 пикселей
Соотношение сторон : 16:9
Режим частоты кадров : Постоянный
Частота кадров : 25,000 кадров/сек
Цветовое пространство : YUV
Субдискретизация насыщенности : 4:2:0
Битовая глубина : 8 бит
Тип развёртки : Прогрессивная
Бит/(Пиксели*Кадры) : 0.087
Размер потока : 113 Мбайт (97%)
Библиотека кодирования : x264 core 129
Настройки программы : cabac=1 / ref=1 / deblock=1:0:0 / analyse=0x1:0x131 / me=dia / subme=2 / psy=1 / psy_rd=1.00:0.00 / mixed_ref=0 / me_range=16 / chroma_me=1 / trellis=0 / 8x8dct=0 / cqm=0 / deadzone=21,11 / fast_pskip=1 / chroma_qp_offset=0 / threads=2 / lookahead_threads=1 / sliced_threads=0 / nr=0 / decimate=1 / interlaced=0 / bluray_compat=0 / constrained_intra=0 / bframes=0 / weightp=2 / keyint=250 / keyint_min=25 / scenecut=40 / intra_refresh=0 / rc_lookahead=40 / rc=abr / mbtree=1 / bitrate=4496 / ratetol=1.0 / qcomp=0.60 / qpmin=10 / qpmax=51 / qpstep=4 / ip_ratio=1.41 / aq=1:1.00
Дата кодирования : UTC 2015-01-30 18:03:51
Дата пометки : UTC 2015-01-30 18:03:51

Аудио
Идентификатор : 2
Формат : AAC
Формат/Информация : Advanced Audio Codec
Профиль формата : LC
Идентификатор кодека : 40
Продолжительность : 3 м. 30 с.
Duration_FirstFrame : 70 мс.
Вид битрейта : Переменный
Битрейт : 151 Кбит/сек
Максимальный битрейт : 176 Кбит/сек
Каналы : 2 канала
Расположение каналов : Front: L R
Частота : 44,1 КГц
Метод сжатия : С потерями
Размер потока : 3,80 Мбайт (3%)
Дата кодирования : UTC 2015-01-30 18:03:51
Дата пометки : UTC 2015-01-30 18:03:51
Общее
Полное имя : E:\VA - Зимний марафон № 156 (Наилучший Дансинг Всплесков)\Jay Love - My Favorite Girl (Official Video).mp4
Формат : MPEG-4
Профиль формата : Base Media
Идентификатор кодека : isom
Размер файла : 131 Мбайт
Продолжительность : 3 м. 56 с.
Режим общего битрейта : Переменный
Общий поток : 4655 Кбит/сек
Дата кодирования : UTC 2015-02-12 19:13:59
Дата пометки : UTC 2015-02-12 19:13:59
Программа кодирования : Lavf54.63.104

Видео
Идентификатор : 1
Формат : AVC
Формат/Информация : Advanced Video Codec
Профиль формата :
Параметр CABAC формата : Да
Параметр ReFrames формата : 1 кадр
Идентификатор кодека : avc1
Идентификатор кодека/Информация : Advanced Video Coding
Продолжительность : 3 м. 56 с.
Битрейт : 4496 Кбит/сек
Ширина : 1920 пикселей
Высота : 1080 пикселей
Соотношение сторон : 16:9
Режим частоты кадров : Постоянный
Частота кадров : 25,000 кадров/сек
Цветовое пространство : YUV
Субдискретизация насыщенности : 4:2:0
Битовая глубина : 8 бит
Тип развёртки : Прогрессивная
Бит/(Пиксели*Кадры) : 0.087
Размер потока : 127 Мбайт (97%)
Библиотека кодирования : x264 core 129
Настройки программы : cabac=1 / ref=1 / deblock=1:0:0 / analyse=0x1:0x131 / me=dia / subme=2 / psy=1 / psy_rd=1.00:0.00 / mixed_ref=0 / me_range=16 / chroma_me=1 / trellis=0 / 8x8dct=0 / cqm=0 / deadzone=21,11 / fast_pskip=1 / chroma_qp_offset=0 / threads=2 / lookahead_threads=1 / sliced_threads=0 / nr=0 / decimate=1 / interlaced=0 / bluray_compat=0 / constrained_intra=0 / bframes=0 / weightp=2 / keyint=250 / keyint_min=25 / scenecut=40 / intra_refresh=0 / rc_lookahead=40 / rc=abr / mbtree=1 / bitrate=4496 / ratetol=1.0 / qcomp=0.60 / qpmin=10 / qpmax=51 / qpstep=4 / ip_ratio=1.41 / aq=1:1.00
Дата кодирования : UTC 2015-02-12 19:13:59
Дата пометки : UTC 2015-02-12 19:13:59

Аудио
Идентификатор : 2
Формат : AAC
Формат/Информация : Advanced Audio Codec
Профиль формата : LC
Идентификатор кодека : 40
Продолжительность : 3 м. 56 с.
Duration_FirstFrame : 70 мс.
Вид битрейта : Переменный
Битрейт : 152 Кбит/сек
Максимальный битрейт : 176 Кбит/сек
Каналы : 2 канала
Расположение каналов : Front: L R
Частота : 44,1 КГц
Метод сжатия : С потерями
Размер потока : 4,28 Мбайт (3%)
Дата кодирования : UTC 2015-02-12 19:13:59
Дата пометки : UTC 2015-02-12 19:13:59
Общее
Полное имя : E:\VA - Зимний марафон № 156 (Наилучший Дансинг Всплесков)\Jessica Mauboy - The Day Before I Met You (Official Video).mp4
Формат : MPEG-4
Профиль формата : Base Media
Идентификатор кодека : isom
Размер файла : 130 Мбайт
Продолжительность : 3 м. 55 с.
Режим общего битрейта : Переменный
Общий поток : 4618 Кбит/сек
Дата кодирования : UTC 2015-02-11 01:06:06
Дата пометки : UTC 2015-02-11 01:06:06
Программа кодирования : Lavf54.63.104

Видео
Идентификатор : 1
Формат : AVC
Формат/Информация : Advanced Video Codec
Профиль формата :
Параметр CABAC формата : Да
Параметр ReFrames формата : 1 кадр
Параметр GOP формата : N=1
Идентификатор кодека : avc1
Идентификатор кодека/Информация : Advanced Video Coding
Продолжительность : 3 м. 55 с.
Битрейт : 4496 Кбит/сек
Ширина : 1920 пикселей
Высота : 1080 пикселей
Соотношение сторон : 16:9
Режим частоты кадров : Постоянный
Частота кадров : 25,000 кадров/сек
Цветовое пространство : YUV
Субдискретизация насыщенности : 4:2:0
Битовая глубина : 8 бит
Тип развёртки : Прогрессивная
Бит/(Пиксели*Кадры) : 0.087
Размер потока : 125 Мбайт (97%)
Библиотека кодирования : x264 core 129
Настройки программы : cabac=1 / ref=1 / deblock=1:0:0 / analyse=0x1:0x131 / me=dia / subme=2 / psy=1 / psy_rd=1.00:0.00 / mixed_ref=0 / me_range=16 / chroma_me=1 / trellis=0 / 8x8dct=0 / cqm=0 / deadzone=21,11 / fast_pskip=1 / chroma_qp_offset=0 / threads=2 / lookahead_threads=1 / sliced_threads=0 / nr=0 / decimate=1 / interlaced=0 / bluray_compat=0 / constrained_intra=0 / bframes=0 / weightp=2 / keyint=250 / keyint_min=25 / scenecut=40 / intra_refresh=0 / rc_lookahead=40 / rc=abr / mbtree=1 / bitrate=4496 / ratetol=1.0 / qcomp=0.60 / qpmin=10 / qpmax=51 / qpstep=4 / ip_ratio=1.41 / aq=1:1.00
Дата кодирования : UTC 2015-02-11 01:06:06
Дата пометки : UTC 2015-02-11 01:06:06

Аудио
Идентификатор : 2
Формат : AAC
Формат/Информация : Advanced Audio Codec
Профиль формата : LC
Идентификатор кодека : 40
Продолжительность : 3 м. 55 с.
Duration_FirstFrame : 70 мс.
Вид битрейта : Переменный
Битрейт : 151 Кбит/сек
Максимальный битрейт : 176 Кбит/сек
Каналы : 2 канала
Расположение каналов : Front: L R
Частота : 44,1 КГц
Метод сжатия : С потерями
Размер потока : 4,24 Мбайт (3%)
Дата кодирования : UTC 2015-02-11 01:06:06
Дата пометки : UTC 2015-02-11 01:06:06
Общее
Полное имя : E:\VA - Зимний марафон № 156 (Наилучший Дансинг Всплесков)\JO - Soapte (Official Video).mp4
Формат : MPEG-4
Профиль формата : Base Media
Идентификатор кодека : isom
Размер файла : 118 Мбайт
Продолжительность : 3 м. 41 с.
Режим общего битрейта : Переменный
Общий поток : 4466 Кбит/сек
Дата кодирования : UTC 2015-02-03 08:47:47
Дата пометки : UTC 2015-02-03 08:47:47
Программа кодирования : Lavf54.63.104

Видео
Идентификатор : 1
Формат : AVC
Формат/Информация : Advanced Video Codec
Профиль формата :
Параметр CABAC формата : Да
Параметр ReFrames формата : 1 кадр
Идентификатор кодека : avc1
Идентификатор кодека/Информация : Advanced Video Coding
Продолжительность : 3 м. 41 с.
Битрейт : 4496 Кбит/сек
Ширина : 1920 пикселей
Высота : 1080 пикселей
Соотношение сторон : 16:9
Режим частоты кадров : Постоянный
Частота кадров : 25,000 кадров/сек
Цветовое пространство : YUV
Субдискретизация насыщенности : 4:2:0
Битовая глубина : 8 бит
Тип развёртки : Прогрессивная
Бит/(Пиксели*Кадры) : 0.087
Размер потока : 114 Мбайт (96%)
Библиотека кодирования : x264 core 129
Настройки программы : cabac=1 / ref=1 / deblock=1:0:0 / analyse=0x1:0x131 / me=dia / subme=2 / psy=1 / psy_rd=1.00:0.00 / mixed_ref=0 / me_range=16 / chroma_me=1 / trellis=0 / 8x8dct=0 / cqm=0 / deadzone=21,11 / fast_pskip=1 / chroma_qp_offset=0 / threads=2 / lookahead_threads=1 / sliced_threads=0 / nr=0 / decimate=1 / interlaced=0 / bluray_compat=0 / constrained_intra=0 / bframes=0 / weightp=2 / keyint=250 / keyint_min=25 / scenecut=40 / intra_refresh=0 / rc_lookahead=40 / rc=abr / mbtree=1 / bitrate=4496 / ratetol=1.0 / qcomp=0.60 / qpmin=10 / qpmax=51 / qpstep=4 / ip_ratio=1.41 / aq=1:1.00
Дата кодирования : UTC 2015-02-03 08:47:47
Дата пометки : UTC 2015-02-03 08:47:47

Аудио
Идентификатор : 2
Формат : AAC
Формат/Информация : Advanced Audio Codec
Профиль формата : LC
Идентификатор кодека : 40
Продолжительность : 3 м. 41 с.
Duration_FirstFrame : 70 мс.
Вид битрейта : Переменный
Битрейт : 152 Кбит/сек
Максимальный битрейт : 176 Кбит/сек
Каналы : 2 канала
Расположение каналов : Front: L R
Частота : 44,1 КГц
Метод сжатия : С потерями
Размер потока : 4,01 Мбайт (3%)
Дата кодирования : UTC 2015-02-03 08:47:47
Дата пометки : UTC 2015-02-03 08:47:47
Общее
Полное имя : E:\VA - Зимний марафон № 156 (Наилучший Дансинг Всплесков)\Kelly Clarkson - Heartbeat Song (Official Video).mp4
Формат : MPEG-4
Профиль формата : Base Media
Идентификатор кодека : isom
Размер файла : 117 Мбайт
Продолжительность : 3 м. 28 с.
Режим общего битрейта : Переменный
Общий поток : 4714 Кбит/сек
Дата кодирования : UTC 2015-02-06 12:25:25
Дата пометки : UTC 2015-02-06 12:25:25
Программа кодирования : Lavf54.63.104

Видео
Идентификатор : 1
Формат : AVC
Формат/Информация : Advanced Video Codec
Профиль формата :
Параметр CABAC формата : Да
Параметр ReFrames формата : 1 кадр
Идентификатор кодека : avc1
Идентификатор кодека/Информация : Advanced Video Coding
Продолжительность : 3 м. 28 с.
Битрейт : 4496 Кбит/сек
Ширина : 1920 пикселей
Высота : 1080 пикселей
Соотношение сторон : 16:9
Режим частоты кадров : Постоянный
Частота кадров : 25,000 кадров/сек
Цветовое пространство : YUV
Субдискретизация насыщенности : 4:2:0
Битовая глубина : 8 бит
Тип развёртки : Прогрессивная
Бит/(Пиксели*Кадры) : 0.087
Размер потока : 114 Мбайт (97%)
Библиотека кодирования : x264 core 129
Настройки программы : cabac=1 / ref=1 / deblock=1:0:0 / analyse=0x1:0x131 / me=dia / subme=2 / psy=1 / psy_rd=1.00:0.00 / mixed_ref=0 / me_range=16 / chroma_me=1 / trellis=0 / 8x8dct=0 / cqm=0 / deadzone=21,11 / fast_pskip=1 / chroma_qp_offset=0 / threads=2 / lookahead_threads=1 / sliced_threads=0 / nr=0 / decimate=1 / interlaced=0 / bluray_compat=0 / constrained_intra=0 / bframes=0 / weightp=2 / keyint=250 / keyint_min=25 / scenecut=40 / intra_refresh=0 / rc_lookahead=40 / rc=abr / mbtree=1 / bitrate=4496 / ratetol=1.0 / qcomp=0.60 / qpmin=10 / qpmax=51 / qpstep=4 / ip_ratio=1.41 / aq=1:1.00
Дата кодирования : UTC 2015-02-06 12:25:25
Дата пометки : UTC 2015-02-06 12:25:25

Аудио
Идентификатор : 2
Формат : AAC
Формат/Информация : Advanced Audio Codec
Профиль формата : LC
Идентификатор кодека : 40
Продолжительность : 3 м. 28 с.
Duration_FirstFrame : 70 мс.
Вид битрейта : Переменный
Битрейт : 151 Кбит/сек
Максимальный битрейт : 176 Кбит/сек
Каналы : 2 канала
Расположение каналов : Front: L R
Частота : 44,1 КГц
Метод сжатия : С потерями
Размер потока : 3,76 Мбайт (3%)
Дата кодирования : UTC 2015-02-06 12:25:25
Дата пометки : UTC 2015-02-06 12:25:25
Общее
Полное имя : E:\VA - Зимний марафон № 156 (Наилучший Дансинг Всплесков)\Kirpi - Wind's Melody (Official Video).mp4
Формат : MPEG-4
Профиль формата : Base Media
Идентификатор кодека : isom
Размер файла : 145 Мбайт
Продолжительность : 4 м. 26 с.
Режим общего битрейта : Переменный
Общий поток : 4575 Кбит/сек
Дата кодирования : UTC 2015-02-03 18:01:34
Дата пометки : UTC 2015-02-03 18:01:34
Программа кодирования : Lavf54.63.104

Видео
Идентификатор : 1
Формат : AVC
Формат/Информация : Advanced Video Codec
Профиль формата :
Параметр CABAC формата : Да
Параметр ReFrames формата : 1 кадр
Идентификатор кодека : avc1
Идентификатор кодека/Информация : Advanced Video Coding
Продолжительность : 4 м. 26 с.
Битрейт : 4496 Кбит/сек
Ширина : 1920 пикселей
Высота : 1080 пикселей
Соотношение сторон : 16:9
Режим частоты кадров : Постоянный
Частота кадров : 25,000 кадров/сек
Цветовое пространство : YUV
Субдискретизация насыщенности : 4:2:0
Битовая глубина : 8 бит
Тип развёртки : Прогрессивная
Бит/(Пиксели*Кадры) : 0.087
Размер потока : 140 Мбайт (97%)
Библиотека кодирования : x264 core 129
Настройки программы : cabac=1 / ref=1 / deblock=1:0:0 / analyse=0x1:0x131 / me=dia / subme=2 / psy=1 / psy_rd=1.00:0.00 / mixed_ref=0 / me_range=16 / chroma_me=1 / trellis=0 / 8x8dct=0 / cqm=0 / deadzone=21,11 / fast_pskip=1 / chroma_qp_offset=0 / threads=2 / lookahead_threads=1 / sliced_threads=0 / nr=0 / decimate=1 / interlaced=0 / bluray_compat=0 / constrained_intra=0 / bframes=0 / weightp=2 / keyint=250 / keyint_min=25 / scenecut=40 / intra_refresh=0 / rc_lookahead=40 / rc=abr / mbtree=1 / bitrate=4496 / ratetol=1.0 / qcomp=0.60 / qpmin=10 / qpmax=51 / qpstep=4 / ip_ratio=1.41 / aq=1:1.00
Дата кодирования : UTC 2015-02-03 18:01:34
Дата пометки : UTC 2015-02-03 18:01:34

Аудио
Идентификатор : 2
Формат : AAC
Формат/Информация : Advanced Audio Codec
Профиль формата : LC
Идентификатор кодека : 40
Продолжительность : 4 м. 26 с.
Duration_FirstFrame : 70 мс.
Вид битрейта : Переменный
Битрейт : 151 Кбит/сек
Максимальный битрейт : 176 Кбит/сек
Каналы : 2 канала
Расположение каналов : Front: L R
Частота : 44,1 КГц
Метод сжатия : С потерями
Размер потока : 4,80 Мбайт (3%)
Дата кодирования : UTC 2015-02-03 18:01:34
Дата пометки : UTC 2015-02-03 18:01:34
Общее
Полное имя : E:\VA - Зимний марафон № 156 (Наилучший Дансинг Всплесков)\Le Youth - R E A L (Tough Love Remix) (Official Video).mp4
Формат : MPEG-4
Профиль формата : Base Media
Идентификатор кодека : isom
Размер файла : 109 Мбайт
Продолжительность : 3 м. 22 с.
Режим общего битрейта : Переменный
Общий поток : 4525 Кбит/сек
Дата кодирования : UTC 2015-01-27 17:26:30
Дата пометки : UTC 2015-01-27 17:26:30
Программа кодирования : Lavf54.63.104

Видео
Идентификатор : 1
Формат : AVC
Формат/Информация : Advanced Video Codec
Профиль формата :
Параметр CABAC формата : Да
Параметр ReFrames формата : 1 кадр
Идентификатор кодека : avc1
Идентификатор кодека/Информация : Advanced Video Coding
Продолжительность : 3 м. 22 с.
Битрейт : 4496 Кбит/сек
Ширина : 1920 пикселей
Высота : 1080 пикселей
Соотношение сторон : 16:9
Режим частоты кадров : Постоянный
Частота кадров : 25,000 кадров/сек
Цветовое пространство : YUV
Субдискретизация насыщенности : 4:2:0
Битовая глубина : 8 бит
Тип развёртки : Прогрессивная
Бит/(Пиксели*Кадры) : 0.087
Размер потока : 106 Мбайт (97%)
Библиотека кодирования : x264 core 129
Настройки программы : cabac=1 / ref=1 / deblock=1:0:0 / analyse=0x1:0x131 / me=dia / subme=2 / psy=1 / psy_rd=1.00:0.00 / mixed_ref=0 / me_range=16 / chroma_me=1 / trellis=0 / 8x8dct=0 / cqm=0 / deadzone=21,11 / fast_pskip=1 / chroma_qp_offset=0 / threads=2 / lookahead_threads=1 / sliced_threads=0 / nr=0 / decimate=1 / interlaced=0 / bluray_compat=0 / constrained_intra=0 / bframes=0 / weightp=2 / keyint=250 / keyint_min=25 / scenecut=40 / intra_refresh=0 / rc_lookahead=40 / rc=abr / mbtree=1 / bitrate=4496 / ratetol=1.0 / qcomp=0.60 / qpmin=10 / qpmax=51 / qpstep=4 / ip_ratio=1.41 / aq=1:1.00
Дата кодирования : UTC 2015-01-27 17:26:30
Дата пометки : UTC 2015-01-27 17:26:30

Аудио
Идентификатор : 2
Формат : AAC
Формат/Информация : Advanced Audio Codec
Профиль формата : LC
Идентификатор кодека : 40
Продолжительность : 3 м. 22 с.
Duration_FirstFrame : 70 мс.
Вид битрейта : Переменный
Битрейт : 152 Кбит/сек
Максимальный битрейт : 176 Кбит/сек
Каналы : 2 канала
Расположение каналов : Front: L R
Частота : 44,1 КГц
Метод сжатия : С потерями
Размер потока : 3,67 Мбайт (3%)
Дата кодирования : UTC 2015-01-27 17:26:30
Дата пометки : UTC 2015-01-27 17:26:30
Общее
Полное имя : E:\VA - Зимний марафон № 156 (Наилучший Дансинг Всплесков)\Madonna - Living For Love (Official Video).mp4
Формат : MPEG-4
Профиль формата : Base Media
Идентификатор кодека : isom
Размер файла : 137 Мбайт
Продолжительность : 4 м. 5 с.
Режим общего битрейта : Переменный
Общий поток : 4675 Кбит/сек
Дата кодирования : UTC 2015-02-05 22:21:35
Дата пометки : UTC 2015-02-05 22:21:35
Программа кодирования : Lavf54.63.104

Видео
Идентификатор : 1
Формат : AVC
Формат/Информация : Advanced Video Codec
Профиль формата :
Параметр CABAC формата : Да
Параметр ReFrames формата : 1 кадр
Идентификатор кодека : avc1
Идентификатор кодека/Информация : Advanced Video Coding
Продолжительность : 4 м. 5 с.
Битрейт : 4496 Кбит/сек
Ширина : 1920 пикселей
Высота : 1080 пикселей
Соотношение сторон : 16:9
Режим частоты кадров : Постоянный
Частота кадров : 25,000 кадров/сек
Цветовое пространство : YUV
Субдискретизация насыщенности : 4:2:0
Битовая глубина : 8 бит
Тип развёртки : Прогрессивная
Бит/(Пиксели*Кадры) : 0.087
Размер потока : 132 Мбайт (97%)
Библиотека кодирования : x264 core 129
Настройки программы : cabac=1 / ref=1 / deblock=1:0:0 / analyse=0x1:0x131 / me=dia / subme=2 / psy=1 / psy_rd=1.00:0.00 / mixed_ref=0 / me_range=16 / chroma_me=1 / trellis=0 / 8x8dct=0 / cqm=0 / deadzone=21,11 / fast_pskip=1 / chroma_qp_offset=0 / threads=2 / lookahead_threads=1 / sliced_threads=0 / nr=0 / decimate=1 / interlaced=0 / bluray_compat=0 / constrained_intra=0 / bframes=0 / weightp=2 / keyint=250 / keyint_min=25 / scenecut=40 / intra_refresh=0 / rc_lookahead=40 / rc=abr / mbtree=1 / bitrate=4496 / ratetol=1.0 / qcomp=0.60 / qpmin=10 / qpmax=51 / qpstep=4 / ip_ratio=1.41 / aq=1:1.00
Дата кодирования : UTC 2015-02-05 22:21:35
Дата пометки : UTC 2015-02-05 22:21:35

Аудио
Идентификатор : 2
Формат : AAC
Формат/Информация : Advanced Audio Codec
Профиль формата : LC
Идентификатор кодека : 40
Продолжительность : 4 м. 5 с.
Duration_FirstFrame : 70 мс.
Вид битрейта : Переменный
Битрейт : 152 Кбит/сек
Максимальный битрейт : 176 Кбит/сек
Каналы : 2 канала
Расположение каналов : Front: L R
Частота : 44,1 КГц
Метод сжатия : С потерями
Размер потока : 4,45 Мбайт (3%)
Дата кодирования : UTC 2015-02-05 22:21:35
Дата пометки : UTC 2015-02-05 22:21:35
Общее
Полное имя : E:\VA - Зимний марафон № 156 (Наилучший Дансинг Всплесков)\Mana & Shakira - Mi Verdad.mp4
Формат : MPEG-4
Профиль формата : Base Media
Идентификатор кодека : isom
Размер файла : 153 Мбайт
Продолжительность : 4 м. 33 с.
Режим общего битрейта : Переменный
Общий поток : 4689 Кбит/сек
Дата кодирования : UTC 2015-02-09 17:01:16
Дата пометки : UTC 2015-02-09 17:01:16
Программа кодирования : Lavf54.63.104

Видео
Идентификатор : 1
Формат : AVC
Формат/Информация : Advanced Video Codec
Профиль формата :
Параметр CABAC формата : Да
Параметр ReFrames формата : 1 кадр
Идентификатор кодека : avc1
Идентификатор кодека/Информация : Advanced Video Coding
Продолжительность : 4 м. 33 с.
Битрейт : 4496 Кбит/сек
Ширина : 1920 пикселей
Высота : 1080 пикселей
Соотношение сторон : 16:9
Режим частоты кадров : Постоянный
Частота кадров : 25,000 кадров/сек
Цветовое пространство : YUV
Субдискретизация насыщенности : 4:2:0
Битовая глубина : 8 бит
Тип развёртки : Прогрессивная
Бит/(Пиксели*Кадры) : 0.087
Размер потока : 148 Мбайт (97%)
Библиотека кодирования : x264 core 129
Настройки программы : cabac=1 / ref=1 / deblock=1:0:0 / analyse=0x1:0x131 / me=dia / subme=2 / psy=1 / psy_rd=1.00:0.00 / mixed_ref=0 / me_range=16 / chroma_me=1 / trellis=0 / 8x8dct=0 / cqm=0 / deadzone=21,11 / fast_pskip=1 / chroma_qp_offset=0 / threads=2 / lookahead_threads=1 / sliced_threads=0 / nr=0 / decimate=1 / interlaced=0 / bluray_compat=0 / constrained_intra=0 / bframes=0 / weightp=2 / keyint=250 / keyint_min=25 / scenecut=40 / intra_refresh=0 / rc_lookahead=40 / rc=abr / mbtree=1 / bitrate=4496 / ratetol=1.0 / qcomp=0.60 / qpmin=10 / qpmax=51 / qpstep=4 / ip_ratio=1.41 / aq=1:1.00
Дата кодирования : UTC 2015-02-09 17:01:16
Дата пометки : UTC 2015-02-09 17:01:16

Аудио
Идентификатор : 2
Формат : AAC
Формат/Информация : Advanced Audio Codec
Профиль формата : LC
Идентификатор кодека : 40
Продолжительность : 4 м. 33 с.
Duration_FirstFrame : 70 мс.
Вид битрейта : Переменный
Битрейт : 151 Кбит/сек
Максимальный битрейт : 176 Кбит/сек
Каналы : 2 канала
Расположение каналов : Front: L R
Частота : 44,1 КГц
Метод сжатия : С потерями
Размер потока : 4,94 Мбайт (3%)
Дата кодирования : UTC 2015-02-09 17:01:16
Дата пометки : UTC 2015-02-09 17:01:16
Общее
Полное имя : E:\VA - Зимний марафон № 156 (Наилучший Дансинг Всплесков)\Medina - Når Intet Er Godt Nok (Official Video).mp4
Формат : MPEG-4
Профиль формата : Base Media
Идентификатор кодека : isom
Размер файла : 120 Мбайт
Продолжительность : 3 м. 48 с.
Режим общего битрейта : Переменный
Общий поток : 4397 Кбит/сек
Дата кодирования : UTC 2014-12-08 17:31:00
Дата пометки : UTC 2014-12-08 17:31:00
Программа кодирования : Lavf54.63.104

Видео
Идентификатор : 1
Формат : AVC
Формат/Информация : Advanced Video Codec
Профиль формата :
Параметр CABAC формата : Да
Параметр ReFrames формата : 1 кадр
Идентификатор кодека : avc1
Идентификатор кодека/Информация : Advanced Video Coding
Продолжительность : 3 м. 48 с.
Битрейт : 4246 Кбит/сек
Номинальный битрейт : 4496 Кбит/сек
Ширина : 1920 пикселей
Высота : 1080 пикселей
Соотношение сторон : 16:9
Режим частоты кадров : Постоянный
Частота кадров : 25,000 кадров/сек
Цветовое пространство : YUV
Субдискретизация насыщенности : 4:2:0
Битовая глубина : 8 бит
Тип развёртки : Прогрессивная
Бит/(Пиксели*Кадры) : 0.082
Размер потока : 116 Мбайт (97%)
Библиотека кодирования : x264 core 129
Настройки программы : cabac=1 / ref=1 / deblock=1:0:0 / analyse=0x1:0x131 / me=dia / subme=2 / psy=1 / psy_rd=1.00:0.00 / mixed_ref=0 / me_range=16 / chroma_me=1 / trellis=0 / 8x8dct=0 / cqm=0 / deadzone=21,11 / fast_pskip=1 / chroma_qp_offset=0 / threads=2 / lookahead_threads=1 / sliced_threads=0 / nr=0 / decimate=1 / interlaced=0 / bluray_compat=0 / constrained_intra=0 / bframes=0 / weightp=2 / keyint=250 / keyint_min=25 / scenecut=40 / intra_refresh=0 / rc_lookahead=40 / rc=abr / mbtree=1 / bitrate=4496 / ratetol=1.0 / qcomp=0.60 / qpmin=10 / qpmax=51 / qpstep=4 / ip_ratio=1.41 / aq=1:1.00
Дата кодирования : UTC 2014-12-08 17:31:00
Дата пометки : UTC 2014-12-08 17:31:00

Аудио
Идентификатор : 2
Формат : AAC
Формат/Информация : Advanced Audio Codec
Профиль формата : LC
Идентификатор кодека : 40
Продолжительность : 3 м. 48 с.
Duration_FirstFrame : 70 мс.
Вид битрейта : Переменный
Битрейт : 144 Кбит/сек
Максимальный битрейт : 176 Кбит/сек
Каналы : 2 канала
Расположение каналов : Front: L R
Частота : 44,1 КГц
Метод сжатия : С потерями
Размер потока : 3,97 Мбайт (3%)
Дата кодирования : UTC 2014-12-08 17:31:00
Дата пометки : UTC 2014-12-08 17:31:00
Общее
Полное имя : E:\VA - Зимний марафон № 156 (Наилучший Дансинг Всплесков)\Nicholle Rae - What Do You Want From Me (Official Video).mp4
Формат : MPEG-4
Профиль формата : Base Media
Идентификатор кодека : isom
Размер файла : 123 Мбайт
Продолжительность : 3 м. 36 с.
Режим общего битрейта : Переменный
Общий поток : 4755 Кбит/сек
Дата кодирования : UTC 2015-02-04 02:36:36
Дата пометки : UTC 2015-02-04 02:36:36
Программа кодирования : Lavf54.63.104

Видео
Идентификатор : 1
Формат : AVC
Формат/Информация : Advanced Video Codec
Профиль формата :
Параметр CABAC формата : Да
Параметр ReFrames формата : 1 кадр
Идентификатор кодека : avc1
Идентификатор кодека/Информация : Advanced Video Coding
Продолжительность : 3 м. 36 с.
Битрейт : 4496 Кбит/сек
Ширина : 1920 пикселей
Высота : 1080 пикселей
Соотношение сторон : 16:9
Режим частоты кадров : Постоянный
Частота кадров : 25,000 кадров/сек
Цветовое пространство : YUV
Субдискретизация насыщенности : 4:2:0
Битовая глубина : 8 бит
Тип развёртки : Прогрессивная
Бит/(Пиксели*Кадры) : 0.087
Размер потока : 119 Мбайт (97%)
Библиотека кодирования : x264 core 129
Настройки программы : cabac=1 / ref=1 / deblock=1:0:0 / analyse=0x1:0x131 / me=dia / subme=2 / psy=1 / psy_rd=1.00:0.00 / mixed_ref=0 / me_range=16 / chroma_me=1 / trellis=0 / 8x8dct=0 / cqm=0 / deadzone=21,11 / fast_pskip=1 / chroma_qp_offset=0 / threads=2 / lookahead_threads=1 / sliced_threads=0 / nr=0 / decimate=1 / interlaced=0 / bluray_compat=0 / constrained_intra=0 / bframes=0 / weightp=2 / keyint=250 / keyint_min=25 / scenecut=40 / intra_refresh=0 / rc_lookahead=40 / rc=abr / mbtree=1 / bitrate=4496 / ratetol=1.0 / qcomp=0.60 / qpmin=10 / qpmax=51 / qpstep=4 / ip_ratio=1.41 / aq=1:1.00
Дата кодирования : UTC 2015-02-04 02:36:36
Дата пометки : UTC 2015-02-04 02:36:36

Аудио
Идентификатор : 2
Формат : AAC
Формат/Информация : Advanced Audio Codec
Профиль формата : LC
Идентификатор кодека : 40
Продолжительность : 3 м. 36 с.
Duration_FirstFrame : 70 мс.
Вид битрейта : Переменный
Битрейт : 149 Кбит/сек
Максимальный битрейт : 176 Кбит/сек
Каналы : 2 канала
Расположение каналов : Front: L R
Частота : 44,1 КГц
Метод сжатия : С потерями
Размер потока : 3,84 Мбайт (3%)
Дата кодирования : UTC 2015-02-04 02:36:36
Дата пометки : UTC 2015-02-04 02:36:36
Общее
Полное имя : E:\VA - Зимний марафон № 156 (Наилучший Дансинг Всплесков)\Paulina Starborn - Paint Me (Official Video).mp4
Формат : MPEG-4
Профиль формата : Base Media
Идентификатор кодека : isom
Размер файла : 117 Мбайт
Продолжительность : 3 м. 30 с.
Режим общего битрейта : Переменный
Общий поток : 4690 Кбит/сек
Дата кодирования : UTC 2015-02-03 11:48:48
Дата пометки : UTC 2015-02-03 11:48:48
Программа кодирования : Lavf54.63.104

Видео
Идентификатор : 1
Формат : AVC
Формат/Информация : Advanced Video Codec
Профиль формата :
Параметр CABAC формата : Да
Параметр ReFrames формата : 1 кадр
Идентификатор кодека : avc1
Идентификатор кодека/Информация : Advanced Video Coding
Продолжительность : 3 м. 30 с.
Битрейт : 4496 Кбит/сек
Ширина : 1920 пикселей
Высота : 1080 пикселей
Соотношение сторон : 16:9
Режим частоты кадров : Постоянный
Частота кадров : 25,000 кадров/сек
Цветовое пространство : YUV
Субдискретизация насыщенности : 4:2:0
Битовая глубина : 8 бит
Тип развёртки : Прогрессивная
Бит/(Пиксели*Кадры) : 0.087
Размер потока : 114 Мбайт (97%)
Библиотека кодирования : x264 core 129
Настройки программы : cabac=1 / ref=1 / deblock=1:0:0 / analyse=0x1:0x131 / me=dia / subme=2 / psy=1 / psy_rd=1.00:0.00 / mixed_ref=0 / me_range=16 / chroma_me=1 / trellis=0 / 8x8dct=0 / cqm=0 / deadzone=21,11 / fast_pskip=1 / chroma_qp_offset=0 / threads=2 / lookahead_threads=1 / sliced_threads=0 / nr=0 / decimate=1 / interlaced=0 / bluray_compat=0 / constrained_intra=0 / bframes=0 / weightp=2 / keyint=250 / keyint_min=25 / scenecut=40 / intra_refresh=0 / rc_lookahead=40 / rc=abr / mbtree=1 / bitrate=4496 / ratetol=1.0 / qcomp=0.60 / qpmin=10 / qpmax=51 / qpstep=4 / ip_ratio=1.41 / aq=1:1.00
Дата кодирования : UTC 2015-02-03 11:48:48
Дата пометки : UTC 2015-02-03 11:48:48

Аудио
Идентификатор : 2
Формат : AAC
Формат/Информация : Advanced Audio Codec
Профиль формата : LC
Идентификатор кодека : 40
Продолжительность : 3 м. 30 с.
Duration_FirstFrame : 70 мс.
Вид битрейта : Переменный
Битрейт : 151 Кбит/сек
Максимальный битрейт : 176 Кбит/сек
Каналы : 2 канала
Расположение каналов : Front: L R
Частота : 44,1 КГц
Метод сжатия : С потерями
Размер потока : 3,78 Мбайт (3%)
Дата кодирования : UTC 2015-02-03 11:48:48
Дата пометки : UTC 2015-02-03 11:48:48
Общее
Полное имя : E:\VA - Зимний марафон № 156 (Наилучший Дансинг Всплесков)\Raluka - Never Give Up (Vannys & Adrian Funk Remix Edit) (Official Video).mp4
Формат : MPEG-4
Профиль формата : Base Media
Идентификатор кодека : isom
Размер файла : 107 Мбайт
Продолжительность : 3 м. 16 с.
Режим общего битрейта : Переменный
Общий поток : 4581 Кбит/сек
Дата кодирования : UTC 2015-02-02 08:21:53
Дата пометки : UTC 2015-02-02 08:21:53
Программа кодирования : Lavf54.63.104

Видео
Идентификатор : 1
Формат : AVC
Формат/Информация : Advanced Video Codec
Профиль формата :
Параметр CABAC формата : Да
Параметр ReFrames формата : 1 кадр
Идентификатор кодека : avc1
Идентификатор кодека/Информация : Advanced Video Coding
Продолжительность : 3 м. 16 с.
Битрейт : 4496 Кбит/сек
Ширина : 1920 пикселей
Высота : 1080 пикселей
Соотношение сторон : 16:9
Режим частоты кадров : Постоянный
Частота кадров : 25,000 кадров/сек
Цветовое пространство : YUV
Субдискретизация насыщенности : 4:2:0
Битовая глубина : 8 бит
Тип развёртки : Прогрессивная
Бит/(Пиксели*Кадры) : 0.087
Размер потока : 104 Мбайт (97%)
Библиотека кодирования : x264 core 129
Настройки программы : cabac=1 / ref=1 / deblock=1:0:0 / analyse=0x1:0x131 / me=dia / subme=2 / psy=1 / psy_rd=1.00:0.00 / mixed_ref=0 / me_range=16 / chroma_me=1 / trellis=0 / 8x8dct=0 / cqm=0 / deadzone=21,11 / fast_pskip=1 / chroma_qp_offset=0 / threads=2 / lookahead_threads=1 / sliced_threads=0 / nr=0 / decimate=1 / interlaced=0 / bluray_compat=0 / constrained_intra=0 / bframes=0 / weightp=2 / keyint=250 / keyint_min=25 / scenecut=40 / intra_refresh=0 / rc_lookahead=40 / rc=abr / mbtree=1 / bitrate=4496 / ratetol=1.0 / qcomp=0.60 / qpmin=10 / qpmax=51 / qpstep=4 / ip_ratio=1.41 / aq=1:1.00
Дата кодирования : UTC 2015-02-02 08:21:53
Дата пометки : UTC 2015-02-02 08:21:53

Аудио
Идентификатор : 2
Формат : AAC
Формат/Информация : Advanced Audio Codec
Профиль формата : LC
Идентификатор кодека : 40
Продолжительность : 3 м. 16 с.
Duration_FirstFrame : 70 мс.
Вид битрейта : Переменный
Битрейт : 148 Кбит/сек
Максимальный битрейт : 176 Кбит/сек
Каналы : 2 канала
Расположение каналов : Front: L R
Частота : 44,1 КГц
Метод сжатия : С потерями
Размер потока : 3,46 Мбайт (3%)
Дата кодирования : UTC 2015-02-02 08:21:53
Дата пометки : UTC 2015-02-02 08:21:53
Общее
Полное имя : E:\VA - Зимний марафон № 156 (Наилучший Дансинг Всплесков)\Smash Ft. Livingstone - The Edge (Official Video).mp4
Формат : MPEG-4
Профиль формата : Base Media
Идентификатор кодека : isom
Размер файла : 122 Мбайт
Продолжительность : 3 м. 33 с.
Режим общего битрейта : Переменный
Общий поток : 4815 Кбит/сек
Дата кодирования : UTC 2015-02-13 12:40:37
Дата пометки : UTC 2015-02-13 12:40:37
Программа кодирования : Lavf54.63.104

Видео
Идентификатор : 1
Формат : AVC
Формат/Информация : Advanced Video Codec
Профиль формата :
Параметр CABAC формата : Да
Параметр ReFrames формата : 1 кадр
Идентификатор кодека : avc1
Идентификатор кодека/Информация : Advanced Video Coding
Продолжительность : 3 м. 33 с.
Битрейт : 4496 Кбит/сек
Ширина : 1920 пикселей
Высота : 1080 пикселей
Соотношение сторон : 16:9
Режим частоты кадров : Постоянный
Частота кадров : 25,000 кадров/сек
Цветовое пространство : YUV
Субдискретизация насыщенности : 4:2:0
Битовая глубина : 8 бит
Тип развёртки : Прогрессивная
Бит/(Пиксели*Кадры) : 0.087
Размер потока : 118 Мбайт (97%)
Библиотека кодирования : x264 core 129
Настройки программы : cabac=1 / ref=1 / deblock=1:0:0 / analyse=0x1:0x131 / me=dia / subme=2 / psy=1 / psy_rd=1.00:0.00 / mixed_ref=0 / me_range=16 / chroma_me=1 / trellis=0 / 8x8dct=0 / cqm=0 / deadzone=21,11 / fast_pskip=1 / chroma_qp_offset=0 / threads=2 / lookahead_threads=1 / sliced_threads=0 / nr=0 / decimate=1 / interlaced=0 / bluray_compat=0 / constrained_intra=0 / bframes=0 / weightp=2 / keyint=250 / keyint_min=25 / scenecut=40 / intra_refresh=0 / rc_lookahead=40 / rc=abr / mbtree=1 / bitrate=4496 / ratetol=1.0 / qcomp=0.60 / qpmin=10 / qpmax=51 / qpstep=4 / ip_ratio=1.41 / aq=1:1.00
Дата кодирования : UTC 2015-02-13 12:40:37
Дата пометки : UTC 2015-02-13 12:40:37

Аудио
Идентификатор : 2
Формат : AAC
Формат/Информация : Advanced Audio Codec
Профиль формата : LC
Идентификатор кодека : 40
Продолжительность : 3 м. 33 с.
Duration_FirstFrame : 70 мс.
Вид битрейта : Переменный
Битрейт : 151 Кбит/сек
Максимальный битрейт : 176 Кбит/сек
Каналы : 2 канала
Расположение каналов : Front: L R
Частота : 44,1 КГц
Метод сжатия : С потерями
Размер потока : 3,84 Мбайт (3%)
Дата кодирования : UTC 2015-02-13 12:40:37
Дата пометки : UTC 2015-02-13 12:40:37
Общее
Полное имя : E:\VA - Зимний марафон № 156 (Наилучший Дансинг Всплесков)\Taylor Swift - Style (Official Video).mp4
Формат : MPEG-4
Профиль формата : Base Media
Идентификатор кодека : isom
Размер файла : 134 Мбайт
Продолжительность : 4 м. 3 с.
Режим общего битрейта : Переменный
Общий поток : 4611 Кбит/сек
Дата кодирования : UTC 2015-02-10 19:29:42
Дата пометки : UTC 2015-02-10 19:29:42
Программа кодирования : Lavf54.63.104

Видео
Идентификатор : 1
Формат : AVC
Формат/Информация : Advanced Video Codec
Профиль формата :
Параметр CABAC формата : Да
Параметр ReFrames формата : 1 кадр
Идентификатор кодека : avc1
Идентификатор кодека/Информация : Advanced Video Coding
Продолжительность : 4 м. 3 с.
Битрейт : 4496 Кбит/сек
Ширина : 1920 пикселей
Высота : 1080 пикселей
Соотношение сторон : 16:9
Режим частоты кадров : Постоянный
Частота кадров : 25,000 кадров/сек
Цветовое пространство : YUV
Субдискретизация насыщенности : 4:2:0
Битовая глубина : 8 бит
Тип развёртки : Прогрессивная
Бит/(Пиксели*Кадры) : 0.087
Размер потока : 129 Мбайт (97%)
Библиотека кодирования : x264 core 129
Настройки программы : cabac=1 / ref=1 / deblock=1:0:0 / analyse=0x1:0x131 / me=dia / subme=2 / psy=1 / psy_rd=1.00:0.00 / mixed_ref=0 / me_range=16 / chroma_me=1 / trellis=0 / 8x8dct=0 / cqm=0 / deadzone=21,11 / fast_pskip=1 / chroma_qp_offset=0 / threads=2 / lookahead_threads=1 / sliced_threads=0 / nr=0 / decimate=1 / interlaced=0 / bluray_compat=0 / constrained_intra=0 / bframes=0 / weightp=2 / keyint=250 / keyint_min=25 / scenecut=40 / intra_refresh=0 / rc_lookahead=40 / rc=abr / mbtree=1 / bitrate=4496 / ratetol=1.0 / qcomp=0.60 / qpmin=10 / qpmax=51 / qpstep=4 / ip_ratio=1.41 / aq=1:1.00
Дата кодирования : UTC 2015-02-10 19:29:42
Дата пометки : UTC 2015-02-10 19:29:42

Аудио
Идентификатор : 2
Формат : AAC
Формат/Информация : Advanced Audio Codec
Профиль формата : LC
Идентификатор кодека : 40
Продолжительность : 4 м. 2 с.
Duration_FirstFrame : 70 мс.
Вид битрейта : Переменный
Битрейт : 149 Кбит/сек
Максимальный битрейт : 176 Кбит/сек
Каналы : 2 канала
Расположение каналов : Front: L R
Частота : 44,1 КГц
Метод сжатия : С потерями
Размер потока : 4,30 Мбайт (3%)
Дата кодирования : UTC 2015-02-10 19:29:42
Дата пометки : UTC 2015-02-10 19:29:42
Скриншоты:
Хорошего настроения и


Время раздачи:
24/7 - до 5 скачавших, далее по возможности.
 
Не забывайте говорить Спасибо. Не уходите с раздачи!   
Торрент: Зарегистрирован [17 фев 2015, 13:55] Скачать торрент
Скачать торрент
[ Размер 18.12 КБ / Просмотров 25 ]
Статус:
Проверен
 
.torrent скачан: 0 раз
Хэш: de98bada39b0f3b4c3109d9d6dea6a813c03f922
Размер: 3.04 ГБ (3 260 291 127 байт)
Стать Автором раздачи
 
Аватара пользователя
 
Раздал: 2.45 ГБ
Скачал: 15.94 МБ
Ратио: 157.696
Сообщения: 337733
Зарегистрирован: 16 янв 2012, 17:03


  • Похожие торренты
    Ответы
    Просмотры
    Последнее сообщение

Вернуться в Музыкальные клипы (транзит)

Ресурс не предоставляет электронные версии произведений, а занимается лишь коллекционированием и каталогизацией ссылок, присылаемых и публикуемых на форуме нашими читателями. Если вы являетесь правообладателем какого-либо представленного материала и не желаете чтобы ссылка на него находилась в нашем каталоге, свяжитесь с нами и мы незамедлительно удалим её. Файлы для обмена на трекере предоставлены пользователями сайта, и администрация не несёт ответственности за их содержание. Просьба не заливать файлы, защищенные авторскими правами, а также файлы нелегального содержания!
cron