Weather Girls - Muscles, Men & More (2007) [FLAC|Lossless]<Electronic, Euro House, House>

 
 Статистика раздачи 
Размер: 388.14 МБ   |  Зарегистрирован: 14 фев 2015, 23:22   |   .torrent скачан: 0 раз
Сидеров: 1  [ 0 байт/сек ]     Личеров: 0  [ 0 байт/сек ]  
  

Weather Girls - Muscles, Men & More (2007) [FLAC|Lossless]<Electronic, Euro House, House>

Сообщение Thistoll » 14 фев 2015, 23:23

Weather Girls - Muscles, Men & More (2007)

Лейбл: Coconut
Каталог #: 4250282803264
Год: 2007
Жанр: Electronic, Euro House, House
Продолжительность: 00:53:33

Кодек: FLAC
Битрейт: Lossless
Тип раздачи: Image+.cue
Наличие сканов в содержимом раздачи: есть


Треклист:
01. It's Raining Men (Live Version 2004) (5:07)
02. Wild Thang (3:53)
03. Can You Feel It (4:01)
04. Born To Be Alive (3:24)
05. Your Love (3:50)
06. Muscles (3:57)
07. You Ain't Never Been Loved Like This (3:47)
08. When We're Together (4:05)
09. Just For Your Love (3:42)
10. Don't Leave Me This Way (3:47)
11. Sweeter Salsa (4:51)
12. Wild Thang (Extended Edit) (5:21)
13. Mega-Mix (3:48)
Код:
Код: Выделить всё
Exact Audio Copy V1.0 beta 1 from 15. November 2010

EAC extraction logfile from 8. October 2012, 17:06

Weather Girls / Muscles, Men And More

Used drive  : ASUS    DRW-2014L1   Adapter: 1  ID: 1

Read mode               : Secure
Utilize accurate stream : Yes
Defeat audio cache      : Yes
Make use of C2 pointers : No

Read offset correction                      : 12
Overread into Lead-In and Lead-Out          : No
Fill up missing offset samples with silence : Yes
Delete leading and trailing silent blocks   : No
Null samples used in CRC calculations       : Yes
Used interface                              : Native Win32 interface for Win NT & 2000

Used output format : Internal WAV Routines
Sample format      : 44.100 Hz; 16 Bit; Stereo

TOC of the extracted CD

     Track |   Start  |  Length  | Start sector | End sector
    ---------------------------------------------------------
        1  |  0:00.00 |  5:08.29 |         0    |    23128
        2  |  5:08.29 |  3:52.07 |     23129    |    40535
        3  |  9:00.36 |  4:02.17 |     40536    |    58702
        4  | 13:02.53 |  3:23.39 |     58703    |    73966
        5  | 16:26.17 |  3:49.26 |     73967    |    91167
        6  | 20:15.43 |  3:59.12 |     91168    |   109104
        7  | 24:14.55 |  3:46.62 |    109105    |   126116
        8  | 28:01.42 |  4:06.58 |    126117    |   144624
        9  | 32:08.25 |  3:38.08 |    144625    |   160982
       10  | 35:46.33 |  3:49.13 |    160983    |   178170
       11  | 39:35.46 |  4:50.20 |    178171    |   199940
       12  | 44:25.66 |  5:21.64 |    199941    |   224079
       13  | 49:47.55 |  3:50.54 |    224080    |   241383

Range status and errors

Selected range

     Filename C:\MusicBox\Weather Girls - Muscles, Men And More.wav

     Peak level 100.0 %
     Extraction speed 0.3 X
     Range quality 100.0 %
     Copy CRC 0FFE2BDF
     Copy OK

No errors occurred

End of status report
Код:
Код: Выделить всё
-----------------------

DON'T MODIFY THIS FILE

-----------------------

PERFORMER: auCDtect Task Manager, ver. 1.6.0 RC1 build 1.6.0.1
Copyright (c) 2008-2010 y-soft. All rights reserved
http:/y-soft.org

ANALYZER: auCDtect: CD records authenticity detector, version 0.8.2
Copyright (c) 2004 Oleg Berngardt. All rights reserved.
Copyright (c) 2004 Alexander Djourik. All rights reserved.

FILE: Weather Girls - Muscles, Men And More.flac
  Size: 399299724 Hash: 020F3BB8D6D8A0DC33B45041DB8DE94B Accuracy: -m0
  Conclusion: CDDA 100%
  Signature: E9D920397C50867275AD192C6C62DC24BA4449B0
Код:
Код: Выделить всё
REM GENRE Disco
REM DATE 2007
REM DISCID CA0C920D
REM COMMENT "ExactAudioCopy v1.0b1"
PERFORMER "Weather Girls"
TITLE "Muscles, Men And More"
FILE "Weather Girls - Muscles, Men And More.flac" WAVE
  TRACK 01 AUDIO
    TITLE "It's Raining Man"
    PERFORMER "Weather Girls"
    INDEX 01 00:00:00
  TRACK 02 AUDIO
    TITLE "Wild Thang"
    PERFORMER "Weather Girls"
    INDEX 01 05:08:29
  TRACK 03 AUDIO
    TITLE "Can You Feel It"
    PERFORMER "Weather Girls"
    INDEX 00 05:08:29
    INDEX 01 09:00:36
  TRACK 04 AUDIO
    TITLE "Born To Be Alive"
    PERFORMER "Weather Girls"
    INDEX 00 05:08:29
    INDEX 01 13:02:53
  TRACK 05 AUDIO
    TITLE "Your Love"
    PERFORMER "Weather Girls"
    INDEX 00 05:08:29
    INDEX 01 16:26:17
  TRACK 06 AUDIO
    TITLE "Muscles"
    PERFORMER "Weather Girls"
    INDEX 00 05:08:29
    INDEX 01 20:15:43
  TRACK 07 AUDIO
    TITLE "You Ain't Been Loved Like This"
    PERFORMER "Weather Girls"
    INDEX 00 05:08:29
    INDEX 01 24:14:55
  TRACK 08 AUDIO
    TITLE "When we're Together"
    PERFORMER "Weather Girls"
    INDEX 00 05:08:29
    INDEX 01 28:01:42
  TRACK 09 AUDIO
    TITLE "Just For Your Love"
    PERFORMER "Weather Girls"
    INDEX 00 05:08:29
    INDEX 01 32:08:25
  TRACK 10 AUDIO
    TITLE "Don't Leave Me This way"
    PERFORMER "Weather Girls"
    INDEX 00 05:08:29
    INDEX 01 35:46:33
  TRACK 11 AUDIO
    TITLE "Sweet Salsa"
    PERFORMER "Weather Girls"
    INDEX 00 05:08:29
    INDEX 01 39:35:46
  TRACK 12 AUDIO
    TITLE "Wild Thang (Extendee Edit)"
    PERFORMER "Weather Girls"
    INDEX 00 05:08:29
    INDEX 01 44:25:66
  TRACK 13 AUDIO
    TITLE "Mega Mix"
    PERFORMER "Weather Girls"
    INDEX 00 05:08:29
    INDEX 01 49:47:55
Время раздачи: Пн-Пт с 17:00 до 22:00, Сб-Вс с 12:00 до 23:30 (MSC)
 
Не забывайте говорить Спасибо. Не уходите с раздачи!   
Торрент: Зарегистрирован [14 фев 2015, 23:22] Скачать торрент
Скачать торрент
[ Размер 16.53 КБ / Просмотров 11 ]
Статус:
Проверен
 
.torrent скачан: 0 раз
Хэш: 04972918cb4e11e2b658eb21570c356e5542b681
Размер: 388.14 МБ (406 995 215 байт)
Стать Автором раздачи
 
 
Раздал: 6.67 ГБ
Скачал: 302.5 МБ
Ратио: 22.576
Сообщения: 374198
Зарегистрирован: 17 апр 2014, 11:05


  • Похожие торренты
    Ответы
    Просмотры
    Последнее сообщение

Вернуться в House, Techno, Electro, Minimal (транзит Lossless)

Ресурс не предоставляет электронные версии произведений, а занимается лишь коллекционированием и каталогизацией ссылок, присылаемых и публикуемых на форуме нашими читателями. Если вы являетесь правообладателем какого-либо представленного материала и не желаете чтобы ссылка на него находилась в нашем каталоге, свяжитесь с нами и мы незамедлительно удалим её. Файлы для обмена на трекере предоставлены пользователями сайта, и администрация не несёт ответственности за их содержание. Просьба не заливать файлы, защищенные авторскими правами, а также файлы нелегального содержания!
cron