+100500 / (354 выпуска) (2010-2015) [MP4|480x360/720x480/1280х720/1920х1080] <WEB-DLRip [H.264]>

 
 Статистика раздачи 
Размер: 32.28 ГБ   |  Зарегистрирован: 14 фев 2015, 22:12   |   .torrent скачан: 0 раз
Сидеров: 1  [ 0 байт/сек ]     Личеров: 0  [ 0 байт/сек ]  
  

+100500 / (354 выпуска) (2010-2015) [MP4|480x360/720x480/1280х720/1920х1080] <WEB-DLRip [H.264]>

Сообщение Thistoll » 14 фев 2015, 22:12

+100500 / (354 выпуска) (2010-2015) WEB-DLRip

Жанр: Телепередача, Юмор

Описание:
Русскоязычное шоу Макса Голополосова под названием «+100500». В отличие от потуг Kamikadzedead быть оригинальным, Максим, он же AdamThomasMoran не стал изобретать велосипед, а просто скопировал популярного зарубежного коллегу Рея Вильяма Джонсона (Ray William Johnson) и даже не пытается это скрыть. Впрочем, его зарубежный прототип тоже не делает абсолютно ничего своего — он всего лишь комментирует популярные сетевые ролики, с бешеной интенсивностью мельтеша перед камерой и сыпля нецензурными выражениями.

Внимание! Присутствует ненормативная лексика!


Продолжительность: 35:26:28, 00:03:00-00:09:00 выпуск
Качество видео: WEB-DLRip
Перевод: Отсутствует

Видеокодек: MPEG-4 AVC/H.264
Битрейт видео: 340 - 4638 Кбит/сек
Размер кадра: 640х360, 720x480, 1280х720, 1920х1080
Аудиокодек: AAC, 2 канала
Битрейт аудио: 96 - 192 Кбит/сек
Видеокодек: MPEG-4 AVC/H.264
Битрейт видео: 340 - 727 Кбит/сек
Размер кадра: 480x360
Аудиокодек: AAC, 2 канала
Битрейт аудио: 96 - 128 Кбит/сек
Видеокодек: MPEG-4 AVC/H.264
Битрейт видео: 630 - 650 Кбит/сек
Размер кадра: 720x480
Аудиокодек: AAC, 2 канала
Битрейт аудио: 128 Кбит/сек
Видеокодек: MPEG-4 AVC/H.264
Битрейт видео: 1382 - 2362 Кбит/сек
Размер кадра: 1280x720
Аудиокодек: AAC, 2 канала
Битрейт аудио: 128 - 192 Кбит/сек
Видеокодек: MPEG-4 AVC/H.264
Битрейт видео: 2871 - 4638 Кбит/сек
Размер кадра: 1920x1080
Аудиокодек: AAC, 2 канала
Битрейт аудио: 128 Кбит/сек
Общее
Полное имя : D:\+100500\001 - Разборка.mp4
Формат : MPEG-4
Профиль формата : Base Media
Идентификатор кодека : isom
Размер файла : 13,6 Мбайт
Продолжительность : 4 м. 6 с.
Режим общего битрейта : Переменный
Общий поток : 462 Кбит/сек
Дата кодирования : UTC 1970-01-01 00:00:00
Дата пометки : UTC 1970-01-01 00:00:00
Программа кодирования : Lavf52.40.0

Видео
Идентификатор : 1
Формат : AVC
Формат/Информация : Advanced Video Codec
Профиль формата :
Параметр CABAC формата : Нет
Параметр ReFrames формата : 1 кадр
Идентификатор кодека : avc1
Идентификатор кодека/Информация : Advanced Video Coding
Продолжительность : 4 м. 6 с.
Битрейт : 340 Кбит/сек
Ширина : 480 пикселей
Высота : 360 пикселей
Соотношение сторон : 4:3
Режим частоты кадров : Переменный
Частота кадров : 25,000 кадров/сек
Минимальная частота кадров : 12,500 кадров/сек
Максимальная частота кадров : 25,000 кадров/сек
Цветовое пространство : YUV
Субдискретизация насыщенности : 4:2:0
Битовая глубина : 8 бит
Тип развёртки : Прогрессивная
Бит/(Пиксели*Кадры) : 0.079
Размер потока : 9,84 Мбайт (72%)
Библиотека кодирования : x264 core 79
Настройки программы : cabac=0 / ref=1 / deblock=1:0:0 / analyse=0x1:0x131 / me=tesa / subme=9 / psy=1 / psy_rd=1.0:0.0 / mixed_ref=0 / me_range=24 / chroma_me=1 / trellis=0 / 8x8dct=0 / cqm=0 / deadzone=21,11 / chroma_qp_offset=-2 / threads=24 / nr=0 / decimate=1 / mbaff=0 / constrained_intra=0 / bframes=0 / wpredp=0 / keyint=250 / keyint_min=25 / scenecut=40 / rc_lookahead=40 / rc=cbr / mbtree=1 / bitrate=340 / ratetol=11.8 / qcomp=0.60 / qpmin=10 / qpmax=51 / qpstep=4 / vbv_maxrate=10000 / vbv_bufsize=10000 / ip_ratio=1.41 / aq=1:1.00
Язык : Russian
Дата кодирования : UTC 1970-01-01 00:00:00
Дата пометки : UTC 1970-01-01 00:00:00

Аудио
Идентификатор : 2
Формат : AAC
Формат/Информация : Advanced Audio Codec
Профиль формата : LC
Идентификатор кодека : 40
Продолжительность : 4 м. 6 с.
Вид битрейта : Переменный
Битрейт : 123 Кбит/сек
Каналы : 2 канала
Расположение каналов : Front: L R
Частота : 44,1 КГц
Метод сжатия : С потерями
Размер потока : 3,62 Мбайт (27%)
Язык : Russian
Дата кодирования : UTC 1970-01-01 00:00:00
Дата пометки : UTC 1970-01-01 00:00:00
Общее
Полное имя : D:\+100500\083 - Шпион.mp4
Формат : MPEG-4
Профиль формата : Base Media
Идентификатор кодека : isom
Размер файла : 28,9 Мбайт
Продолжительность : 5 м. 16 с.
Режим общего битрейта : Переменный
Общий поток : 766 Кбит/сек
Дата кодирования : UTC 1970-01-01 00:00:00
Дата пометки : UTC 1970-01-01 00:00:00
Программа кодирования : Lavf52.40.0

Видео
Идентификатор : 1
Формат : AVC
Формат/Информация : Advanced Video Codec
Профиль формата :
Параметр CABAC формата : Да
Параметр ReFrames формата : 3 кадра
Идентификатор кодека : avc1
Идентификатор кодека/Информация : Advanced Video Coding
Продолжительность : 5 м. 16 с.
Duration_FirstFrame : 40 мс.
Битрейт : 633 Кбит/сек
Номинальный битрейт : 670 Кбит/сек
Ширина : 720 пикселей
Высота : 480 пикселей
Соотношение сторон : 16:9
Режим частоты кадров : Постоянный
Частота кадров : 25,000 кадров/сек
Стандарт вещания : NTSC
Цветовое пространство : YUV
Субдискретизация насыщенности : 4:2:0
Битовая глубина : 8 бит
Тип развёртки : Прогрессивная
Бит/(Пиксели*Кадры) : 0.073
Размер потока : 23,8 Мбайт (83%)
Библиотека кодирования : x264 core 79
Настройки программы : cabac=1 / ref=3 / deblock=1:0:0 / analyse=0x3:0x113 / me=hex / subme=7 / psy=1 / psy_rd=1.0:0.0 / mixed_ref=1 / me_range=16 / chroma_me=1 / trellis=1 / 8x8dct=1 / cqm=0 / deadzone=21,11 / chroma_qp_offset=-2 / threads=24 / nr=0 / decimate=1 / mbaff=0 / constrained_intra=0 / bframes=3 / b_pyramid=0 / b_adapt=1 / b_bias=0 / direct=1 / wpredb=32 / wpredp=2 / keyint=250 / keyint_min=25 / scenecut=40 / rc_lookahead=40 / rc=abr / mbtree=1 / bitrate=670 / ratetol=6.0 / qcomp=0.60 / qpmin=10 / qpmax=51 / qpstep=4 / ip_ratio=1.41 / aq=1:1.00
Язык : English
Дата кодирования : UTC 1970-01-01 00:00:00
Дата пометки : UTC 1970-01-01 00:00:00
Общее
Полное имя : D:\+100500\014 - Оба Под Хмурым.mp4
Формат : MPEG-4
Профиль формата : Base Media / Version 2
Идентификатор кодека : mp42
Размер файла : 98,9 Мбайт
Продолжительность : 5 м. 32 с.
Режим общего битрейта : Переменный
Общий поток : 2495 Кбит/сек
Дата кодирования : UTC 2010-12-18 10:21:34
Дата пометки : UTC 2010-12-18 10:21:34
gsst : 0
gstd : 332480
gssd : BC22C2387HH1303903472959289
gshh : v12.lscache3.c.youtube.com

Видео
Идентификатор : 1
Формат : AVC
Формат/Информация : Advanced Video Codec
Профиль формата :
Параметр CABAC формата : Да
Параметр ReFrames формата : 1 кадр
Идентификатор кодека : avc1
Идентификатор кодека/Информация : Advanced Video Coding
Продолжительность : 5 м. 32 с.
Битрейт : 2362 Кбит/сек
Максимальный битрейт : 5559 Кбит/сек
Ширина : 1280 пикселей
Высота : 720 пикселей
Соотношение сторон : 16:9
Режим частоты кадров : Постоянный
Частота кадров : 25,000 кадров/сек
Цветовое пространство : YUV
Субдискретизация насыщенности : 4:2:0
Битовая глубина : 8 бит
Тип развёртки : Прогрессивная
Бит/(Пиксели*Кадры) : 0.103
Размер потока : 93,6 Мбайт (95%)
Дата кодирования : UTC 1970-01-01 00:00:00
Дата пометки : UTC 2010-12-18 10:21:43

Аудио
Идентификатор : 2
Формат : AAC
Формат/Информация : Advanced Audio Codec
Профиль формата : LC
Идентификатор кодека : 40
Продолжительность : 5 м. 32 с.
Вид битрейта : Переменный
Битрейт : 128 Кбит/сек
Максимальный битрейт : 179 Кбит/сек
Каналы : 2 канала
Расположение каналов : Front: L R
Частота : 44,1 КГц
Метод сжатия : С потерями
Размер потока : 5,07 Мбайт (5%)
Заголовок : (C) 2007 Google Inc. v08.13.2007.
Дата кодирования : UTC 2010-12-18 10:21:39
Дата пометки : UTC 2010-12-18 10:21:43
Общее
Полное имя : D:\+100500\011 - Кандибобер.mp4
Формат : MPEG-4
Профиль формата : Base Media / Version 2
Идентификатор кодека : mp42
Размер файла : 93,7 Мбайт
Продолжительность : 4 м. 21 с.
Режим общего битрейта : Переменный
Общий поток : 3004 Кбит/сек
Дата кодирования : UTC 2010-11-26 17:42:40
Дата пометки : UTC 2010-11-26 17:42:40
gsst : 0
gstd : 261760
gssd : BC22C2385HH1303903327758947
gshh : v2.lscache2.c.youtube.com

Видео
Идентификатор : 1
Формат : AVC
Формат/Информация : Advanced Video Codec
Профиль формата :
Параметр CABAC формата : Да
Параметр ReFrames формата : 1 кадр
Идентификатор кодека : avc1
Идентификатор кодека/Информация : Advanced Video Coding
Продолжительность : 4 м. 21 с.
Битрейт : 2871 Кбит/сек
Максимальный битрейт : 8061 Кбит/сек
Ширина : 1920 пикселей
Высота : 1080 пикселей
Соотношение сторон : 16:9
Режим частоты кадров : Постоянный
Частота кадров : 25,000 кадров/сек
Цветовое пространство : YUV
Субдискретизация насыщенности : 4:2:0
Битовая глубина : 8 бит
Тип развёртки : Прогрессивная
Бит/(Пиксели*Кадры) : 0.055
Размер потока : 89,6 Мбайт (96%)
Дата кодирования : UTC 1970-01-01 00:00:00
Дата пометки : UTC 2010-11-26 17:42:42

Аудио
Идентификатор : 2
Формат : AAC
Формат/Информация : Advanced Audio Codec
Профиль формата : LC
Идентификатор кодека : 40
Продолжительность : 4 м. 21 с.
Вид битрейта : Переменный
Битрейт : 128 Кбит/сек
Максимальный битрейт : 221 Кбит/сек
Каналы : 2 канала
Расположение каналов : Front: L R
Частота : 44,1 КГц
Метод сжатия : С потерями
Размер потока : 4,00 Мбайт (4%)
Заголовок : (C) 2007 Google Inc. v08.13.2007.
Дата кодирования : UTC 2010-11-26 17:42:41
Дата пометки : UTC 2010-11-26 17:42:42
Скриншоты
Внимание! Раздача ведётся путём добавления новых серий; при каждом добавлении создаётся новый торрент.
Чтобы начать докачку новой серии, пользователям необходимо сделать следующее:
1. Остановить скачивание;
2. Удалить старый торрент у себя из клиента (старые серии удалять не надо);
3. Скачать новый торрент и запустить его у себя в клиенте вместо старого, при этом указать клиенту путь в старую папку куда и должно происходить скачивание новых серий. Ваш клиент при этом должен произвести хеширование (проверку) старой папки и будет докачивать только те серии, которых у вас ещё нет. Старые серии при этом не удаляются, а продолжают раздаваться! Eсли вы уже удалили старые серии, то предотвратить повторную закачку старых серий можно, отжав галочку в соответствующих местах при запуске нового торрента.
Время раздачи: Пн-Пт с 17:00 до 23:00
 
Не забывайте говорить Спасибо. Не уходите с раздачи!   
Торрент: Зарегистрирован [14 фев 2015, 22:12] Для скачивания .torrent
необходима регистрация
Или скачать с помощью
MediaGet
Статус:
Проверен
 
.torrent скачан: 0 раз
Хэш: e96649382adfe6527d9593f1ee5c568e85597acb
Размер: 32.28 ГБ (34 661 117 835 байт)
Стать Автором раздачи
 
 
Раздал: 6.67 ГБ
Скачал: 302.5 МБ
Ратио: 22.576
Сообщения: 374198
Зарегистрирован: 17 апр 2014, 11:05


  • Похожие торренты
    Ответы
    Просмотры
    Последнее сообщение

Вернуться в Видео для мобильных устройств

Ресурс не предоставляет электронные версии произведений, а занимается лишь коллекционированием и каталогизацией ссылок, присылаемых и публикуемых на форуме нашими читателями. Если вы являетесь правообладателем какого-либо представленного материала и не желаете чтобы ссылка на него находилась в нашем каталоге, свяжитесь с нами и мы незамедлительно удалим её. Файлы для обмена на трекере предоставлены пользователями сайта, и администрация не несёт ответственности за их содержание. Просьба не заливать файлы, защищенные авторскими правами, а также файлы нелегального содержания!
cron