МакSим - Стала Свободней (2015) [1080p] WEB-DL

 
 Статистика раздачи 
Размер: 85.76 МБ   |  Зарегистрирован: 13 фев 2015, 19:31   |   .torrent скачан: 0 раз
Сидеров: 1  [ 0 байт/сек ]     Личеров: 0  [ 0 байт/сек ]  
  

МакSим - Стала Свободней (2015) [1080p] WEB-DL

Сообщение Thistoll » 13 фев 2015, 19:31

МакSим - Стала Свободней (2015) [1080p] WEB-DL

Исполнитель: МакSим
Год выпуска: 2015
Жанр: Pop
Продолжительность: 00:03:40

Описание: Популярная певица MaкSим порадовала своих поклонников новым клипом на песню "Стала Свободней".
Недавно ставшая во второй раз мамой певица МакSим 4 декабря приступила к съемкам клипа на песню «Стала свободней». Фото со съемочной площадки артистка выложила в своем блоге: «Новое душераздирающее видео на песню «Стала свободней» уже в процессе!)». На них можно увидеть часть декораций, которыми послужила ночная Москва, расписанные граффити стены.

Общий битрейт: 3 262 Kbps
Видео: MPEG-4 AVC, 1920x1080 (16:9), 25.000 fps, 3 131 Kbps (0.060 bit/pixel)
Аудио: AAC LC, 44.1 KHz, 2 ch, 126 Kbps, CBR
Код:
Код: Выделить всё
Общее
Полное имя                               : C:\Users\adguard\Downloads\макsим - стала свободней.mp4
Формат                                   : MPEG-4
Профиль формата                          : Base Media
Идентификатор кодека                     : isom
Размер файла                             : 85,8 Мбайт
Продолжительность                        : 3 м. 40 с.
Общий поток                              : 3262 Кбит/сек
Программа кодирования                    : Lavf55.33.100

Видео
Идентификатор                            : 1
Формат                                   : AVC
Формат/Информация                        : Advanced Video Codec
Профиль формата                          :
Параметр CABAC формата                   : Да
Параметр ReFrames формата                : 2 кадра
Идентификатор кодека                     : avc1
Идентификатор кодека/Информация          : Advanced Video Coding
Продолжительность                        : 3 м. 40 с.
Duration_FirstFrame                      : -40 мс.
Битрейт                                  : 3131 Кбит/сек
Ширина                                   : 1920 пикселей
Высота                                   : 1080 пикселей
Соотношение сторон                       : 16:9
Режим частоты кадров                     : Переменный
Частота кадров                           : 25,000 кадров/сек
Минимальная частота кадров               : 25,000 кадров/сек
Максимальная частота кадров              : 25,014 кадров/сек
Цветовое пространство                    : YUV
Субдискретизация насыщенности            : 4:2:0
Битовая глубина                          : 8 бит
Тип развёртки                            : Прогрессивная
Бит/(Пиксели*Кадры)                      : 0.060
Размер потока                            : 82,3 Мбайт (96%)

Аудио
Идентификатор                            : 2
Формат                                   : AAC
Формат/Информация                        : Advanced Audio Codec
Профиль формата                          : LC
Идентификатор кодека                     : 40
Продолжительность                        : 3 м. 40 с.
Вид битрейта                             : Постоянный
Битрейт                                  : 126 Кбит/сек
Каналы                                   : 2 канала
Расположение каналов                     : Front: L R
Частота                                  : 44,1 КГц
Метод сжатия                             : С потерями
Размер потока                            : 3,30 Мбайт (4%)
Скриншоты:

 
Не забывайте говорить Спасибо. Не уходите с раздачи!   
Торрент: Зарегистрирован [13 фев 2015, 19:31] Скачать торрент
Скачать торрент
[ Размер 14.13 КБ / Просмотров 21 ]
Статус:
Проверен
 
.torrent скачан: 0 раз
Хэш: f3cbc2abb1048ed4d5bd2890d9b75ea3556961ae
Размер: 85.76 МБ (89 930 842 байт)
Стать Автором раздачи
 
 
Раздал: 6.67 ГБ
Скачал: 302.5 МБ
Ратио: 22.576
Сообщения: 374198
Зарегистрирован: 17 апр 2014, 11:05


  • Похожие торренты
    Ответы
    Просмотры
    Последнее сообщение

Вернуться в Музыкальные клипы (транзит)

Ресурс не предоставляет электронные версии произведений, а занимается лишь коллекционированием и каталогизацией ссылок, присылаемых и публикуемых на форуме нашими читателями. Если вы являетесь правообладателем какого-либо представленного материала и не желаете чтобы ссылка на него находилась в нашем каталоге, свяжитесь с нами и мы незамедлительно удалим её. Файлы для обмена на трекере предоставлены пользователями сайта, и администрация не несёт ответственности за их содержание. Просьба не заливать файлы, защищенные авторскими правами, а также файлы нелегального содержания!
cron