NikitA - Vодопадом (2015) [H.264/1080p] WEBRip

 
 Статистика раздачи 
Размер: 106.1 МБ   |  Зарегистрирован: 11 фев 2015, 10:28   |   .torrent скачан: 2 раз
Сидеров: 1  [ 0 байт/сек ]     Личеров: 0  [ 0 байт/сек ]  
  

NikitA - Vодопадом (2015) [H.264/1080p] WEBRip

Сообщение Seepas » 11 фев 2015, 10:28

NikitA - Vодопадом (2015) [H.264/1080p] WEBRip

Исполнитель: NikitA
Год выпуска: 2015
Жанр: Pop
Продолжительность: 00:03:42

Описание: Новый хулиганский клип VОДОПАДОМ смонтирован как раз из любительских кадров, которые были найдены на телефонах участниц группы и видео, отснятого мастером эротических съемок Тарасом Воробцом специально для шоу NIKITA. Одними из самых ярких сцен клипа являются моменты, когда NIKITA занимаются йогой на крыше небоскреба.

Качество видео: WEBRip [1080p]
Видеокодек: MPEG-4 AVC/H.264
Битрейт видео: ~ 3738 Кбит/с
Размер кадра: 1920x1080 (16:9), 25,000 кадров/с
Аудиокодек: AAC, 2 ch, stereo
Битрейт аудио: 254 Кбит/с
Код:
Код: Выделить всё
Общее
Полное имя                               : NikitA - Vодопадом.mp4
Формат                                   : MPEG-4
Профиль формата                          : Base Media / Version 2
Идентификатор кодека                     : mp42
Размер файла                             : 106 Мбайт
Продолжительность                        : 3 м. 42 с.
Режим общего битрейта                    : Переменный
Общий поток                              : 3996 Кбит/сек

Видео
Идентификатор                            : 1
Формат                                   : AVC
Формат/Информация                        : Advanced Video Codec
Профиль формата                          :
Параметр CABAC формата                   : Да
Параметр ReFrames формата                : 2 кадра
Идентификатор кодека                     : avc1
Идентификатор кодека/Информация          : Advanced Video Coding
Продолжительность                        : 3 м. 42 с.
Продолжительность оригинала              : 3 м. 42 с.
Битрейт                                  : 3738 Кбит/сек
Ширина                                   : 1920 пикселей
Высота                                   : 1080 пикселей
Соотношение сторон                       : 16:9
Режим частоты кадров                     : Постоянный
Частота кадров                           : 25,000 кадров/сек
Цветовое пространство                    : YUV
Субдискретизация насыщенности            : 4:2:0
Битовая глубина                          : 8 бит
Тип развёртки                            : Прогрессивная
Бит/(Пиксели*Кадры)                      : 0.072
Размер потока                            : 99,2 Мбайт (94%)
Размер потока оригинала                  : 99,2 Мбайт (94%)
Язык                                     : English
mdhd_Duration                            : 222720

Аудио
Идентификатор                            : 2
Формат                                   : AAC
Формат/Информация                        : Advanced Audio Codec
Профиль формата                          : LC
Идентификатор кодека                     : 40
Продолжительность                        : 3 м. 42 с.
Продолжительность оригинала              : 3 м. 42 с.
Вид битрейта                             : Переменный
Битрейт                                  : 254 Кбит/сек
Каналы                                   : 2 канала
Расположение каналов                     : Front: L R
Частота                                  : 44,1 КГц
Метод сжатия                             : С потерями
Размер потока                            : 6,73 Мбайт (6%)
Размер потока оригинала                  : 6,73 Мбайт (6%)
Язык                                     : English
mdhd_Duration                            : 222748
Скриншоты:

 
Не забывайте говорить Спасибо. Не уходите с раздачи!   
Торрент: Зарегистрирован [11 фев 2015, 10:28] Скачать торрент
Скачать торрент
[ Размер 17.26 КБ / Просмотров 24 ]
Статус:
Проверен
 
.torrent скачан: 2 раз
Хэш: f8e80bf577aadaf7d148b17d42aacea663ef13d4
Размер: 106.1 МБ (111 253 669 байт)
Стать Автором раздачи
 
 
Раздал: 0 байт
Скачал: 0 байт
Ратио: Inf.
Сообщения: 188877
Зарегистрирован: 14 июн 2014, 20:46


  • Похожие торренты
    Ответы
    Просмотры
    Последнее сообщение

Вернуться в Музыкальные клипы (транзит)

Ресурс не предоставляет электронные версии произведений, а занимается лишь коллекционированием и каталогизацией ссылок, присылаемых и публикуемых на форуме нашими читателями. Если вы являетесь правообладателем какого-либо представленного материала и не желаете чтобы ссылка на него находилась в нашем каталоге, свяжитесь с нами и мы незамедлительно удалим её. Файлы для обмена на трекере предоставлены пользователями сайта, и администрация не несёт ответственности за их содержание. Просьба не заливать файлы, защищенные авторскими правами, а также файлы нелегального содержания!
cron