Токийская семья / Tokyo Family / Tôkyô kazoku (Ёдзи Ямада / Yoji Yamada) [2013, Япония, драма, BDRip 720p] VO (D.I.M.) + Original (Jap) + Sub (Eng)

 
 Статистика раздачи 
Размер: 7.1 ГБ   |  Зарегистрирован: 28 апр 2014, 10:25   |   .torrent скачан: 0 раз
Сидеров: 1  [ 0 байт/сек ]     Личеров: 0  [ 0 байт/сек ]  
  

Токийская семья / Tokyo Family / Tôkyô kazoku (Ёдзи Ямада / Yoji Yamada) [2013, Япония, драма, BDRip 720p] VO (D.I.M.) + Original (Jap) + Sub (Eng)

Сообщение Satch » 28 апр 2014, 10:25

Токийская семья / Tokyo Family / Tôkyô kazoku
Страна: Япония
Студия: Shochiku Company
Жанр: драма
Год выпуска: 2013
Продолжительность: 02:26:15

Перевод: Одноголосый закадровый D.I.M.
Cубтитры: английские
Оригинальная аудиодорожка: японский

Режиссер: Ёдзи Ямада / Yoji Yamada
В ролях: Сатоси Цумабуки, Аои Ю, Казуко Йошиюки, Юи Нацукава, Масахико Нисимура, Джан Фубуки, Нэндзи Кобаяси, Исао Хасидзумэ, Томоко Накаджима, Чика Аракава

Описание:
Пожилая супружеская пара живёт в дали от своих детей, которые все перебрались в Токио. Они решаются поехать в Токио. У них трое детей. Старший сын Коити управляет частной клиникой. Дочь Сигеко держит салон красоты.
Младший сын Сёдзи работает оформителем сцены. Дети так заняты, что у них совершенно нет времени, чтобы уделить его приехавшим погостить родителям. Но родители всё равно переживают и любят своих детей...
||
Тип релиза: BDRip 720p (рип от WiKi)
Контейнер: MKV

Видео: AVC (x264), 1280x688 (1,85:1) at 23,976 fps, 6112 Кbps, 0.289 bpp
Аудио 1: AC3; 192 Kbps; CBR; 2 ch; 48 khz | VO - D.I.M. |
Аудио 2: AC3; 640 Kbps; CBR; 6 ch; 48 khz | Японский |
Формат субтитров: softsub (SRT)
<div class="post-box" style="border-color: #F5F5F5; background: #F5F5F5;">

Аудио дорожка №1 взята с этой раздачи, thx: dim7022
</div>
Общее
Уникальный идентификатор                 : 205427021274512464858004762613849788374 (0x9A8BCE1F59FB1190B12C127C89E00FD6)
Полное имя                               : Токийская семья.2013.L1.720p.BluRay.x264-WiKi.mkv
Формат                                   : Matroska
Версия формата                           : Version 4 / Version 2
Размер файла                             : 7,10 Гбайт
Продолжительность                        : 2 ч. 26 м.
Общий поток                              : 6946 Кбит/сек
Название фильма                          : Tokyo Family [720p] [2013] VO
Дата кодирования                         : UTC 2013-11-18 11:57:00
Программа кодирования                    : mkvmerge v6.5.0 (''Isn''t she lovely'') built on Oct 20 2013 12:50:05
Библиотека кодирования                   : libebml v1.3.0 + libmatroska v1.4.1

Видео
Идентификатор                            : 1
Формат                                   : AVC
Формат/Информация                        : Advanced Video Codec
Профиль формата                          : [email protected]
Параметр CABAC формата                   : Да
Параметр ReFrames формата                : 9 кадров
Идентификатор кодека                     : V_MPEG4/ISO/AVC
Продолжительность                        : 2 ч. 26 м.
Битрейт                                  : 6112 Кбит/сек
Ширина                                   : 1280 пикселей
Высота                                   : 688 пикселей
Соотношение сторон                       : 1,85:1
Режим частоты кадров                     : Постоянный
Частота кадров                           : 23,976 кадра/сек
Цветовое пространство                    : YUV
Субдискретизация насыщенности            : 4:2:0
Битовая глубина                          : 8 бит
Тип развёртки                            : Прогрессивная
Бит/(Пиксели*Кадры)                      : 0.289
Размер потока                            : 6,11 Гбайт (86%)
Заголовок                                : profile.php?mode=viewprofile&u=22488948
Библиотека кодирования                   : x264 core 129 r2245+704+36 8e61944 tMod+MixAQ [8-bit@4:2:0 X86_64]
Настройки программы                      : cabac=1 / ref=9 / deblock=1:-3:-3 / analyse=0x3:0x133 / me=umh / subme=11 / psy=1 / fade_compensate=0.00 / psy_rd=1.05:0.10 / mixed_ref=1 / me_range=32 / chroma_me=1 / trellis=2 / 8x8dct=1 / cqm=0 / deadzone=21,11 / fast_pskip=0 / chroma_qp_offset=-3 / threads=18 / lookahead_threads=3 / sliced_threads=0 / nr=0 / decimate=1 / interlaced=0 / bluray_compat=0 / constrained_intra=0 / fgo=0 / bframes=8 / b_pyramid=2 / b_adapt=2 / b_bias=0 / direct=3 / weightb=1 / open_gop=0 / weightp=2 / keyint=250 / keyint_min=23 / scenecut=40 / intra_refresh=0 / rc_lookahead=50 / rc=2pass / mbtree=1 / bitrate=6112 / ratetol=1.0 / qcomp=0.75 / qpmin=0 / qpmax=28 / qpstep=4 / cplxblur=20.0 / qblur=0.5 / ip_ratio=1.40 / aq=3 / aq-strength=0.90 / aq-sensitivity=10.00 / aq-ifactor=1.00 / aq-pfactor=1.00 / aq-bfactor=1.00 / aq2=0
Язык                                     : Japanese
Default                                  : Да
Forced                                   : Нет

Аудио #1
Идентификатор                            : 2
Формат                                   : AC-3
Формат/Информация                        : Audio Coding 3
Расширение режима                        : CM (complete main)
Параметр Endianness формата              : Big
Идентификатор кодека                     : A_AC3
Продолжительность                        : 2 ч. 26 м.
Вид битрейта                             : Постоянный
Битрейт                                  : 192 Кбит/сек
Каналы                                   : 2 канала
Расположение каналов                     : Front: L R
Частота                                  : 48,0 КГц
Битовая глубина                          : 16 бит
Метод сжатия                             : С потерями
Размер потока                            : 201 Мбайт (3%)
Заголовок                                : VO [D.I.M.]
Язык                                     : Russian
Default                                  : Да
Forced                                   : Нет

Аудио #2
Идентификатор                            : 3
Формат                                   : AC-3
Формат/Информация                        : Audio Coding 3
Расширение режима                        : CM (complete main)
Параметр Endianness формата              : Big
Идентификатор кодека                     : A_AC3
Продолжительность                        : 2 ч. 26 м.
Вид битрейта                             : Постоянный
Битрейт                                  : 640 Кбит/сек
Каналы                                   : 6 каналов
Расположение каналов                     : Front: L C R, Side: L R, LFE
Частота                                  : 48,0 КГц
Битовая глубина                          : 16 бит
Метод сжатия                             : С потерями
Размер потока                            : 670 Мбайт (9%)
Язык                                     : Japanese
Default                                  : Нет
Forced                                   : Нет

Текст
Идентификатор                            : 4
Формат                                   : UTF-8
Идентификатор кодека                     : S_TEXT/UTF8
Идентификатор кодека/Информация          : UTF-8 Plain Text
Язык                                     : English
Default                                  : Нет
Forced                                   : Нет

Меню
00:00:00.000                             : en:
00:08:45.983                             : en:
00:21:13.730                             : en:
00:29:49.787                             : en:
00:36:20.720                             : en:
00:44:51.897                             : en:
00:53:00.635                             : en:
01:04:35.705                             : en:
01:10:54.667                             : en:
01:21:04.901                             : en:
01:31:21.100                             : en:
01:41:04.349                             : en:
01:48:24.289                             : en:
01:56:42.662                             : en:
02:02:11.449                             : en:
02:12:19.389                             : en:
02:20:11.736                             : en:
02:26:13.848                             : en:
<div class="post-box" style="border-color: #F5F5F5; background: #F5F5F5;">

x264 [info]: frame I:1186 Avg QP:12.88 size:188801
x264 [info]: frame P:39034 Avg QP:15.47 size: 59136
x264 [info]: frame B:170190 Avg QP:17.10 size: 24517
x264 [info]: consecutive B-frames: 0.8% 0.5% 2.9% 10.6% 18.4% 54.6% 7.8% 2.8% 1.5%
</div>
 
Не забывайте говорить Спасибо. Не уходите с раздачи!   
Торрент: Зарегистрирован [28 апр 2014, 10:25] Скачать торрент
Скачать торрент
[ Размер 18.84 КБ / Просмотров 28 ]
Статус:
Проверен
 
.torrent скачан: 0 раз
Хэш: 7347bb56e9ad0c81cc431ac77242e4545a7e910a
Размер: 7.1 ГБ (7 619 859 614 байт)
Стать Автором раздачи
 
Аватара пользователя
 
Раздал: 2.45 ГБ
Скачал: 15.94 МБ
Ратио: 157.696
Сообщения: 337733
Зарегистрирован: 16 янв 2012, 17:03


  • Похожие торренты
    Ответы
    Просмотры
    Последнее сообщение

Вернуться в Азиатские фильмы (HD Video)

Ресурс не предоставляет электронные версии произведений, а занимается лишь коллекционированием и каталогизацией ссылок, присылаемых и публикуемых на форуме нашими читателями. Если вы являетесь правообладателем какого-либо представленного материала и не желаете чтобы ссылка на него находилась в нашем каталоге, свяжитесь с нами и мы незамедлительно удалим её. Файлы для обмена на трекере предоставлены пользователями сайта, и администрация не несёт ответственности за их содержание. Просьба не заливать файлы, защищенные авторскими правами, а также файлы нелегального содержания!
cron