[VIDEO] Няньки / The Babysitters / Twin Sitters (Джон Парагон / John Paragon) [1994, комедия, DVDRip] [MP4, 640x] Dub

 
 Статистика раздачи 
Размер: 551.45 МБ   |  Зарегистрирован: 04 фев 2015, 22:40   |   .torrent скачан: 0 раз
Сидеров: 1  [ 0 байт/сек ]     Личеров: 2  [ 0 байт/сек ]  
  

[VIDEO] Няньки / The Babysitters / Twin Sitters (Джон Парагон / John Paragon) [1994, комедия, DVDRip] [MP4, 640x] Dub

Сообщение Satch » 04 фев 2015, 22:40

Няньки / The Babysitters / Twin Sitters
«You're never home alone when you're a twin!»


Год выпуска: 1994
Страна: США
Жанр: комедия, криминал, семейный
Продолжительность: 01:29:04
Перевод: Полное дублирование
Cубтитры: нет
Режиссер: Джон Парагон / John Paragon
В ролях: Питер Пол / Peter Paul , Дэвид Пол / David Paul, Кристиан Казнс / Christian Cousins, Джозеф Казнс / Joseph Cousins, Рина Софер / Rena Sofer, Джэред Мартин / Jared Martin и другие .
Описание: Владельцу транспортной компании угрожают, намекая на двух племянников — близнецов, оставшихся без родителей и живущих у него. И тогда он нанимает двух бесшабашных братьев-качков в качестве телохранителей. Малолетние племяннички дают прикурить нянькам, изобретая все новые и новые каверзы. Но Питера и Дэвида голыми руками не возьмешь: в конце концов, они находят общий язык с маленькими разбойниками. Два великовозрастных шалопая находят свое зеркальное отражение в двух юных проказниках.
Питера Пола и Дэвида Пола в этом фильме зовут так же как и в реальной жизни.
Первая игра, в которую играли Брэдли и Стивен, была Super Mario World. А вторая игра — Star Fox.
На 32 минуте Питер и Дэвид смотрят по телевизору боевик «Порождение ада» (1991) с Чаком Норрисом.

Доп. информация:
Релиз группы
Качество: DVDRip /
Формат: MP4
Видео кодек: H.264
Аудио кодек: AAC
Видео: 464x360 AR:1.289 729 kbps, 25 fps
Аудио: 2 ch, 48 kHz, 128 kbps
...last pass...

x264.exe: --pass 2 --bitrate 729 --preset medium --profile high --level 4.1 --ref 8 --deblock -2:-2 --merange 24 --no-chroma-me --direct auto --b-adapt 2 --no-fast-pskip --no-dct-decimate --partitions all --subme 9 --me umh --colorprim bt470bg --transfer bt470bg --colormatrix bt470bg --sar 1:1 --stats "C:\VTS_01_1_001.log" --output "C:\VTS_01_1_001.mp4" "C:\Temp\0135.avs"

avs [info]: 464x360p 1:1 @ 25/1 fps (cfr)
x264 [info]: using SAR=1/1
x264 [info]: using cpu capabilities: MMX2 SSE2Fast SSSE3 SSE4.2 LZCNT
x264 [info]: profile High, level 4.1

x264 [info]: frame I:1632 Avg QP:18.28 size: 23416
x264 [info]: frame P:37403 Avg QP:21.14 size: 7106
x264 [info]: frame B:94566 Avg QP:23.64 size: 1935
x264 [info]: consecutive B-frames: 2.2% 4.0% 18.6% 75.1%
x264 [info]: mb I I16..4: 8.1% 66.0% 25.9%
x264 [info]: mb P I16..4: 1.2% 7.1% 2.3% P16..4: 51.6% 16.8% 17.6% 0.9% 0.3% skip: 2.2%
x264 [info]: mb B I16..4: 0.1% 0.9% 0.4% B16..8: 45.0% 8.0% 2.1% direct: 3.7% skip:39.8% L0:41.2% L1:48.1% BI:10.7%
x264 [info]: 8x8 transform intra:67.2% inter:65.3%
x264 [info]: direct mvs spatial:93.6% temporal:6.4%
x264 [info]: coded y,uvDC,uvAC intra: 87.3% 89.7% 61.9% inter: 25.2% 36.2% 9.7%
x264 [info]: i16 v,h,dc,p: 28% 27% 7% 38%
x264 [info]: i8 v,h,dc,ddl,ddr,vr,hd,vl,hu: 13% 8% 2% 10% 15% 14% 14% 12% 13%
x264 [info]: i4 v,h,dc,ddl,ddr,vr,hd,vl,hu: 10% 9% 2% 9% 15% 14% 15% 11% 15%
x264 [info]: i8c dc,h,v,p: 35% 24% 22% 19%
x264 [info]: Weighted P-Frames: Y:6.4% UV:2.0%
x264 [info]: ref P L0: 47.6% 14.6% 16.9% 5.7% 5.0% 3.8% 3.6% 2.1% 0.6% 0.0%
x264 [info]: ref B L0: 76.0% 11.4% 5.9% 2.6% 2.0% 1.4% 0.7%
x264 [info]: ref B L1: 93.0% 7.0%
x264 [info]: kb/s:729.04
encoded 133601 frames, 39.71 fps, 729.04 kb/s
[pre]General
Complete name : D:\Torrents\Nyanki.1994.DVDRip.x264.640x.rip by Frost O.S.mp4
Format : MPEG-4
Format profile : Base Media
Codec ID : isom
File size : 551 MiB
Duration : 1h 29mn
Overall bit rate mode : Variable
Overall bit rate : 866 Kbps
Movie name : Nyanki 1994 DVDRip x264 640x rip by Frost O S
Genre : Comedy
ContentType : Short Film
Encoded date : UTC 2015-02-04 15:02:55
Tagged date : UTC 2015-02-04 15:03:19
Writing application : MkvToMp4 version: 0.224 (x64)
Copyright : Frost O.S
Cover : Yes
Comment : rip by Frost O.S
ContentRating : mpaa|PG-13|300|

Video
ID : 1
Format : AVC
Format/Info : Advanced Video Codec
Format profile :
Format settings, CABAC : Yes
Format settings, ReFrames : 8 frames
Codec ID : avc1
Codec ID/Info : Advanced Video Coding
Duration : 1h 29mn
Bit rate : 729 Kbps
Maximum bit rate : 5 219 Kbps
Width : 464 pixels
Height : 360 pixels
Display aspect ratio : 1.289
Frame rate mode : Constant
Frame rate : 25.000 fps
Color space : YUV
Chroma subsampling : 4:2:0
Bit depth : 8 bits
Scan type : Progressive
Bits/(Pixel*Frame) : 0.175
Stream size : 464 MiB (84%)
Writing library : x264 core 130 r2273 b3065e6
Encoding settings : cabac=1 / ref=8 / deblock=1:-2:-2 / analyse=0x3:0x133 / me=umh / subme=9 / psy=1 / psy_rd=1.00:0.00 / mixed_ref=1 / me_range=24 / chroma_me=0 / trellis=1 / 8x8dct=1 / cqm=0 / deadzone=21,11 / fast_pskip=0 / chroma_qp_offset=-2 / threads=3 / lookahead_threads=1 / sliced_threads=0 / nr=0 / decimate=0 / interlaced=0 / bluray_compat=0 / constrained_intra=0 / bframes=3 / b_pyramid=2 / b_adapt=2 / b_bias=0 / direct=3 / weightb=1 / open_gop=0 / weightp=2 / keyint=250 / keyint_min=25 / scenecut=40 / intra_refresh=0 / rc_lookahead=40 / rc=2pass / mbtree=1 / bitrate=729 / ratetol=1.0 / qcomp=0.60 / qpmin=0 / qpmax=69 / qpstep=4 / cplxblur=20.0 / qblur=0.5 / ip_ratio=1.40 / aq=1:1.00
Language : English
Encoded date : UTC 2015-02-04 15:02:55
Tagged date : UTC 2015-02-04 15:03:04
Color primaries : BT.601 PAL
Transfer characteristics : BT.470 System B, BT.470 System G
Matrix coefficients : BT.601

Audio
ID : 2
Format : AAC
Format/Info : Advanced Audio Codec
Format profile : LC
Codec ID : 40
Duration : 1h 29mn
Bit rate mode : Variable
Bit rate : 128 Kbps
Maximum bit rate : 132 Kbps
Channel(s) : 2 channels
Channel positions : Front: L R
Sampling rate : 48.0 KHz
Compression mode : Lossy
Stream size : 81.5 MiB (15%)
Language : Russian
Encoded date : UTC 2015-02-04 15:03:01
Tagged date : UTC 2015-02-04 15:03:04


 
Не забывайте говорить Спасибо. Не уходите с раздачи!   
Торрент: Зарегистрирован [04 фев 2015, 22:40] Для скачивания .torrent
необходима регистрация
Или скачать с помощью
MediaGet
Статус:
Проверен
 
.torrent скачан: 0 раз
Хэш: 198e7279e1f0b88dbc33c36021776ba4c00659f1
Размер: 551.45 МБ (578 240 226 байт)
Стать Автором раздачи
 
Аватара пользователя
 
Раздал: 2.45 ГБ
Скачал: 15.94 МБ
Ратио: 157.696
Сообщения: 337733
Зарегистрирован: 16 янв 2012, 17:03


  • Похожие торренты
    Ответы
    Просмотры
    Последнее сообщение

Вернуться в Видео для мобильных устройств

Ресурс не предоставляет электронные версии произведений, а занимается лишь коллекционированием и каталогизацией ссылок, присылаемых и публикуемых на форуме нашими читателями. Если вы являетесь правообладателем какого-либо представленного материала и не желаете чтобы ссылка на него находилась в нашем каталоге, свяжитесь с нами и мы незамедлительно удалим её. Файлы для обмена на трекере предоставлены пользователями сайта, и администрация не несёт ответственности за их содержание. Просьба не заливать файлы, защищенные авторскими правами, а также файлы нелегального содержания!
cron