Наговицын Сергей - Городские встречи - Городские встречи (Нет информации) VHSRip

 
 Статистика раздачи 
Размер: 44.8 МБ   |  Зарегистрирован: 04 фев 2015, 22:11   |   .torrent скачан: 0 раз
Сидеров: 1  [ 0 байт/сек ]     Личеров: 0  [ 0 байт/сек ]  
  

Наговицын Сергей - Городские встречи - Городские встречи (Нет информации) VHSRip

Сообщение Thistoll » 04 фев 2015, 22:11

Наговицын Сергей - Городские встречи (Нет информации) VHSRip

Жанр: Музыка
Год выпуска: Нет информации

Описание фильма:
Прикольный клип, хородо вспомнить детство и посмотреть как снимальсь клипы в старину, извеняюсь за качество.

Продолжительность: 3.48
Качество видео: VHSRip
Перевод: Отсутствует

Видеокодек: DivX
Битрейт видео: ~~1628 kbps avg
Размер кадра: 384x288
Аудиокодек: MPEG Layer 3, 2 ch
Битрейт аудио: ~128.00 kbps avg
Код:
Код: Выделить всё
Общее
Полное имя                               : C:\downloads\Видео\Наговицын Сергей  Городски.avi
Формат                                   : AVI
Формат/Информация                        : Audio Video Interleave
Размер файла                             : 44,8 Мбайт
Продолжительность                        : 3 м. 48 с.
Общий поток                              : 1642 Кбит/сек

Видео
Идентификатор                            : 0
Формат                                   : MPEG-4 Visual
Профиль формата                          : Simple@L1
Параметр BVOP формата                    : Нет
Параметр QPel формата                    : Нет
Параметр GMC формата                     : Без точки перехода
Параметр матрицы формата                 : Default (H.263)
Идентификатор кодека                     : DIVX
Идентификатор кодека/Информация          : Project Mayo
Идентификатор кодека/Подсказка           : DivX 4
Продолжительность                        : 3 м. 48 с.
Продолжительность оригинала              : 3 м. 48 с.
Битрейт                                  : 1502 Кбит/сек
Ширина                                   : 384 пикселя
Высота                                   : 288 пикселей
Соотношение сторон                       : 4:3
Частота кадров                           : 25,000 кадров/сек
Цветовое пространство                    : YUV
Субдискретизация насыщенности            : 4:2:0
Битовая глубина                          : 8 бит
Тип развёртки                            : Прогрессивная
Метод сжатия                             : С потерями
Бит/(Пиксели*Кадры)                      : 0.543
Размер потока                            : 41,0 Мбайт (91%)
Библиотека кодирования                   : avc2.0.11.1110

Аудио
Идентификатор                            : 1
Формат                                   : MPEG Audio
Версия формата                           : Version 1
Профиль формата                          : Layer 3
Режим                                    : Joint stereo
Расширение режима                        : MS Stereo
Идентификатор кодека                     : 55
Идентификатор кодека/Подсказка           : MP3
Продолжительность                        : 3 м. 48 с.
Продолжительность оригинала              : 3 м. 48 с.
Вид битрейта                             : Постоянный
Битрейт                                  : 128 Кбит/сек
Каналы                                   : 2 канала
Частота                                  : 44,1 КГц
Метод сжатия                             : С потерями
Размер потока                            : 3,49 Мбайт (8%)
Выравнивание                             : Соединение по промежуткам
Продолжительность промежутка             : 26  мс. (0,65 видеокадр)
Время предзагрузки промежутка            : 26  мс.
Скриншоты:


Время раздачи: до 5 скачавших
 
Не забывайте говорить Спасибо. Не уходите с раздачи!   
Торрент: Зарегистрирован [04 фев 2015, 22:11] Скачать торрент
Скачать торрент
[ Размер 14.94 КБ / Просмотров 13 ]
Статус:
Проверен
 
.torrent скачан: 0 раз
Хэш: ec6ddf17948d6ed2a5b484f0fb241f0d4cfa1d2c
Размер: 44.8 МБ (46 977 138 байт)
Стать Автором раздачи
 
 
Раздал: 6.67 ГБ
Скачал: 302.5 МБ
Ратио: 22.576
Сообщения: 374198
Зарегистрирован: 17 апр 2014, 11:05


  • Похожие торренты
    Ответы
    Просмотры
    Последнее сообщение

Вернуться в Музыкальные клипы (транзит)

Ресурс не предоставляет электронные версии произведений, а занимается лишь коллекционированием и каталогизацией ссылок, присылаемых и публикуемых на форуме нашими читателями. Если вы являетесь правообладателем какого-либо представленного материала и не желаете чтобы ссылка на него находилась в нашем каталоге, свяжитесь с нами и мы незамедлительно удалим её. Файлы для обмена на трекере предоставлены пользователями сайта, и администрация не несёт ответственности за их содержание. Просьба не заливать файлы, защищенные авторскими правами, а также файлы нелегального содержания!
cron