Убить гонца (Kill the Messenger) (2014) [MP4 | 848x352] <BDRip H.264>

 
 Статистика раздачи 
Размер: 1.85 ГБ   |  Зарегистрирован: 03 фев 2015, 15:45   |   .torrent скачан: 1 раз
Сидеров: 1  [ 0 байт/сек ]     Личеров: 1  [ 0 байт/сек ]  
  

Убить гонца (Kill the Messenger) (2014) [MP4 | 848x352] <BDRip H.264>

Сообщение Thistoll » 03 фев 2015, 15:45

Убить гонца (Kill the Messenger) (2014) BDRip

«А ты умеешь хранить государственную тайну?»

Производство: США
Жанр: Триллер, Драма, Криминал, Детектив, Биография

Описание фильма:
Репортер, собирая материал для статьи, попадает в нестандартную ситуацию: он находит секретные файлы ЦРУ, в которых четко прописано причастие госорганов к транспортировке кокаина в особо крупных размерах в Калифорнию. Несмотря на все неприятности, последующие за разоблачением, публикация выходит в одном из самых известных журналов США. Существование репортера становится нежелательным для всех, кто хоть как-то соприкасался с «кокаиновым» делом. После широкой огласки статьи убить журналиста просто так нельзя, ведь тогда правдивость материала станет очевидной, зато ведомство может обвинить репортера в другом…

Режиссер: Майкл Куэста
Актеры: Джереми Реннер, Роберт Патрик, Роберт Пралго, Хаджи Голайтли, Тед Хукаби, Пас Вега, Юл Васкес, Оливер Плэтт, Энди Гарсиа, Майкл Шин, Джил Беллоуз, Рэй Лиотта, Мэри Элизабет Уинстэд, Лукас Хеджес, Розмари ДеУитт, Мэттью Линтц, Паркер Дуглас

Продолжительность: 01:51:55
Перевод: Двуголосый закадровый, любительский (R.A.I.M & GUGU)

Дата мировой премьеры: 28 сентября 2014
Дата российской премьеры: 19 февраля 2015
Формат: MP4 (ISO v.2)
Качество видео: BDRip
Видеокодек: MPEG-4 AVC/H.264
Битрейт видео: ~2200 kb/s
Размер кадра: 848x352
Аудиокодек: AAC
Битрейт аудио: 160 kb/s 2.0 CBR LC
Код:
Код: Выделить всё
General
Complete name               : D:\Фильмы\Убить гонца.2014.BDRip.NNM-Club.mp4
Format                      : MPEG-4
Format profile              : Base Media / Version 2
Codec ID                    : mp42
File size                   : 1.85 GiB
Duration                    : 1h 51mn
Overall bit rate            : 2 364 Kbps
Encoded date                : UTC 2015-02-01 04:48:57
Tagged date                 : UTC 2015-02-01 04:48:57
Writing library             : AVS

Video
ID                          : 1
Format                      : AVC
Format/Info                 : Advanced Video Codec
Format profile              :
Format settings, CABAC      : Yes
Format settings, ReFrames   : 5 frames
Codec ID                    : avc1
Codec ID/Info               : Advanced Video Coding
Duration                    : 1h 51mn
Bit rate                    : 2 200 Kbps
Width                       : 848 pixels
Height                      : 352 pixels
Display aspect ratio        : 2.40:1
Frame rate mode             : Constant
Frame rate                  : 24.000 fps
Color space                 : YUV
Chroma subsampling          : 4:2:0
Bit depth                   : 8 bits
Scan type                   : Progressive
Bits/(Pixel*Frame)          : 0.307
Stream size                 : 1.72 GiB (93%)
Language                    : English
Encoded date                : UTC 2015-02-01 04:48:57
Tagged date                 : UTC 2015-02-01 04:48:57
Color primaries             : BT.709
Transfer characteristics    : BT.709
Matrix coefficients         : BT.709

Audio
ID                          : 2
Format                      : AAC
Format/Info                 : Advanced Audio Codec
Format profile              : LC
Codec ID                    : 40
Duration                    : 1h 51mn
Bit rate mode               : Constant
Bit rate                    : 160 Kbps
Channel(s)                  : 2 channels
Channel positions           : Front: L R
Sampling rate               : 44.1 KHz
Compression mode            : Lossy
Stream size                 : 126 MiB (7%)
Language                    : English
Encoded date                : UTC 2015-02-01 04:48:58
Tagged date                 : UTC 2015-02-01 04:48:58
Скриншоты



Время раздачи: Круглосуточно, до первых 10-и скачавших
Приятного просмотра!
 
Не забывайте говорить Спасибо. Не уходите с раздачи!   
Торрент: Зарегистрирован [03 фев 2015, 15:45] Для скачивания .torrent
необходима регистрация
Или скачать с помощью
MediaGet
Статус:
Проверен
 
.torrent скачан: 1 раз
Хэш: 5946c3bde9b2da85029939c0fcc3776b1cfe3d42
Размер: 1.85 ГБ (1 984 335 883 байт)
Стать Автором раздачи
 
 
Раздал: 6.67 ГБ
Скачал: 302.5 МБ
Ратио: 22.576
Сообщения: 374198
Зарегистрирован: 17 апр 2014, 11:05


  • Похожие торренты
    Ответы
    Просмотры
    Последнее сообщение

Вернуться в Видео для мобильных устройств

Ресурс не предоставляет электронные версии произведений, а занимается лишь коллекционированием и каталогизацией ссылок, присылаемых и публикуемых на форуме нашими читателями. Если вы являетесь правообладателем какого-либо представленного материала и не желаете чтобы ссылка на него находилась в нашем каталоге, свяжитесь с нами и мы незамедлительно удалим её. Файлы для обмена на трекере предоставлены пользователями сайта, и администрация не несёт ответственности за их содержание. Просьба не заливать файлы, защищенные авторскими правами, а также файлы нелегального содержания!
cron