Лучшее во мне (The Best of Me) (2014) [MP4 | 848x352] <BDRip H.264>

 
 Статистика раздачи 
Размер: 1.94 ГБ   |  Зарегистрирован: 03 фев 2015, 15:44   |   .torrent скачан: 0 раз
Сидеров: 1  [ 0 байт/сек ]     Личеров: 0  [ 0 байт/сек ]  
  

Лучшее во мне (The Best of Me) (2014) [MP4 | 848x352] <BDRip H.264>

Сообщение Thistoll » 03 фев 2015, 15:44

Лучшее во мне (The Best of Me) (2014) BDRip

«Ты никогда не забудешь свою первую любовь»

Производство: США
Жанр: Драма, мелодрама

Описание фильма:
История о двух бывших возлюбленных подростках. Никто из них не жил жизнью, которую они представляли и никто не может забыть страстную первую любовь, которая изменила всю жизнь. И вот обоих зовут на похороны их наставника, который когда-то дал им приют…

Режиссер: Майкл Хоффман
Актеры: Джеймс Мэрсден, Мишель Монахэн, Лиана Либерато, Люк Брейси, Джералд МакРэйни, Кэролайн Гудолл, Скайлер Фиск, Джон Тенни, Кларк Питерс, Себастьян Арселус, Шон Бриджерс

Продолжительность: 01:57:40
Перевод: Дублированный (Лицензия BD RUS)

Дата мировой премьеры: 7 октября 2014
Дата российской премьеры: 13 ноября 2014
Релиз на DVD/Blu-Ray: 20 января 2015
Формат: MP4 (ISO v.2)
Качество видео: BDRip
Видеокодек: MPEG-4 AVC/H.264
Битрейт видео: ~2200 kb/s
Размер кадра: 848x352
Аудиокодек: AAC
Битрейт аудио: 160 kb/s 2.0 CBR LC
Код:
Код: Выделить всё
General
Complete name               : D:\Фильмы\Лучшее во мне.2014.BDRip.NNM-Club.mp4
Format                      : MPEG-4
Format profile              : Base Media / Version 2
Codec ID                    : mp42
File size                   : 1.94 GiB
Duration                    : 1h 57mn
Overall bit rate            : 2 364 Kbps
Encoded date                : UTC 2015-02-01 23:45:46
Tagged date                 : UTC 2015-02-01 23:45:46
Writing library             : AVS

Video
ID                          : 1
Format                      : AVC
Format/Info                 : Advanced Video Codec
Format profile              :
Format settings, CABAC      : Yes
Format settings, ReFrames   : 5 frames
Codec ID                    : avc1
Codec ID/Info               : Advanced Video Coding
Duration                    : 1h 57mn
Bit rate                    : 2 200 Kbps
Width                       : 848 pixels
Height                      : 352 pixels
Display aspect ratio        : 2.40:1
Frame rate mode             : Constant
Frame rate                  : 24.000 fps
Color space                 : YUV
Chroma subsampling          : 4:2:0
Bit depth                   : 8 bits
Scan type                   : Progressive
Bits/(Pixel*Frame)          : 0.307
Stream size                 : 1.81 GiB (93%)
Language                    : English
Encoded date                : UTC 2015-02-01 23:45:46
Tagged date                 : UTC 2015-02-01 23:45:46
Color primaries             : BT.709
Transfer characteristics    : BT.709
Matrix coefficients         : BT.709

Audio
ID                          : 2
Format                      : AAC
Format/Info                 : Advanced Audio Codec
Format profile              : LC
Codec ID                    : 40
Duration                    : 1h 57mn
Bit rate mode               : Constant
Bit rate                    : 160 Kbps
Channel(s)                  : 2 channels
Channel positions           : Front: L R
Sampling rate               : 44.1 KHz
Compression mode            : Lossy
Stream size                 : 133 MiB (7%)
Language                    : English
Encoded date                : UTC 2015-02-01 23:45:46
Tagged date                 : UTC 2015-02-01 23:45:46
• Фильм снят по мотивам романа Николаса Спаркса «Лучшее во мне» (The Best of Me, 2011).
• Главная роль должна была достаться Полу Уокеру, но после того, как он трагически погиб, роль отдали Джеймсу Марсдену.
• В мировом прокате фильмы по романам Николаса Спаркса собрали более 800 миллионов долларов. «Лучшее во мне» — девятый фильм по книгам успешного романиста.
Скриншоты



Время раздачи: Круглосуточно, до первых 10-и скачавших
Приятного просмотра!
 
Не забывайте говорить Спасибо. Не уходите с раздачи!   
Торрент: Зарегистрирован [03 фев 2015, 15:44] Для скачивания .torrent
необходима регистрация
Или скачать с помощью
MediaGet
Статус:
Проверен
 
.torrent скачан: 0 раз
Хэш: f1fb36384913dfbc7ff9e3d32d8ffa9c157e88f8
Размер: 1.94 ГБ (2 086 348 068 байт)
Стать Автором раздачи
 
 
Раздал: 6.67 ГБ
Скачал: 302.5 МБ
Ратио: 22.576
Сообщения: 374198
Зарегистрирован: 17 апр 2014, 11:05


  • Похожие торренты
    Ответы
    Просмотры
    Последнее сообщение

Вернуться в Видео для мобильных устройств

Ресурс не предоставляет электронные версии произведений, а занимается лишь коллекционированием и каталогизацией ссылок, присылаемых и публикуемых на форуме нашими читателями. Если вы являетесь правообладателем какого-либо представленного материала и не желаете чтобы ссылка на него находилась в нашем каталоге, свяжитесь с нами и мы незамедлительно удалим её. Файлы для обмена на трекере предоставлены пользователями сайта, и администрация не несёт ответственности за их содержание. Просьба не заливать файлы, защищенные авторскими правами, а также файлы нелегального содержания!
cron