Marc Marzenit - To Love Until We Say Goodbye (2014) [FLAC|Lossless]<Electronic, Tech House, Deep House, Progressive House>

 
 Статистика раздачи 
Размер: 491.16 МБ   |  Зарегистрирован: 02 фев 2015, 23:27   |   .torrent скачан: 0 раз
Сидеров: 1  [ 0 байт/сек ]     Личеров: 0  [ 0 байт/сек ]  
  

Marc Marzenit - To Love Until We Say Goodbye (2014) [FLAC|Lossless]<Electronic, Tech House, Deep House, Progressive House>

Сообщение Thistoll » 02 фев 2015, 23:27

Marc Marzenit - To Love Until We Say Goodbye (2014)

Лейбл/Кат.#: Natura Sonoris – NS053CD
Страна: Spain
Год: 2014
Жанр: Electronic, Tech House, Deep House, Progressive House
Продолжительность: 01:14:36

Кодек: FLAC (tracks+.cue)
Битрейт: Lossless


Треклист:
01. Intro (2:25)
02. Death Espiral (5:53)
03. Drama Junkie (7:45)
04. Sounds Of A Grey Sky In Paris (0:22)
05. To Love Until We Say Goodbye (5:14)
06. Melancholy Street (4:28)
07. Venice Dreams (0:39)
08. The Imaginary Trip To Hawaii (6:30)
09. Feelings Over Title (5:44)
10. Black Wisdom (6:30)
11. Lead Stray (7:50)
12. Summer Desires (6:31)
13. The Enemy Inside Me (6:11)
14. Theme For The End (8:26)
Код:
Код: Выделить всё
Exact Audio Copy V1.0 beta 3 from 29. August 2011

EAC extraction logfile from 19. January 2015, 19:16

Marc Marzenit / To Love Until We Say Goodbye

Used drive  : ASUS    DRW-24B5ST   Adapter: 3  ID: 0

Read mode               : Secure
Utilize accurate stream : Yes
Defeat audio cache      : Yes
Make use of C2 pointers : No

Read offset correction                      : 6
Overread into Lead-In and Lead-Out          : No
Fill up missing offset samples with silence : Yes
Delete leading and trailing silent blocks   : No
Null samples used in CRC calculations       : Yes
Used interface                              : Native Win32 interface for Win NT & 2000
Gap handling                                : Appended to previous track

Used output format              : User Defined Encoder
Selected bitrate                : 896 kBit/s
Quality                         : High
Add ID3 tag                     : No
Command line compressor         : C:\Program Files (x86)\Exact Audio Copy\Flac\flac.exe
Additional command line options : -8 -V -T "ARTIST=%artist%" -T "TITLE=%title%" -T "ALBUM=%albumtitle%" -T "DATE=%year%" -T "TRACKNUMBER=%tracknr%" -T "GENRE=%genre%" -T "PERFORMER=%albuminterpret%" -T "COMPOSER=%composer%" %haslyrics%--tag-from-file=LYRICS="%lyricsfile%"%haslyrics% -T "ALBUMARTIST=%albumartist%" -T "DISCNUMBER=%cdnumber%" -T "TOTALDISCS=%totalcds%" -T "TOTALTRACKS=%numtracks%" -T "COMMENT=%comment%" %source% -o %dest%

TOC of the extracted CD

     Track |   Start  |  Length  | Start sector | End sector
    ---------------------------------------------------------
        1  |  0:00.00 |  2:25.45 |         0    |    10919
        2  |  2:25.45 |  5:53.46 |     10920    |    37440
        3  |  8:19.16 |  7:45.21 |     37441    |    72336
        4  | 16:04.37 |  0:22.31 |     72337    |    74017
        5  | 16:26.68 |  5:14.27 |     74018    |    97594
        6  | 21:41.20 |  4:28.08 |     97595    |   117702
        7  | 26:09.28 |  0:39.26 |    117703    |   120653
        8  | 26:48.54 |  6:30.23 |    120654    |   149926
        9  | 33:19.02 |  5:44.72 |    149927    |   175798
       10  | 39:03.74 |  6:30.66 |    175799    |   205114
       11  | 45:34.65 |  7:50.08 |    205115    |   240372
       12  | 53:24.73 |  6:32.00 |    240373    |   269772
       13  | 59:56.73 |  6:11.74 |    269773    |   297671
       14  | 66:08.72 |  8:26.16 |    297672    |   335637

Track  1

     Filename L:\MUSIC\Marc Marzenit - To Love Until We Say Goodbye (2014) [CD-FLAC]\1-01. Marc Marzenit - Intro.wav

     Pre-gap length  0:00:02.00

     Peak level 100.0 %
     Extraction speed 1.8 X
     Track quality 100.0 %
     Test CRC C745AE10
     Copy CRC C745AE10
     Track not present in AccurateRip database
     Copy OK

Track  2

     Filename L:\MUSIC\Marc Marzenit - To Love Until We Say Goodbye (2014) [CD-FLAC]\1-02. Marc Marzenit - Death Espiral.wav

     Peak level 98.1 %
     Extraction speed 2.2 X
     Track quality 100.0 %
     Test CRC 5EA3ADBD
     Copy CRC 5EA3ADBD
     Track not present in AccurateRip database
     Copy OK

Track  3

     Filename L:\MUSIC\Marc Marzenit - To Love Until We Say Goodbye (2014) [CD-FLAC]\1-03. Marc Marzenit - Drama Junkie.wav

     Peak level 94.5 %
     Extraction speed 2.6 X
     Track quality 100.0 %
     Test CRC 56B859BD
     Copy CRC 56B859BD
     Track not present in AccurateRip database
     Copy OK

Track  4

     Filename L:\MUSIC\Marc Marzenit - To Love Until We Say Goodbye (2014) [CD-FLAC]\1-04. Marc Marzenit - Sounds Of A Grey Sky In Paris.wav

     Peak level 55.1 %
     Extraction speed 1.0 X
     Track quality 100.0 %
     Test CRC B6287F62
     Copy CRC B6287F62
     Track not present in AccurateRip database
     Copy OK

Track  5

     Filename L:\MUSIC\Marc Marzenit - To Love Until We Say Goodbye (2014) [CD-FLAC]\1-05. Marc Marzenit - To Love Until We Say Goodbye.wav

     Peak level 97.9 %
     Extraction speed 2.1 X
     Track quality 99.9 %
     Test CRC 658D5476
     Copy CRC 658D5476
     Track not present in AccurateRip database
     Copy OK

Track  6

     Filename L:\MUSIC\Marc Marzenit - To Love Until We Say Goodbye (2014) [CD-FLAC]\1-06. Marc Marzenit - Melancholy Street.wav

     Peak level 97.7 %
     Extraction speed 2.9 X
     Track quality 100.0 %
     Test CRC 8ED204C2
     Copy CRC 8ED204C2
     Track not present in AccurateRip database
     Copy OK

Track  7

     Filename L:\MUSIC\Marc Marzenit - To Love Until We Say Goodbye (2014) [CD-FLAC]\1-07. Marc Marzenit - Venice Dreams.wav

     Peak level 96.5 %
     Extraction speed 1.7 X
     Track quality 100.0 %
     Test CRC 92D74711
     Copy CRC 92D74711
     Track not present in AccurateRip database
     Copy OK

Track  8

     Filename L:\MUSIC\Marc Marzenit - To Love Until We Say Goodbye (2014) [CD-FLAC]\1-08. Marc Marzenit - The Imaginary Trip To Hawaii.wav

     Peak level 96.8 %
     Extraction speed 3.2 X
     Track quality 100.0 %
     Test CRC 3431A4DE
     Copy CRC 3431A4DE
     Track not present in AccurateRip database
     Copy OK

Track  9

     Filename L:\MUSIC\Marc Marzenit - To Love Until We Say Goodbye (2014) [CD-FLAC]\1-09. Marc Marzenit - Feelings Over Title.wav

     Peak level 98.9 %
     Extraction speed 2.7 X
     Track quality 99.9 %
     Test CRC B8321675
     Copy CRC B8321675
     Track not present in AccurateRip database
     Copy OK

Track 10

     Filename L:\MUSIC\Marc Marzenit - To Love Until We Say Goodbye (2014) [CD-FLAC]\1-10. Marc Marzenit - Black Wisdom.wav

     Peak level 97.3 %
     Extraction speed 3.6 X
     Track quality 100.0 %
     Test CRC 00781133
     Copy CRC 00781133
     Track not present in AccurateRip database
     Copy OK

Track 11

     Filename L:\MUSIC\Marc Marzenit - To Love Until We Say Goodbye (2014) [CD-FLAC]\1-11. Marc Marzenit - Lead Stray.wav

     Peak level 100.0 %
     Extraction speed 3.2 X
     Track quality 99.9 %
     Test CRC 3792F1A7
     Copy CRC 3792F1A7
     Track not present in AccurateRip database
     Copy OK

Track 12

     Filename L:\MUSIC\Marc Marzenit - To Love Until We Say Goodbye (2014) [CD-FLAC]\1-12. Marc Marzenit - Summer Desires.wav

     Peak level 100.0 %
     Extraction speed 4.0 X
     Track quality 100.0 %
     Test CRC FC013390
     Copy CRC FC013390
     Track not present in AccurateRip database
     Copy OK

Track 13

     Filename L:\MUSIC\Marc Marzenit - To Love Until We Say Goodbye (2014) [CD-FLAC]\1-13. Marc Marzenit - The Enemy Inside Me.wav

     Peak level 99.9 %
     Extraction speed 4.2 X
     Track quality 100.0 %
     Test CRC 24AED7A3
     Copy CRC 24AED7A3
     Track not present in AccurateRip database
     Copy OK

Track 14

     Filename L:\MUSIC\Marc Marzenit - To Love Until We Say Goodbye (2014) [CD-FLAC]\1-14. Marc Marzenit - Theme For The End.wav

     Peak level 97.2 %
     Extraction speed 4.4 X
     Track quality 100.0 %
     Test CRC 21830D56
     Copy CRC 21830D56
     Track not present in AccurateRip database
     Copy OK

None of the tracks are present in the AccurateRip database

No errors occurred

End of status report

---- CUETools DB Plugin V2.1.3

[CTDB TOCID: jYKD3lEevPxbzjssVgIFbLw2DN0-] found, Submit result: jYKD3lEevPxbzjssVgIFbLw2DN0- has been confirmed
[747095dc] (1/1) Accurately ripped

==== Log checksum 6204433C2B76BC7DC51F5CDA39AB7643E9DB1218524EBEADCD929343B2D71495 ====
Код:
Код: Выделить всё
-----------------------

DON'T MODIFY THIS FILE

-----------------------

PERFORMER: auCDtect Task Manager, ver. 1.6.0 RC1 build 1.6.0.1
Copyright (c) 2008-2010 y-soft. All rights reserved
http:/y-soft.org

ANALYZER: auCDtect: CD records authenticity detector, version 0.8.2
Copyright (c) 2004 Oleg Berngardt. All rights reserved.
Copyright (c) 2004 Alexander Djourik. All rights reserved.

FILE: 1-14. Marc Marzenit - Theme For The End.flac
  Size: 58791256 Hash: 66A77113883BDB34176FE7BEED691E4A Accuracy: -m0
  Conclusion: CDDA 100%
  Signature: 5AC9D88E963E68EAA9E04406B5B49D78E8191B66
FILE: 1-13. Marc Marzenit - The Enemy Inside Me.flac
  Size: 45758072 Hash: 03A7789561A739C6036583A062217B17 Accuracy: -m0
  Conclusion: CDDA 100%
  Signature: 74D38789865F24D9E68E5996FBD1379EE06F2737
FILE: 1-12. Marc Marzenit - Summer Desires.flac
  Size: 50879605 Hash: 17781ADDFC0175329FF124A59E9FB74D Accuracy: -m0
  Conclusion: CDDA 100%
  Signature: 78B4B23FEAB331840CD0ED844997CD84BE7B8C7B
FILE: 1-11. Marc Marzenit - Lead Stray.flac
  Size: 55663515 Hash: C901099868E1DD45B941EC0DA4620EEA Accuracy: -m0
  Conclusion: CDDA 100%
  Signature: FB77055589C933AD6F6A38626C3C38FBA7432AAC
FILE: 1-10. Marc Marzenit - Black Wisdom.flac
  Size: 43685292 Hash: D44F01F3A864A6A15DFD29CE82A3AF39 Accuracy: -m0
  Conclusion: CDDA 100%
  Signature: 80C760961D02965762060AEC4D4DC911D34A7967
FILE: 1-09. Marc Marzenit - Feelings Over Title.flac
  Size: 39498257 Hash: 7C146241DF582C65A55ABFE63B9D44B7 Accuracy: -m0
  Conclusion: CDDA 100%
  Signature: 5850069C03233570C5031A61386AE91C9AA80732
FILE: 1-08. Marc Marzenit - The Imaginary Trip To Hawaii.flac
  Size: 40009045 Hash: 3A4A31AB296C8DE82DEB8ECB5F55C213 Accuracy: -m0
  Conclusion: CDDA 100%
  Signature: 498ACE5FDBE8CA5E1E8326CD320D73D12272D880
FILE: 1-07. Marc Marzenit - Venice Dreams.flac
  Size: 3954886 Hash: E81A18D7E696D4EC2C20651846F00C3E Accuracy: -m0
  Conclusion: MPEG 93%
  Signature: EC81173F3DB5CF3F060C831CFA7BD56E2F47BC92
FILE: 1-06. Marc Marzenit - Melancholy Street.flac
  Size: 31185906 Hash: 302C64DFDF670A8720D6A89BF539FF88 Accuracy: -m0
  Conclusion: CDDA 100%
  Signature: C5622BE1324EB735501243233CD8C93C72DC7990
FILE: 1-05. Marc Marzenit - To Love Until We Say Goodbye.flac
  Size: 37129581 Hash: 165C02CF192EEC7C90546A9202A3B312 Accuracy: -m0
  Conclusion: CDDA 100%
  Signature: 94223A31A2A297C77CC13F8D13F676D659AA1E11
FILE: 1-04. Marc Marzenit - Sounds Of A Grey Sky In Paris.flac
  Size: 2561928 Hash: C009287EDC8C1EB8E00B1FFAD3BFA3C5 Accuracy: -m0
  Conclusion: CDDA 100%
  Signature: 6E8FF1C4FCA339B04BE311CCA6DD3DBB5E2928E8
FILE: 1-03. Marc Marzenit - Drama Junkie.flac
  Size: 50510029 Hash: A5FD3190D996FCC7B91F12E41002E753 Accuracy: -m0
  Conclusion: CDDA 99%
  Signature: 1E6132DE7861B4C2DF90DF4ED234AE85A81554A9
FILE: 1-02. Marc Marzenit - Death Espiral.flac
  Size: 39623961 Hash: F280F5FD775B8609F83C0B072734284A Accuracy: -m0
  Conclusion: CDDA 100%
  Signature: 675A75F32D749A484BF3E40E8E79895A65391A50
FILE: 1-01. Marc Marzenit - Intro.flac
  Size: 15019436 Hash: 49EED7E85C1CD4C946DF4A89B263AD45 Accuracy: -m0
  Conclusion: CDDA 99%
  Signature: 7FC463CFBD8A86A5DB3DE64088965B4C23A08C3D

Время раздачи:
Пн-Пт с 18:00 до 22:00, Сб-Вс с 09:00 до 23:30

Код: Выделить всё
[b]Поглощение/вытеснение [/b]
[b]Только с согласия релизера[/b]
[b][u][i]Pashketan[/b][/i][/u]
 
Не забывайте говорить Спасибо. Не уходите с раздачи!   
Торрент: Зарегистрирован [02 фев 2015, 23:27] Скачать торрент
Скачать торрент
[ Размер 21.28 КБ / Просмотров 13 ]
Статус:
Проверен
 
.torrent скачан: 0 раз
Хэш: 03bf37811a0682defbf70cd28f493f6d8da7cbd8
Размер: 491.16 МБ (515 018 759 байт)
Стать Автором раздачи
 
 
Раздал: 6.67 ГБ
Скачал: 302.5 МБ
Ратио: 22.576
Сообщения: 374198
Зарегистрирован: 17 апр 2014, 11:05


  • Похожие торренты
    Ответы
    Просмотры
    Последнее сообщение

Вернуться в House, Techno, Electro, Minimal (транзит Lossless)

Ресурс не предоставляет электронные версии произведений, а занимается лишь коллекционированием и каталогизацией ссылок, присылаемых и публикуемых на форуме нашими читателями. Если вы являетесь правообладателем какого-либо представленного материала и не желаете чтобы ссылка на него находилась в нашем каталоге, свяжитесь с нами и мы незамедлительно удалим её. Файлы для обмена на трекере предоставлены пользователями сайта, и администрация не несёт ответственности за их содержание. Просьба не заливать файлы, защищенные авторскими правами, а также файлы нелегального содержания!
cron