Hardwell - United We Are (2015) [FLAC|Lossless]<Progressive House>

 
 Статистика раздачи 
Размер: 421.11 МБ   |  Зарегистрирован: 02 фев 2015, 10:10   |   .torrent скачан: 0 раз
Сидеров: 1  [ 0 байт/сек ]     Личеров: 0  [ 0 байт/сек ]  
  

Hardwell - United We Are (2015) [FLAC|Lossless]<Progressive House>

Сообщение Thistoll » 02 фев 2015, 10:10

Hardwell - United We Are (2015)

Год: 2015
Жанр: Progressive House
Продолжительность: 00:52:36
Издатель (лейбл): Revealed Recordings
Номер по каталогу: REVRSP041

Кодек: FLAC
Битрейт: Lossless
Тип рипа: image+.cue

Треклист:
01. Eclipse
02. Follow Me (feat. Jason Derulo)
03. Sally (feat. Harrison)
04. Let Me Be Your Home (feat. Bright Lights)
05. Colors (with Tiesto feat. Andreas Moe)
06. Where Is Here Now (with Funkerman feat. I-Fan)
07. United We Are (feat. Amba Shepherd)
08. Don't Stop The Madness (with W&W feat. Fatman Scoop)
09. Young Again (feat. Chris Jones)
10. Echo (feat. Jonathan Mendelsohn)
11. Arcadia (with Joe Dale feat. Luciana)
12. Area51 (with Dallask)
13. Nothing Can Hold Us Down (with Headhunterz feat. Haris)
14. Birds Fly (feat. Mr.Probz)
Абсолютно лучший диджей планеты - Hardwell - в 2014-м второй год подряд возглавил всемирный рейтинг DJ Mag Top-100 DJs. Он оставил позади такие имена как Dimitri Vegas & Like Mike, Armin van Buuren, Martin Garrix, Tiёsto и Avicii. Хардвелл - герой нового поколения, его часто называют "Tiesto нашего времени". Он ворвался на сцену в 2009 году, а в 2010 основал один из самых влиятельных EDM лейблов - Revealed... Встречаем долгожданный дебютный альбом Хардвелла!!! Одно из самых главных открытий альбома - красивая коллаборация с Jonathan Mendelsohn под названием "Echo", которая отлично впишется в современный trance стиль. Можно считать, что обещание, данное Армину на ASOT650, - выполнено!
Код:
Код: Выделить всё
Exact Audio Copy V1.0 beta 3 from 29. August 2011

EAC extraction logfile from 1. February 2015, 12:06

Hardwell / United We Are

Used drive  : PIONEER DVD-RW  DVR-221L   Adapter: 1  ID: 0

Read mode               : Secure
Utilize accurate stream : Yes
Defeat audio cache      : Yes
Make use of C2 pointers : No

Read offset correction                      : 6
Overread into Lead-In and Lead-Out          : No
Fill up missing offset samples with silence : Yes
Delete leading and trailing silent blocks   : No
Null samples used in CRC calculations       : Yes
Used interface                              : Installed external ASPI interface

Used output format : Internal WAV Routines
Sample format      : 44.100 Hz; 16 Bit; Stereo

TOC of the extracted CD

     Track |   Start  |  Length  | Start sector | End sector
    ---------------------------------------------------------
        1  |  0:00.00 |  3:07.68 |         0    |    14092
        2  |  3:07.68 |  3:17.03 |     14093    |    28870
        3  |  6:24.71 |  4:30.74 |     28871    |    49194
        4  | 10:55.70 |  3:33.32 |     49195    |    65201
        5  | 14:29.27 |  3:56.32 |     65202    |    82933
        6  | 18:25.59 |  3:14.62 |     82934    |    97545
        7  | 21:40.46 |  5:44.22 |     97546    |   123367
        8  | 27:24.68 |  3:38.53 |    123368    |   139770
        9  | 31:03.46 |  3:36.35 |    139771    |   156005
       10  | 34:40.06 |  5:04.18 |    156006    |   178823
       11  | 39:44.24 |  3:11.70 |    178824    |   193218
       12  | 42:56.19 |  2:56.56 |    193219    |   206474
       13  | 45:53.00 |  3:15.45 |    206475    |   221144
       14  | 49:08.45 |  3:27.59 |    221145    |   236728

Range status and errors

Selected range

     Filename D:\POST 2\Hardwell - United We Are (EAC)\Hardwell - United We Are.wav

     Peak level 100.0 %
     Extraction speed 7.3 X
     Range quality 100.0 %
     Test CRC 9A83FDCE
     Copy CRC 9A83FDCE
     Copy OK

No errors occurred

AccurateRip summary

Track  1  not present in database
Track  2  not present in database
Track  3  not present in database
Track  4  not present in database
Track  5  not present in database
Track  6  not present in database
Track  7  not present in database
Track  8  not present in database
Track  9  not present in database
Track 10  not present in database
Track 11  not present in database
Track 12  not present in database
Track 13  not present in database
Track 14  not present in database

None of the tracks are present in the AccurateRip database

End of status report
Код:
Код: Выделить всё
-----------------------

DON'T MODIFY THIS FILE

-----------------------

PERFORMER: auCDtect Task Manager, ver. 1.6.0 RC1 build 1.6.0.1
Copyright (c) 2008-2010 y-soft. All rights reserved
http:/y-soft.org

ANALYZER: auCDtect: CD records authenticity detector, version 0.8.2
Copyright (c) 2004 Oleg Berngardt. All rights reserved.
Copyright (c) 2004 Alexander Djourik. All rights reserved.

FILE: Hardwell - United We Are.flac
  Size: 426846244 Hash: FFB8CD7ED57B86CDD6C8E92AC8CC7E63 Accuracy: -m40
  Conclusion: CDDA 100%
  Signature: 8DE09A12DA85923D07F5A48D7C913D8DB3C23E68
Время раздачи: 24/7 (круглосуточно)

Код: Выделить всё
[b]Поглощение/вытеснение [/b]
[b]Только с согласия релизера[/b]
[b][u][i]Pashketan[/b][/i][/u]
 
Не забывайте говорить Спасибо. Не уходите с раздачи!   
Торрент: Зарегистрирован [02 фев 2015, 10:10] Скачать торрент
Скачать торрент
[ Размер 17.55 КБ / Просмотров 20 ]
Статус:
Проверен
 
.torrent скачан: 0 раз
Хэш: cccb2cd0c4e8af2c409070d7aff09cfbecf3f410
Размер: 421.11 МБ (441 562 238 байт)
Стать Автором раздачи
 
 
Раздал: 6.67 ГБ
Скачал: 302.5 МБ
Ратио: 22.576
Сообщения: 374198
Зарегистрирован: 17 апр 2014, 11:05


  • Похожие торренты
    Ответы
    Просмотры
    Последнее сообщение

Вернуться в House, Techno, Electro, Minimal (транзит Lossless)

Ресурс не предоставляет электронные версии произведений, а занимается лишь коллекционированием и каталогизацией ссылок, присылаемых и публикуемых на форуме нашими читателями. Если вы являетесь правообладателем какого-либо представленного материала и не желаете чтобы ссылка на него находилась в нашем каталоге, свяжитесь с нами и мы незамедлительно удалим её. Файлы для обмена на трекере предоставлены пользователями сайта, и администрация не несёт ответственности за их содержание. Просьба не заливать файлы, защищенные авторскими правами, а также файлы нелегального содержания!
cron