100 (Сотня) (The 100) / (Сезон 2, серии 1-10 из 16) BaibaKo (2014) [MP4|720x400] <WEB-DLRip [H.264]>

 
 Статистика раздачи 
Размер: 5.61 ГБ   |  Зарегистрирован: 30 янв 2015, 11:05   |   .torrent скачан: 0 раз
Сидеров: 1  [ 0 байт/сек ]     Личеров: 0  [ 0 байт/сек ]  
  

100 (Сотня) (The 100) / (Сезон 2, серии 1-10 из 16) BaibaKo (2014) [MP4|720x400] <WEB-DLRip [H.264]>

Сообщение Thistoll » 30 янв 2015, 11:05

100 (Сотня) (The 100) / (Сезон 2, серии 1-10 из 16) BaibaKo (2014) WEB-DLRip
«Survival isn't who you are. It's who you become»

Жанр: Фантастика
Производство: США

Описание фильма:
После ядерной войны прошло 97 лет. Остатки человечества, укрывшиеся на космической станции «Ковчег», страдают от нехватки ресурсов, необходимых для дальнейшего выживания. Правительство исчерпало все меры, включая жесткое ограничение рождаемости, но ситуация продолжает ухудшаться.

Остается единственный выход — попробовать вернуться на Землю. Чтобы узнать, пригодна ли для жизни покинутая давным-давно планета, правительство отправляет туда сотню молодых правонарушителей, в числе которых оказываются дети высокопоставленных чиновников и других известных на «Ковчеге» людей. Теперь судьба всего человечества зависит от этой группы «изгнанников»...

Исполнительным продюсером и сценаристом нового проекта от телеканала CW выступил Джейсон Ротенберг, который подчеркнул, что по духу новый сериал будет напоминать роман Уильяма Голдинга «Повелитель мух». Он также анонсировал любопытную романтическую линию, определив ее как «любовный восьмиугольник». Кроме того, создатели «Сотни» особенно подчеркивают тот факт, что новый проект будет сильно отличаться от всего, что до этого можно было увидеть на CW. По их словам, The 100 — это «намного больше, чем просто научная фантастика»...

Режиссер: Дин Уайт
Актеры: Элиза Тейлор-Коттер, Мари Авгеропулос, Сачин Сахель, Линдси Морган, Женевьев Бюкнер, Ричард Хэрмон и др.

Продолжительность: ~ 00:42:00 серия
Качество видео: WEB-DLRip

Перевод: Многоголосый закадровый, профессиональный - BaibaKo
Автор перевода: Татьяна Saavick
Озвучка: Ольга Мотрич, Anna_Smile, Олекса Мельник и Александр Фурман
Монтаж: Виталий Мартыняк

Сэмпл

Формат: MP4
Видеокодек: MPEG-4 AVC/H.264
Битрейт видео: ~1536 Кбит/сек
Размер кадра: 720x400 (16:9)
Аудио #1: AAC, 2 канала, 192 Кбит/сек - (многоголосый закадровый)
Аудио #2: AAC, 2 канала, 192 Кбит/сек - (оригинал)
Полное имя : D:\The_Hundred_s2_WEB-DLRip_x264_BaibaKo_[NNM-CLUB]\The.100.s02e01.WEB-DLRip.x264.Rus.Eng.BaibaKo.tv.mp4
Формат : MPEG-4
Профиль формата : Base Media
Идентификатор кодека : isom
Размер файла : 584 Мбайт
Продолжительность : 42 м.
Режим общего битрейта : Переменный
Общий поток : 1919 Кбит/сек
Дата кодирования : UTC 2014-10-23 20:11:28
Дата пометки : UTC 2014-10-23 20:11:28

Видео
Идентификатор : 1
Формат : AVC
Формат/Информация : Advanced Video Codec
Профиль формата :
Параметр CABAC формата : Нет
Параметр ReFrames формата : 3 кадра
Идентификатор кодека : avc1
Идентификатор кодека/Информация : Advanced Video Coding
Продолжительность : 42 м.
Битрейт : 1536 Кбит/сек
Максимальный битрейт : 6819 Кбит/сек
Ширина : 720 пикселей
Высота : 400 пикселей
Соотношение сторон : 16:9
Режим частоты кадров : Переменный
Частота кадров : 23,976 кадра/сек
Минимальная частота кадров : 23,974 кадра/сек
Максимальная частота кадров : 23,981 кадра/сек
Цветовое пространство : YUV
Субдискретизация насыщенности : 4:2:0
Битовая глубина : 8 бит
Тип развёртки : Прогрессивная
Бит/(Пиксели*Кадры) : 0.222
Размер потока : 467 Мбайт (80%)
Библиотека кодирования : x264 core 130 r2273 b3065e6
Настройки программы : cabac=0 / ref=3 / deblock=1:0:0 / analyse=0x1:0x111 / me=hex / subme=7 / psy=1 / psy_rd=1.00:0.00 / mixed_ref=1 / me_range=16 / chroma_me=1 / trellis=1 / 8x8dct=0 / cqm=0 / deadzone=21,11 / fast_pskip=1 / chroma_qp_offset=-2 / threads=12 / lookahead_threads=2 / sliced_threads=0 / nr=0 / decimate=1 / interlaced=0 / bluray_compat=0 / constrained_intra=0 / bframes=0 / weightp=0 / keyint=240 / keyint_min=24 / scenecut=40 / intra_refresh=0 / rc_lookahead=40 / rc=2pass / mbtree=1 / bitrate=1536 / ratetol=1.0 / qcomp=0.60 / qpmin=0 / qpmax=69 / qpstep=4 / cplxblur=20.0 / qblur=0.5 / ip_ratio=1.40 / aq=1:1.00
Дата кодирования : UTC 2014-10-23 08:10:10
Дата пометки : UTC 2014-10-23 20:11:58
Основные цвета : BT.709
Характеристики трансфера : BT.709
Коэффициенты матрицы : BT.709

Аудио #1
Идентификатор : 2
Формат : AAC
Формат/Информация : Advanced Audio Codec
Профиль формата : LC
Идентификатор кодека : 67
Продолжительность : 42 м.
Вид битрейта : Переменный
Битрейт : 192 Кбит/сек
Максимальный битрейт : 195 Кбит/сек
Каналы : 2 канала
Расположение каналов : Front: L R
Частота : 48,0 КГц
Метод сжатия : С потерями
Размер потока : 57,6 Мбайт (10%)
Язык : Russian
Дата кодирования : UTC 2014-10-23 20:11:36
Дата пометки : UTC 2014-10-23 20:11:58

Аудио #2
Идентификатор : 3
Формат : AAC
Формат/Информация : Advanced Audio Codec
Профиль формата : LC
Идентификатор кодека : 67
Продолжительность : 42 м.
Вид битрейта : Переменный
Битрейт : 192 Кбит/сек
Максимальный битрейт : 195 Кбит/сек
Каналы : 2 канала
Расположение каналов : Front: L R
Частота : 48,0 КГц
Метод сжатия : С потерями
Размер потока : 57,6 Мбайт (10%)
Язык : English
Дата кодирования : UTC 2014-10-23 20:11:39
Дата пометки : UTC 2014-10-23 20:11:58
01 - 48 / The 48
02 - Суровая Везер / Inclement Weather
03 - Борьба с потрошителями / Reapercussions
04 - Возвращения / Many Happy Returns
05 - Опыты на людях / Human Trials
06 - Туман войны / Fog of War
07 - Взгляд в бездну / Long Into an Abyss
08 - Космопрогульщик / Spacewalker
В шапке есть ссылка на IMDb - там график выхода серий в оригинале.
Внимание! Раздача ведётся путём добавления новых серий; при каждом добавлении создаётся новый торрент.
Чтобы начать докачку новой серии, пользователям необходимо сделать следующее:
1. Остановить скачивание;
2. Удалить старый торрент у себя из клиента (старые серии удалять не надо);
3. Скачать новый торрент и запустить его у себя в клиенте вместо старого, при этом указать клиенту путь в старую папку куда и должно происходить скачивание новых серий. Ваш клиент при этом должен произвести хеширование (проверку) старой папки и будет докачивать только те серии, которых у вас ещё нет. Старые серии при этом не удаляются, а продолжают раздаваться! Eсли вы уже удалили старые серии, то предотвратить повторную закачку старых серий можно, отжав галочку в соответствующих местах при запуске нового торрента.


Время раздачи:
24/7 - круглосуточно
(до первых 5-ти сидов - потом по возможности)
 
Не забывайте говорить Спасибо. Не уходите с раздачи!   
Торрент: Зарегистрирован [30 янв 2015, 11:05] Для скачивания .torrent
необходима регистрация
Или скачать с помощью
MediaGet
Статус:
Проверен
 
.torrent скачан: 0 раз
Хэш: 015907a6c6ff5319ffd0b67839781719632abcbc
Размер: 5.61 ГБ (6 019 724 933 байт)
Стать Автором раздачи
 
 
Раздал: 6.67 ГБ
Скачал: 302.5 МБ
Ратио: 22.576
Сообщения: 374198
Зарегистрирован: 17 апр 2014, 11:05


  • Похожие торренты
    Ответы
    Просмотры
    Последнее сообщение

Вернуться в Видео для мобильных устройств

Ресурс не предоставляет электронные версии произведений, а занимается лишь коллекционированием и каталогизацией ссылок, присылаемых и публикуемых на форуме нашими читателями. Если вы являетесь правообладателем какого-либо представленного материала и не желаете чтобы ссылка на него находилась в нашем каталоге, свяжитесь с нами и мы незамедлительно удалим её. Файлы для обмена на трекере предоставлены пользователями сайта, и администрация не несёт ответственности за их содержание. Просьба не заливать файлы, защищенные авторскими правами, а также файлы нелегального содержания!
cron