12 обезьян (12 Monkeys) / (Сезон 1, серия 1 из 13) LostFilm (2015) [MP4|1280x720] <WEB-DLRip [H.264]>

 
 Статистика раздачи 
Размер: 1.44 ГБ   |  Зарегистрирован: 27 янв 2015, 23:48   |   .torrent скачан: 0 раз
Сидеров: 1  [ 0 байт/сек ]     Личеров: 1  [ 0 байт/сек ]  
  

12 обезьян (12 Monkeys) / (Сезон 1, серия 1 из 13) LostFilm (2015) [MP4|1280x720] <WEB-DLRip [H.264]>

Сообщение Thistoll » 27 янв 2015, 23:48

12 обезьян (12 Monkeys) / (Сезон 1, серия 1 из 13) LostFilm (2015) WEB-DLRip
«Unmake history»

Жанр: Фантастика, Драма
Производство: США

Описание фильма:
В научно-фантастической драме «12 обезьян» есть все, что так ценят поклонники этого жанра: стройная концепция, основанная на сюжете одноименного фильма Терри Гиллиама, путешествия во времени, атмосфера неумолимо надвигающегося апокалипсиса и тайна, которую зрители попытаются разгадать вместе с главным героем. Стоит отметить, что создатели сериала не ограничились простой адаптацией известной киноленты под маленькие экраны. Команда за кадром приложила немало сил для того, чтобы новое шоу получилось достаточно оригинальным, заинтересовало зрителей и при этом сохранило дух культовой антиутопии Гиллиама.

2043 год. Смертельный вирус уничтожил почти все население планеты. Те, кому посчастливилось выжить, ютятся под землей, но ресурсы на исходе, и в преддверии апокалипсиса атмосфера в обществе накаляется. Чтобы исправить ситуацию, группа ученых отправляет в прошлое заключенного по имени Джеймс Коул (Аарон Стэнфорд). За успешное выполнение миссии ему обещано прощение всех преступлений. Единственной зацепкой Джеймса в 2015 году является доктор Кассандра Рейли (Аманда Шулл), которая в момент знакомства с главным героем как раз возвращалась со своей лекции, посвященной опасности вирусов. Для начала Коулу нужно доказать, что он пришел из будущего, а затем уговорить девушку помочь найти человека, причастного к распространению опасной заразы. Так начинается смертельная гонка за надеждой на выживание, в которой герою предстоит раскрыть тайну «12 обезьян», противостоять влиятельным злодеям и в конечном счете устранить причину зарождения тотальной эпидемии…

Режиссер: Джеффри Рейнер
Актеры: Аарон Стэнфорд, Аманда Шулл, Желько Иванек, Шеннон Лучио, Кирк Асеведо, Ной Бин, Джоди Лин Броктон, Рамон Де Окампо, Билл Таймони, Рики Уэйн и др.

Продолжительность: ~ 00:47:00 серия
Качество видео: WEB-DLRip 720p

Перевод: Многоголосый закадровый, профессиональный - LostFilm
Озвучка / Автор перевода: Студия «LostFilm»

Сэмпл

Формат: MP4
Видеокодек: MPEG-4 AVC/H.264
Битрейт видео: ~4000 Кбит/сек
Размер кадра: 1280x720 (16:9)
Аудиокодек: AAC, 2 канала
Битрейт аудио: ~250 Кбит/сек
Полное имя : D:\12_Monkeys_s1_WEB-DL720p_x264_LostFilm_[NNM-CLUB]\12.Monkeys.S01E01.720p.WEB.rus.LostFilm.TV.mp4
Формат : MPEG-4
Профиль формата : Base Media
Идентификатор кодека : isom
Размер файла : 1,44 Гбайт
Продолжительность : 47 м.
Режим общего битрейта : Переменный
Общий поток : 4348 Кбит/сек
Коллекция : 12 обезьян
Сезон : 1
Альбом : 12 обезьян, Сезон 1
Альбом/Исполнитель : 12 обезьян
Часть : 1
Часть/Положение : 1
Трек : Расщеплённый
Трек/Положение : 1
Исполнитель : 12 обезьян
Жанр : Sci-Fi & Fantasy
Тип содержимого : TV Show
Дата записи : 2015
Дата кодирования : UTC 2015-01-25 18:20:05
Дата пометки : UTC 2015-01-25 18:20:05
Программа кодирования : Yamb 2.1.0.0 [http://yamb.unite-video.com] / LostCoder
Правообладатель : LostFilm.TV (c)
Обложка : Yes
Примечание : 2043 год. Смертельный вирус уничтожил почти все население планеты. Те, кому посчастливилось выжить, ютятся под землей, но ресурсы на исходе. Чтобы исправить ситуацию, группа ученых отправляет в прошлое заключенного по имени Джеймс Коул.
Part_ID : 101

Видео
Идентификатор : 1
Формат : AVC
Формат/Информация : Advanced Video Codec
Профиль формата :
Параметр CABAC формата : Нет
Параметр ReFrames формата : 2 кадра
Идентификатор кодека : avc1
Идентификатор кодека/Информация : Advanced Video Coding
Продолжительность : 47 м.
Битрейт : 4000 Кбит/сек
Максимальный битрейт : 9845 Кбит/сек
Ширина : 1280 пикселей
Высота : 720 пикселей
Соотношение сторон : 16:9
Режим частоты кадров : Переменный
Частота кадров : 23,976 кадра/сек
Минимальная частота кадров : 23,974 кадра/сек
Максимальная частота кадров : 23,981 кадра/сек
Цветовое пространство : YUV
Субдискретизация насыщенности : 4:2:0
Битовая глубина : 8 бит
Тип развёртки : Прогрессивная
Бит/(Пиксели*Кадры) : 0.181
Размер потока : 1,35 Гбайт (94%)
Библиотека кодирования : x264 core 112 r1834 a51816a
Настройки программы : cabac=0 / ref=3 / deblock=1:0:0 / analyse=0x1:0x111 / me=hex / subme=7 / psy=1 / psy_rd=1.00:0.00 / mixed_ref=1 / me_range=16 / chroma_me=1 / trellis=1 / 8x8dct=0 / cqm=0 / deadzone=21,11 / fast_pskip=1 / chroma_qp_offset=-2 / threads=6 / sliced_threads=0 / nr=0 / decimate=1 / interlaced=0 / constrained_intra=0 / bframes=3 / b_pyramid=2 / b_adapt=1 / b_bias=0 / direct=1 / weightb=1 / open_gop=0 / weightp=2 / keyint=250 / keyint_min=25 / scenecut=40 / intra_refresh=0 / rc_lookahead=40 / rc=abr / mbtree=1 / bitrate=4000 / ratetol=1.0 / qcomp=0.60 / qpmin=0 / qpmax=51 / qpstep=4 / vbv_maxrate=5000 / vbv_bufsize=2000 / ip_ratio=1.40 / aq=1:1.00 / nal_hrd=none
Язык : English
Дата пометки : UTC 2015-01-25 18:21:31
Основные цвета : BT.709
Характеристики трансфера : BT.709
Коэффициенты матрицы : BT.709

Аудио
Идентификатор : 2
Формат : AAC
Формат/Информация : Advanced Audio Codec
Профиль формата : LC
Идентификатор кодека : 40
Продолжительность : 47 м.
Вид битрейта : Переменный
Битрейт : 250 Кбит/сек
Максимальный битрейт : 319 Кбит/сек
Каналы : 2 канала
Расположение каналов : Front: L R
Частота : 48,0 КГц
Метод сжатия : С потерями
Размер потока : 84,8 Мбайт (6%)
Дата кодирования : UTC 2015-01-25 18:21:27
Дата пометки : UTC 2015-01-25 18:21:31
01 - Расщеплённый / Splinter
Внимание! Раздача ведётся путём добавления новых серий; при каждом добавлении создаётся новый торрент.
Чтобы начать докачку новой серии, пользователям необходимо сделать следующее:
1. Остановить скачивание;
2. Удалить старый торрент у себя из клиента (старые серии удалять не надо);
3. Скачать новый торрент и запустить его у себя в клиенте вместо старого, при этом указать клиенту путь в старую папку куда и должно происходить скачивание новых серий. Ваш клиент при этом должен произвести хеширование (проверку) старой папки и будет докачивать только те серии, которых у вас ещё нет. Старые серии при этом не удаляются, а продолжают раздаваться! Eсли вы уже удалили старые серии, то предотвратить повторную закачку старых серий можно, отжав галочку в соответствующих местах при запуске нового торрента.
Скриншоты:



Время раздачи:
24/7 - круглосуточно
(до первых 5-ти сидов - потом по возможности)
 
Не забывайте говорить Спасибо. Не уходите с раздачи!   
Торрент: Зарегистрирован [27 янв 2015, 23:48] Для скачивания .torrent
необходима регистрация
Или скачать с помощью
MediaGet
Статус:
Проверен
 
.torrent скачан: 0 раз
Хэш: 10a9a8c5c2b47280fc5ff8078b5c2eafe1ada3ab
Размер: 1.44 ГБ (1 543 899 345 байт)
Стать Автором раздачи
 
 
Раздал: 6.67 ГБ
Скачал: 302.5 МБ
Ратио: 22.576
Сообщения: 374198
Зарегистрирован: 17 апр 2014, 11:05


  • Похожие торренты
    Ответы
    Просмотры
    Последнее сообщение

Вернуться в Видео для мобильных устройств

Ресурс не предоставляет электронные версии произведений, а занимается лишь коллекционированием и каталогизацией ссылок, присылаемых и публикуемых на форуме нашими читателями. Если вы являетесь правообладателем какого-либо представленного материала и не желаете чтобы ссылка на него находилась в нашем каталоге, свяжитесь с нами и мы незамедлительно удалим её. Файлы для обмена на трекере предоставлены пользователями сайта, и администрация не несёт ответственности за их содержание. Просьба не заливать файлы, защищенные авторскими правами, а также файлы нелегального содержания!
cron