Просто ужас! (Александр Полынников) [1982, экранизация, сказка, DVB]

 
 Статистика раздачи 
Размер: 4.55 ГБ   |  Зарегистрирован: 28 апр 2014, 03:44   |   .torrent скачан: 2 раз
Сидеров: 1  [ 0 байт/сек ]     Личеров: 0  [ 0 байт/сек ]  
  

Просто ужас! (Александр Полынников) [1982, экранизация, сказка, DVB]

Сообщение bagouser » 28 апр 2014, 03:44

Просто ужас! (2 серии)


Жанр: экранизация, сказка
Год выпуска: 1982
Продолжительность: 01:03:37 + 01:04:10

Режиссёр: Александр Полынников

В ролях: Дмитрий Замулин, Семён Морозов, Фёкла Толстая, Галина Веневитинова, Алла Будницкая, Леонид Куравлёв, Лидия Ежевская, Александр Ширвиндт, Наталья Крачковская, Елизавета Никищихина, Евгения Ханаева, Георгий Георгиу, Сергей Голубков

Описание: По мотивам одноименной пьесы Юрия Сотника.
О забавных приключениях шестиклассника Антона и его папы. С помощью чудесной машины «Исполнитель желания» Антон становится ветеринаром, а его отец, врач-ветеринар, — школьником…

Доп. информация: Запись потока *.ts со спутника EUTELSAT, ремукс в *.mpg программой VideoReDo.

Качество видео: DVB
Формат видео: MPEG-PS

Видео: MPEG Video, 720(768)x576 (4:3), 25,000 кадров/сек, 4 811 Кбит/сек
Аудио: MPEG Audio, 48,0 КГц, 192 Кбит/сек, 2 канала
General
Complete name : D:\Torrent\ПРОСТО УЖАС\ПРОСТО УЖАС 1 (Ностальгия).mpg
Format : MPEG-PS
File size : 2.27 GiB
Duration : 1h 3mn
Overall bit rate mode : Variable
Overall bit rate : 5 105 Kbps

Video
ID : 224 (0xE0)
Format : MPEG Video
Format version : Version 2
Format profile : Main@Main
Format settings, BVOP : Yes
Format settings, Matrix : Custom
Format settings, GOP : M=1, N=38
Duration : 1h 3mn
Bit rate mode : Variable
Bit rate : 4 811 Kbps
Maximum bit rate : 15.0 Mbps
Width : 720 pixels
Height : 576 pixels
Display aspect ratio : 4:3
Frame rate : 25.000 fps
Standard : PAL
Color space : YUV
Chroma subsampling : 4:2:0
Bit depth : 8 bits
Scan type : Interlaced
Scan order : Top Field First
Compression mode : Lossy
Bits/(Pixel*Frame) : 0.464
Stream size : 2.14 GiB (94%)

Audio
ID : 192 (0xC0)
Format : MPEG Audio
Format version : Version 1
Format profile : Layer 2
Duration : 1h 3mn
Bit rate mode : Constant
Bit rate : 192 Kbps
Channel(s) : 2 channels
Sampling rate : 48.0 KHz
Compression mode : Lossy
Stream size : 87.4 MiB (4%)

General
Complete name : D:\Torrent\ПРОСТО УЖАС\ПРОСТО УЖАС 2 (Ностальгия).mpg
Format : MPEG-PS
File size : 2.29 GiB
Duration : 1h 4mn
Overall bit rate mode : Variable
Overall bit rate : 5 101 Kbps

Video
ID : 224 (0xE0)
Format : MPEG Video
Format version : Version 2
Format profile : Main@Main
Format settings, BVOP : Yes
Format settings, Matrix : Custom
Format settings, GOP : M=1, N=38
Duration : 1h 4mn
Bit rate mode : Variable
Bit rate : 4 808 Kbps
Maximum bit rate : 15.0 Mbps
Width : 720 pixels
Height : 576 pixels
Display aspect ratio : 4:3
Frame rate : 25.000 fps
Standard : PAL
Color space : YUV
Chroma subsampling : 4:2:0
Bit depth : 8 bits
Scan type : Interlaced
Scan order : Top Field First
Compression mode : Lossy
Bits/(Pixel*Frame) : 0.464
Stream size : 2.15 GiB (94%)

Audio
ID : 192 (0xC0)
Format : MPEG Audio
Format version : Version 1
Format profile : Layer 2
Duration : 1h 4mn
Bit rate mode : Constant
Bit rate : 192 Kbps
Channel(s) : 2 channels
Sampling rate : 48.0 KHz
Compression mode : Lossy
Stream size : 88.1 MiB (4%)

 
Не забывайте говорить Спасибо. Не уходите с раздачи!   
Торрент: Зарегистрирован [28 апр 2014, 03:44] Скачать торрент
Скачать торрент
[ Размер 23.76 КБ / Просмотров 18 ]
Статус:
Проверен
 
.torrent скачан: 2 раз
Хэш: f279ab358dc95e1a14d1f1a92c7db2dc7a4a0c57
Размер: 4.55 ГБ (4 890 699 776 байт)
Стать Автором раздачи
 
Аватара пользователя
 
Раздал: 3.77 ТБ
Скачал: 406.3 ГБ
Ратио: 9.496
Сообщения: 468704
Зарегистрирован: 20 янв 2011, 21:15


  • Похожие торренты
    Ответы
    Просмотры
    Последнее сообщение

Вернуться в Кино СССР, Советской России, Российской республики (1917-1991)

Ресурс не предоставляет электронные версии произведений, а занимается лишь коллекционированием и каталогизацией ссылок, присылаемых и публикуемых на форуме нашими читателями. Если вы являетесь правообладателем какого-либо представленного материала и не желаете чтобы ссылка на него находилась в нашем каталоге, свяжитесь с нами и мы незамедлительно удалим её. Файлы для обмена на трекере предоставлены пользователями сайта, и администрация не несёт ответственности за их содержание. Просьба не заливать файлы, защищенные авторскими правами, а также файлы нелегального содержания!
cron