Счастье вечной ночи (Евгений Бауэр) [1915, драма, TVRip]

 
 Статистика раздачи 
Размер: 188.45 МБ   |  Зарегистрирован: 28 апр 2014, 03:37   |   .torrent скачан: 2 раз
Сидеров: 1  [ 0 байт/сек ]     Личеров: 0  [ 0 байт/сек ]  
  

Счастье вечной ночи (Евгений Бауэр) [1915, драма, TVRip]

Сообщение bagouser » 28 апр 2014, 03:37

Счастье вечной ночи


Жанр: драма
Год выпуска: 1915
Продолжительность: 0:38:41

Режиссёр: Евгений Бауэр

В ролях: Вера Каралли — Лили Плескова
Ольга Рахманова — мать Лили
Витольд Полонский — Вадим
Олег Фрелих — Георгий, брат Вадима
Павел Кнорр — доктор
Тамара Гедеванова — Медуза

Описание: Лили Плескова ослепла еще ребенком. Соседями и близкими друзьями Плесковых являются братья Вадим и Георгий. Они часто навещают Плесковых, и Лили инстинктивно тянется душой к Вадиму. И Вадим чувствует к Лили огромное нежное чувство. Он просит девушку стать его женой и едет за границу, где проводит несколько месяцев в неустанной работе у врачей-окулистов, надеясь вернуть зрение Лили. Радостный возвращается он в Москву, где ждет его Лили... Операция удается блестяще. И настает решительный момент — с лица Лили повязка снята... Неземная радость озаряет ее лицо, и с криком «я вижу... вижу»... бросается она в объятия матери. Оставшись на минуту позади, Вадим видит, что взгляд Лили падает на красивого Георгия... Она делает шаг к нему, простирает руки: «Вадим, милый... ты — ... да, да, таким я тебя и представляла себе»... Георгий делает движение... Она ошиблась, он должен сказать ей это... Но повелительное движение Вадима заставляет его молчать... Свершилась роковая ошибка... И Георгий, по настоянию брата, продолжает играть роль Вадима... Вот назначен и день свадьбы. Ликующая Лили одевается к венцу. Сейчас она должна ехать в церковь. Какой радостью бьется ее так много страдавшее сердечко, каким светлым кажется ей будущее. Но вдруг в комнату врывается какая-то странная женщина... «Ваш жених обманывает Вас... я — его любовница... — говорит она — и я не допущу... не допущу, чтобы он ушел к другой»... Это Сабина, — бывшая любовница Георгия, узнавшая о женитьбе его только в день его свадьбы, решилась па такой шаг... Бьющуюся в крике Сабину уводят... А Лили, как надломленный цветок, опускается без сознания в кресло... Обморок был продолжительным... От сильного нервного потрясения Лили снова ослепла... Проходят дни — Лили примирилась со своим несчастьем. Но тоска по любимом Вадиме не дает ей покоя. «Позови его, мама, — молит она, — скажи ему, что я все, все прощаю... без него я не могу жить»... И мать в отчаянии вызывает Вадима... настоящего Вадима, который еще ничего не знает о случившейся катастрофе. Вадим не переставал любить Лили ни на минуту, он спешит в Москву, чтобы быть возле бедной девушки. Радостный возглас горничной «Вадим Леонидович приехал» решает его судьбу. С трепетом счастья протягивает Лили к нему исхудалые руки. «Милый Вадим, ты снова со мной», — лепечет она и осыпает поцелуями его побледневшее лицо... И в этот раз снова является необходимой для спокойствия Лили — святая ложь... и в ее заблуждении не станут разуверять ее ни мать, ни Вадим... И настают для Лили дни счастья... счастья вечной ночи. Она — жена любимого Вадима, он окружает ее заботами, любовью. И никогда не узнает счастливая слепая о своем заблуждении.

Качество видео: TVRip
Формат видео: AVI

Видео: 314x240 (1.31:1), 15 fps, Microsoft MPEG-4 Video Codec V2 ~605 kbps avg, 0.54 bit/pixel
Аудио: 44.100 kHz, MPEG Layer 3, 2 ch, ~64.00 kbps avg
General
Complete name : C:\videooutput\Счастье вечной ночи. 1915 год..avi
Format : AVI
Format/Info : Audio Video Interleave
File size : 188 MiB
Duration : 38mn 41s
Overall bit rate : 681 Kbps
Writing application : Lavf52.31.0

Video
ID : 0
Format : MPEG-4 Visual
Codec ID : MP42
Codec ID/Info : Microsoft MPEG-4 v2 (pre-standard)
Codec ID/Hint : Microsoft
Duration : 38mn 41s
Bit rate : 606 Kbps
Width : 314 pixels
Height : 240 pixels
Display aspect ratio : 4:3
Frame rate : 15.000 fps
Compression mode : Lossy
Bits/(Pixel*Frame) : 0.536
Stream size : 168 MiB (89%)

Audio
ID : 1
Format : MPEG Audio
Format version : Version 1
Format profile : Layer 3
Mode : Joint stereo
Mode extension : MS Stereo
Codec ID : 55
Codec ID/Hint : MP3
Duration : 38mn 41s
Bit rate mode : Constant
Bit rate : 64.0 Kbps
Channel(s) : 2 channels
Sampling rate : 44.1 KHz
Compression mode : Lossy
Stream size : 17.7 MiB (9%)
Alignment : Aligned on interleaves
Interleave, duration : 26 ms (0.39 video frame)
 
Не забывайте говорить Спасибо. Не уходите с раздачи!   
Торрент: Зарегистрирован [28 апр 2014, 03:37] Скачать торрент
Скачать торрент
[ Размер 30.27 КБ / Просмотров 178 ]
Статус:
Проверен
 
.torrent скачан: 2 раз
Хэш: e75f07567f9904e2f27e4de7b6bc63ea75973ec6
Размер: 188.45 МБ (197 607 668 байт)
Стать Автором раздачи
 
Аватара пользователя
 
Раздал: 3.77 ТБ
Скачал: 406.3 ГБ
Ратио: 9.496
Сообщения: 468710
Зарегистрирован: 20 янв 2011, 21:15


  • Похожие торренты
    Ответы
    Просмотры
    Последнее сообщение

Вернуться в Фильмы Российской империи (до 1917 года)

Ресурс не предоставляет электронные версии произведений, а занимается лишь коллекционированием и каталогизацией ссылок, присылаемых и публикуемых на форуме нашими читателями. Если вы являетесь правообладателем какого-либо представленного материала и не желаете чтобы ссылка на него находилась в нашем каталоге, свяжитесь с нами и мы незамедлительно удалим её. Файлы для обмена на трекере предоставлены пользователями сайта, и администрация не несёт ответственности за их содержание. Просьба не заливать файлы, защищенные авторскими правами, а также файлы нелегального содержания!
cron