(Pop, Rock) [LP] [32(float)/96] Любэ - Давай за... (2002) 2014, WavPack (image+.cue)

 
 Статистика раздачи 
Размер: 1.19 ГБ   |  Зарегистрирован: 23 янв 2015, 14:26   |   .torrent скачан: 1 раз
Сидеров: 1  [ 0 байт/сек ]     Личеров: 0  [ 0 байт/сек ]  
  

(Pop, Rock) [LP] [32(float)/96] Любэ - Давай за... (2002) 2014, WavPack (image+.cue)

Сообщение Nakazhu » 23 янв 2015, 14:26

Любэ - Давай за... (2002)

Жанр: Pop, Rock
Носитель: LP
Год выпуска: 2014
Лейбл: -
Страна-производитель: Made in Germany
Аудио кодек: WavPack
Тип рипа: image+.cue
Формат записи: 32(float)/96
Формат раздачи: 32(float)/96
Наличие сканов в содержимом раздачи: png (600dpi)
Продолжительность: 00:38:23

Треклист:
01 - Березы
02 - Домой
03 - Покосы
04 - Это было, было...
05 - Бабушка
06 - Ты неси меня река (краса)
07 - Две подружки
08 - Поет гитара
09 - Охота
10 - Давай за...
11 - Березы (бонус трек)

Источник оцифровки: автором раздачи
Код класса состояния винила: Mint
Устройство воспроизведения: Yamaha YP-D71
Головка звукоснимателя: Ortofon 2M Bronze
Фонокорректор: Pro-Ject Phono Box MM
АЦП: M-Audio Audiophile 2496
Программа-оцифровщик: WaveLab 6
Обработка: ручное удаление пары щелчков (iZotope RX 4)
Спектр, Уровень, АЧХ
Dynamic Range
foobar2000 1.3.6 / Dynamic Range Meter 1.1.1
log date: 2015-01-22 16:49:48

--------------------------------------------------------------------------------
Analyzed: Любэ / Давай за...
--------------------------------------------------------------------------------

DR Peak RMS Duration Track
--------------------------------------------------------------------------------
DR12 -3.49 dB -18.40 dB 3:02 01-Березы
DR13 -0.66 dB -15.67 dB 3:22 02-Домой
DR11 -2.11 dB -15.17 dB 3:35 03-Покосы
DR11 -4.48 dB -19.11 dB 2:17 04-Это было, было...
DR11 -4.37 dB -18.73 dB 3:48 05-Бабушка
DR11 -3.96 dB -18.36 dB 3:39 06-Ты неси меня река (краса)
DR12 -0.50 dB -13.88 dB 4:08 07-Две подружки
DR12 -2.55 dB -16.68 dB 4:04 08-Поет гитара
DR13 -1.33 dB -16.15 dB 3:26 09-Охота
DR12 -2.46 dB -16.95 dB 4:10 10-Давай за...
DR11 -3.70 dB -18.91 dB 2:51 11-Березы (бонус трек)
--------------------------------------------------------------------------------

Number of tracks: 11
Official DR value: DR12

Samplerate: 96000 Hz
Channels: 2
Bits per sample: 32
Bitrate: 3640 kbps
Codec: WavPack

Раздача от:
 
Не забывайте говорить Спасибо. Не уходите с раздачи!   
Торрент: Зарегистрирован [23 янв 2015, 14:26] Скачать торрент
Скачать торрент
[ Размер 13.19 КБ / Просмотров 16 ]
Статус:
Проверен
 
.torrent скачан: 1 раз
Хэш: f0325ba50938839ba2ab295f1424fb9d31dbbc8c
Размер: 1.19 ГБ (1 273 666 272 байт)
Стать Автором раздачи
 
 
Раздал: 0 байт
Скачал: 0 байт
Ратио: Inf.
Сообщения: 487468
Зарегистрирован: 17 апр 2014, 13:57


  • Похожие торренты
    Ответы
    Просмотры
    Последнее сообщение

Вернуться в Отечественный рок (собственные оцифровки)

Ресурс не предоставляет электронные версии произведений, а занимается лишь коллекционированием и каталогизацией ссылок, присылаемых и публикуемых на форуме нашими читателями. Если вы являетесь правообладателем какого-либо представленного материала и не желаете чтобы ссылка на него находилась в нашем каталоге, свяжитесь с нами и мы незамедлительно удалим её. Файлы для обмена на трекере предоставлены пользователями сайта, и администрация не несёт ответственности за их содержание. Просьба не заливать файлы, защищенные авторскими правами, а также файлы нелегального содержания!
cron